<?xml version="1.0" standalone="no"?>
<!DOCTYPE svg PUBLIC "-//W3C//DTD SVG 1.1//EN" "http://www.w3.org/Graphics/SVG/1.1/DTD/svg11.dtd">
<svg xmlns="http://www.w3.org/2000/svg">
<defs >
<font id="Exo" horiz-adv-x="531" ><font-face
    font-family="Exo Black"
    units-per-em="1000"
    panose-1="0 0 0 0 0 0 0 0 0 0"
    ascent="1002"
    descent="-327"
    alphabetic="0" />
<glyph unicode=" " horiz-adv-x="250" />
<glyph unicode="!" horiz-adv-x="277" d="M97 206L159 742H353L241 206H97ZM82 -2Q61 -2 61 17Q61 18 61 19T61 21L80 138Q83 163 108 163H221Q242 163 242 145Q242 144 242 142T242 138L223 21Q221 8 214 3T195 -2H82Z" />
<glyph unicode="&quot;" horiz-adv-x="476" d="M120 491L141 692L151 759H336L326 692L284 491H120ZM340 491L361 692L371 759H556L546 692L504 491H340Z" />
<glyph unicode="#" horiz-adv-x="749" d="M116 0L183 191H41L82 323H229L259 409H110L152 541H306L373 732H505L438 541H526L592 732H724L658 541H825L785 409H617L587 323H755L716 191H536L469 0H337L404 191H315L248 0H116ZM361 323H455L485 409H391L361 323Z" />
<glyph unicode="$" horiz-adv-x="609" d="M361 718L378 824H486L469 718H361ZM233 -90L249 12H357L341 -90H233ZM309 -6Q249 -6 202 -2T118 9T56 23L80 177Q127 173 186 171T304 168Q342 168 364 172T397 187T411 216L413 227Q414 231 414 234T414 240Q414 260
398 268T344 276H304Q213 276 163 325T112 451Q112 472 115 494L124 551Q136 623 172 666T268 729T407 749Q434 749 462 748T519 743T578 734T639 720L615 566Q579 570 538 571T456 574T382 575Q361 575 345 571T319 556T305 528L303 517Q302 513 302 509T301 500Q301
480 313 470T352 459H396Q497 459 550 411T603 288Q603 270 600 249L589 179Q580 119 552 78T466 16T309 -6Z" />
<glyph unicode="%" horiz-adv-x="968" d="M192 0L762 732H886L323 0H192ZM216 349Q154 349 126 375T98 449Q98 466 101 484L119 597Q129 661 166 696T279 732H380Q443 732 471 706T499 632Q499 624 499 615T496 597L478 484Q468 420 431 385T317 349H216ZM261
474H312Q338 474 346 486T357 514L366 567Q367 571 367 574T367 581Q367 597 359 602T335 607H284Q268 607 256 600T239 567L230 514Q230 510 230 507T229 500Q229 489 235 482T261 474ZM704 3Q642 3 615 29T587 103Q587 119 590 138L608 251Q618 315 654 350T767
386H869Q932 386 960 360T988 286Q988 278 988 269T985 251L967 138Q957 74 920 39T806 3H704ZM750 128H800Q826 128 835 140T847 168L855 221Q856 225 856 228T856 235Q856 251 848 256T823 261H773Q757 261 745 254T728 221L720 168Q719 164 719 161T718 154Q718
143 724 136T750 128Z" />
<glyph unicode="&amp;" horiz-adv-x="715" d="M236 -6Q155 -6 106 42T57 168Q57 222 71 263T112 334T179 388L251 429L243 445Q226 479 222 505T217 552Q217 601 240 643T314 712T446 739Q481 739 516 735T582 723T631 710L609 568H457Q429 568 419 556T409 530Q409
517 417 499T442 453L519 317L677 438L733 350L657 229L601 181L708 0H510L454 85L409 51Q369 21 329 8T236 -6ZM296 171Q310 171 323 175T350 192L374 213L322 297L296 283Q280 274 271 264T258 242T254 217Q254 197 265 184T296 171Z" />
<glyph unicode="&apos;" horiz-adv-x="256" d="M120 491L141 692L151 759H336L326 692L284 491H120Z" />
<glyph unicode="(" horiz-adv-x="413" d="M198 -210Q167 -170 140 -118T97 3T80 160Q80 239 97 321T143 483T209 634T286 764T367 860H538Q490 799 443 718T358 545T297 356T274 169Q274 61 300 -28T369 -210H198Z" />
<glyph unicode=")" horiz-adv-x="413" d="M-22 -210Q26 -149 73 -68T158 105T219 294T242 481Q242 589 216 678T147 860H318Q349 820 376 768T419 647T436 490Q436 411 419 329T373 167T307 16T230 -114T149 -210H-22Z" />
<glyph unicode="*" horiz-adv-x="417" d="M367 498L320 571L452 652L484 595L367 498ZM361 393L248 459L312 538L411 449L361 393ZM205 397L142 418L188 556L276 532L205 397ZM117 566L128 636L270 655L260 561L117 566ZM289 584L271 722L341 744L382 618L289 584Z" />
<glyph unicode="+" horiz-adv-x="609" d="M248 132L318 580H472L402 132H248ZM124 279L148 433H596L572 279H124Z" />
<glyph unicode="," horiz-adv-x="257" d="M100 -97Q75 -97 57 -93T39 -88L49 -26Q65 -26 73 -22T83 -5L86 14H75Q54 14 54 34Q54 37 55 43T57 58L70 136Q73 163 99 163H210Q230 163 230 143Q230 140 230 133T227 117L206 -11Q200 -46 183 -65T144 -90T100 -97Z" />
<glyph unicode="-" horiz-adv-x="353" d="M54 213L78 367H392L368 213H54Z" />
<glyph unicode="." horiz-adv-x="257" d="M72 -2Q51 -2 51 17Q51 18 51 19T51 21L70 138Q73 163 98 163H211Q232 163 232 145Q232 144 232 142T232 138L213 21Q211 8 204 3T185 -2H72Z" />
<glyph unicode="/" horiz-adv-x="502" d="M0 -72L414 770H613L199 -72H0Z" />
<glyph unicode="0" horiz-adv-x="641" d="M242 -6Q183 -6 144 12T86 64T67 148Q67 159 68 171T71 196L125 537Q136 606 167 653T248 724T363 749H525Q606 749 648 708T691 590Q691 578 690 565T686 537L632 196Q617 102 558 48T404 -6H242ZM318 168H378Q405 168
421 181T443 226L489 517Q490 522 490 526T490 535Q490 559 479 567T450 575H375Q349 575 335 561T316 517L270 227Q269 222 269 218T268 209Q268 187 280 178T318 168Z" />
<glyph unicode="1" horiz-adv-x="379" d="M140 0L230 569L111 559L130 683L280 743H452L334 0H140Z" />
<glyph unicode="2" horiz-adv-x="582" d="M40 0L64 154L333 390Q371 424 390 457T410 519Q410 535 405 545T389 560T362 565H141L166 719Q212 729 269 739T401 749Q476 749 520 727T584 666T604 577Q604 501 577 433T482 305L334 174H582L554 0H40Z" />
<glyph unicode="3" horiz-adv-x="575" d="M327 -6Q247 -6 173 1T37 21L60 167H278Q317 167 339 171T371 187T384 216Q387 232 387 236T388 242Q388 258 377 269T346 288T295 296L143 303L165 443L336 454Q376 456 397 469T422 505Q423 512 423 515T424 521T424
526Q424 557 400 566T339 575H135L158 721Q220 732 289 740T428 749Q490 749 534 737T602 692T626 601Q626 595 626 587T623 560T615 510Q611 485 603 464T583 425T552 394T509 373Q527 367 540 356T563 330T576 295T581 253Q581 243 580 229T573 181Q559 90 494
42T327 -6Z" />
<glyph unicode="4" horiz-adv-x="635" d="M364 0L386 137H77L56 224L354 743H552L300 301H412L429 411L481 507H638L606 301H666L644 167L580 137L558 0H364Z" />
<glyph unicode="5" horiz-adv-x="592" d="M297 -6Q241 -6 175 0T45 14L70 168H334Q365 168 379 178T397 203T402 228L407 259Q408 264 408 268T409 277Q409 294 401 303T369 312H325Q301 312 291 304T275 277H89L184 743H647L619 569H342L320 456Q337 467 355
471T391 476H467Q542 476 576 437T610 336Q610 326 610 316T607 295L589 186Q579 118 544 76T447 14T297 -6Z" />
<glyph unicode="6" horiz-adv-x="597" d="M270 -6Q208 -6 166 13T101 79T79 211Q79 308 91 391T131 540T201 652T306 724T448 749Q501 749 549 745T636 729L612 575H443Q398 575 369 560T324 516T301 445Q321 454 340 458T385 464T448 466Q513 466 549 449T600
403T615 335Q615 324 614 312T610 286L593 178Q583 113 553 73T477 13T373 -6H270ZM338 168H355Q372 168 382 174T397 191T406 219L410 247Q411 253 411 258T412 269Q412 282 408 289T393 299T365 302H279Q276 283 274 267T272 237Q272 211 279 196T300 174T338
168Z" />
<glyph unicode="7" horiz-adv-x="561" d="M90 0L381 549H104L135 743H616L650 665L316 0H90Z" />
<glyph unicode="8" horiz-adv-x="618" d="M237 -6Q163 -6 126 12T76 59T63 115Q63 127 64 138T67 159L84 264Q88 288 98 312T128 355T176 380Q150 395 141 414T132 455Q132 468 134 482T138 510L151 596Q161 658 191 691T265 736T357 749H513Q584 749 621 723T659
635Q659 626 658 616T655 594L642 510Q640 500 635 482T621 445T598 411T563 394Q599 385 610 358T621 303Q621 292 620 282T618 264L602 165Q591 92 560 56T485 7T392 -6H237ZM308 158H360Q393 158 402 170T414 204L422 251Q422 253 422 255T423 260Q423 277 414
287T384 298H330Q318 298 309 295T293 285T282 270T276 251L268 204Q267 200 267 196T267 188Q267 172 276 165T308 158ZM356 462H408Q426 462 434 467T447 485T454 515L458 546Q459 550 459 553T460 559Q460 578 450 581T428 585H376Q358 585 348 580T332 546L328
515Q327 507 326 501T325 489Q325 471 332 467T356 462Z" />
<glyph unicode="9" horiz-adv-x="597" d="M443 749Q505 749 547 730T612 664T634 532Q634 435 622 352T582 203T512 91T407 19T265 -6Q212 -6 164 -1T77 14L101 168H270Q316 168 344 183T389 227T412 298Q392 290 373 285T328 279T265 277Q201 277 165 294T113
340T98 408Q98 419 99 431T103 457L120 565Q130 630 160 670T236 730T340 749H443ZM375 575H358Q342 575 332 569T316 552T307 524L303 496Q302 490 302 485T301 474Q301 462 305 455T320 444T348 441H434Q437 461 439 477T441 506Q441 533 434 548T413 569T375
575Z" />
<glyph unicode=":" horiz-adv-x="257" d="M72 -2Q51 -2 51 17Q51 18 51 19T51 21L70 138Q73 163 98 163H211Q232 163 232 145Q232 144 232 142T232 138L213 21Q211 8 204 3T185 -2H72ZM132 376Q111 376 111 395Q111 396 111 397T111 399L130 516Q133 541 158 541H271Q292
541 292 523Q292 522 292 520T292 516L273 399Q271 386 264 381T245 376H132Z" />
<glyph unicode=";" horiz-adv-x="257" d="M132 376Q111 376 111 395Q111 396 111 397T111 399L130 516Q133 541 158 541H271Q292 541 292 523Q292 522 292 520T292 516L273 399Q271 386 264 381T245 376H132ZM100 -97Q75 -97 57 -93T39 -88L49 -26Q65 -26 73 -22T83
-5L86 14H75Q54 14 54 34Q54 37 55 43T57 58L70 136Q73 163 99 163H210Q230 163 230 143Q230 140 230 133T227 117L206 -11Q200 -46 183 -65T144 -90T100 -97Z" />
<glyph unicode="&lt;" horiz-adv-x="609" d="M526 130L133 266L160 436L596 566L569 396L337 353L553 300L526 130Z" />
<glyph unicode="=" horiz-adv-x="609" d="M361 415L386 569H834L809 415H361ZM143 399L168 553H616L591 399H143Z" />
<glyph unicode="&gt;" horiz-adv-x="609" d="M113 130L140 300L374 353L156 396L183 566L577 436L550 266L113 130Z" />
<glyph unicode="?" horiz-adv-x="528" d="M167 206L202 430H284Q305 430 322 435T351 452T366 487L369 502Q369 505 369 508T369 513Q369 541 346 553T282 565Q243 565 205 557T126 535L149 679Q187 702 243 720T370 739Q468 739 519 692T571 570Q571 552 568
534L559 483Q544 387 485 337T323 286L311 206H167ZM152 -2Q131 -2 131 17Q131 18 131 19T131 21L150 138Q153 163 178 163H291Q312 163 312 145Q312 144 312 142T312 138L293 21Q291 8 284 3T265 -2H152Z" />
<glyph unicode="@" horiz-adv-x="942" d="M270 -199Q182 -199 133 -172T64 -100T44 -4Q44 12 45 27T49 59L123 521Q134 591 159 634T223 700T311 731T418 739H773Q843 739 888 713T955 642T978 540Q978 502 972 461L933 198Q925 145 906 108T857 46T786 11T695
0H581L547 53Q541 45 530 35T503 15T464 0T416 -6Q378 -6 345 14T292 77T272 189Q272 301 312 378T417 496T557 536Q624 536 671 516T755 467L701 127Q719 127 733 130T758 142T776 169T788 217L827 481Q829 493 830 503T831 524Q831 565 802 584T729 604H387Q340
604 315 585T280 538T265 481L195 39Q192 24 192 10Q192 -20 210 -42T281 -65H667L650 -172Q625 -177 581 -183T479 -194T358 -199H270ZM470 140Q498 140 524 152T563 180L595 388Q579 390 565 391T544 393Q504 393 476 370T433 306T418 211Q418 193 422 177T438
150T470 140Z" />
<glyph unicode="A" horiz-adv-x="709" d="M15 0L353 743H595L697 0H496L485 118H262L214 0H15ZM334 292H467L446 578L334 292Z" />
<glyph unicode="B" horiz-adv-x="649" d="M57 0L173 743H479Q560 743 603 723T662 667T679 585Q679 572 678 559T675 532Q667 481 632 440T539 386Q577 376 601 358T636 312T648 240Q648 230 648 216T642 175Q626 75 554 38T360 0H57ZM278 174H385Q411 174 427
180T453 200T465 240Q466 245 466 250T466 260Q466 283 452 293T402 304H298L278 174ZM321 451H425Q455 451 466 465T482 497Q484 508 485 516T487 531Q487 552 475 560T438 569H340L321 451Z" />
<glyph unicode="C" horiz-adv-x="592" d="M348 -6Q215 -6 151 65T86 258Q86 290 89 325T98 399Q116 516 154 593T257 710T420 749Q513 749 574 733T668 700L643 546Q603 558 552 566T456 575Q424 575 398 570T352 544T317 482T290 366Q285 332 282 305T278 256Q278
210 304 189T400 168Q463 168 503 171T585 179L561 26Q510 6 454 0T348 -6Z" />
<glyph unicode="D" horiz-adv-x="696" d="M55 0L173 743H464Q568 743 625 710T704 619T726 483Q726 451 724 416T715 344Q700 247 670 181T593 75T483 18T340 0H55ZM277 174H361Q395 174 421 185T467 221T499 283T521 375Q526 410 529 435T532 474Q532 511 520
531T483 560T416 569H339L277 174Z" />
<glyph unicode="E" horiz-adv-x="604" d="M251 -6Q223 -6 191 0T130 26T88 80T82 173L143 556Q154 627 184 667T260 725T360 743Q435 743 510 739T664 728L638 564H390Q359 564 347 550T329 507L322 460L568 450L544 296L294 286L285 228Q283 212 286 200T301
182T331 176H577L551 12Q481 5 408 0T251 -6Z" />
<glyph unicode="F" horiz-adv-x="572" d="M55 0L144 563Q156 635 189 674T268 728T358 743Q448 743 519 739T662 727L636 563H390Q359 563 346 549T329 508L317 429L565 420L540 266L290 256L249 0H55Z" />
<glyph unicode="G" horiz-adv-x="666" d="M275 -6Q169 -6 126 51T82 231Q82 276 87 322T100 410Q119 527 162 602T272 713T432 749Q531 749 591 739T697 713L673 561Q646 566 593 571T457 576Q400 576 368 558T320 495T290 368Q278 292 278 250Q278 215 293 194T345
173Q360 173 377 174T411 176T441 179T464 183L479 279H376L401 433Q427 435 469 439T567 443Q584 443 609 443T656 442T691 441L621 0H475L457 49Q442 40 419 30T371 12T320 -1T275 -6Z" />
<glyph unicode="H" horiz-adv-x="708" d="M55 0L173 743H367L321 457H541L587 743H781L663 0H469L514 283H294L249 0H55Z" />
<glyph unicode="I" horiz-adv-x="304" d="M55 0L173 743H367L249 0H55Z" />
<glyph unicode="J" horiz-adv-x="417" d="M157 -6Q126 -6 91 0T34 15L59 170Q75 170 91 170T123 170Q165 170 182 186T205 232L286 743H480L392 189Q375 82 321 38T157 -6Z" />
<glyph unicode="K" horiz-adv-x="671" d="M55 0L173 743H367L322 460H398L572 743H769L540 369L671 0H479L381 286H294L249 0H55Z" />
<glyph unicode="L" horiz-adv-x="537" d="M243 0Q170 0 127 37T83 150Q83 162 84 174T87 200L173 743H367L285 226Q284 222 284 219T284 213Q284 194 295 184T331 174H545L517 0H243Z" />
<glyph unicode="M" horiz-adv-x="906" d="M30 0L241 743H423L493 221L729 743H909L880 0H693L709 400L547 0H365L330 392L222 0H30Z" />
<glyph unicode="N" horiz-adv-x="709" d="M55 0L173 743H327L522 329L588 743H782L664 0H510L315 414L249 0H55Z" />
<glyph unicode="O" horiz-adv-x="704" d="M350 -6Q292 -6 243 4T158 40T103 115T83 239Q83 273 87 315T98 398Q114 499 142 566T215 674T322 731T470 749Q527 749 575 739T660 702T716 624T737 492Q737 461 733 419T722 336Q706 231 678 164T605 60T498 9T350
-6ZM380 169Q417 169 442 181T484 217T511 277T529 361Q535 399 539 434T543 490Q543 525 533 543T501 568T443 575Q408 575 383 566T341 534T312 472T291 373Q285 337 281 303T277 249Q277 219 287 202T320 177T380 169Z" />
<glyph unicode="P" horiz-adv-x="616" d="M55 0L173 743H479Q538 743 585 724T661 658T689 525Q689 509 686 486T679 443Q669 376 645 331T588 257T517 217T440 204Q394 204 350 211T285 226L249 0H55ZM309 378H412Q434 378 449 390T474 422T486 465Q488 478 489
490T491 506Q491 541 479 555T441 569H339L309 378Z" />
<glyph unicode="Q" horiz-adv-x="704" d="M500 -212Q444 -212 399 -195T327 -140T300 -41H434Q436 -61 451 -69T499 -78Q520 -78 543 -75T585 -68L563 -208Q539 -212 500 -212ZM350 -6Q292 -6 243 4T158 40T103 115T83 239Q83 273 87 315T98 398Q114 499 142 566T215
674T322 731T470 749Q527 749 575 739T660 702T716 624T737 492Q737 461 733 419T722 336Q706 231 678 164T605 60T498 9T350 -6ZM380 169Q417 169 442 181T484 217T511 277T529 361Q535 399 539 434T543 490Q543 525 533 543T501 568T443 575Q408 575 383 566T341
534T312 472T291 373Q285 337 281 303T277 249Q277 219 287 202T320 177T380 169Z" />
<glyph unicode="R" horiz-adv-x="644" d="M55 0L173 743H465Q518 743 558 732T626 697T667 637T681 549Q681 534 680 518T675 483Q668 433 652 399T615 344T575 309T541 288L624 0H427L364 256Q355 256 346 256T327 256T309 256T290 256L249 0H55ZM314 410H395Q427
410 443 419T468 447T480 494Q482 502 482 508T482 521Q482 536 477 546T460 563T426 569H339L314 410Z" />
<glyph unicode="S" horiz-adv-x="576" d="M309 -6Q249 -6 202 -2T118 9T56 23L80 177Q127 173 186 171T304 168Q342 168 364 172T397 187T411 216L413 227Q414 231 414 234T414 240Q414 260 398 268T344 276H304Q213 276 163 325T112 451Q112 472 115 494L124
551Q136 623 172 666T268 729T407 749Q434 749 462 748T519 743T578 734T639 720L615 566Q579 570 538 571T456 574T382 575Q361 575 345 571T319 556T305 528L303 517Q302 513 302 509T301 500Q301 480 313 470T352 459H396Q497 459 550 411T603 288Q603 270 600
249L589 179Q580 119 552 78T466 16T309 -6Z" />
<glyph unicode="T" horiz-adv-x="612" d="M204 0L294 569H110L138 743H700L672 569H488L398 0H204Z" />
<glyph unicode="U" horiz-adv-x="696" d="M350 -6Q224 -6 161 49T97 228Q97 254 101 285T110 350L173 743H367L300 320Q297 299 294 280T291 245Q291 208 310 188T378 168Q404 168 423 175T457 199T481 245T498 320L565 743H759L687 290Q672 196 644 138T575 48T477
6T350 -6Z" />
<glyph unicode="V" horiz-adv-x="710" d="M234 0L132 743H333L389 211L615 743H814L476 0H234Z" />
<glyph unicode="W" horiz-adv-x="1050" d="M185 0L133 743H334L354 291L537 743H711L749 291L913 743H1114L826 0H632L578 454L379 0H185Z" />
<glyph unicode="X" horiz-adv-x="680" d="M470 0L331 305L122 743H333L478 428L680 0H470ZM8 0L327 417L401 254L222 0H8ZM475 316L402 477L589 743H803L475 316Z" />
<glyph unicode="Y" horiz-adv-x="660" d="M227 0L259 200L128 743H339L388 408L549 743H768L453 200L421 0H227Z" />
<glyph unicode="Z" horiz-adv-x="573" d="M30 0L56 164L401 569H120L148 743H651L625 579L281 174H571L543 0H30Z" />
<glyph unicode="[" horiz-adv-x="344" d="M211 -210Q144 -210 108 -187T58 -128T44 -51Q44 -35 46 -19T50 12L149 640Q157 690 174 727T218 790T285 829T377 842H467L443 688H413Q385 688 366 672T339 610L245 22Q244 15 244 9T243 -4Q243 -33 257 -44T295 -56H325L301
-210H211Z" />
<glyph unicode="\" horiz-adv-x="502" d="M281 -72L133 770H332L480 -72H281Z" />
<glyph unicode="]" horiz-adv-x="344" d="M-22 -210L2 -56H32Q51 -56 66 -49T91 -25T106 22L200 610Q201 618 201 624T202 636Q202 665 188 676T150 688H120L144 842H234Q293 842 330 826T385 777T403 696Q403 683 402 669T398 640L299 12Q293 -25 280 -64T241
-136T173 -189T68 -210H-22Z" />
<glyph unicode="^" horiz-adv-x="378" d="M112 531L234 671H365L434 531H323L282 582L224 531H112Z" />
<glyph unicode="_" horiz-adv-x="609" d="M-33 -211L-9 -57H600L576 -211H-33Z" />
<glyph unicode="`" horiz-adv-x="244" d="M219 631L134 774H288L333 631H219Z" />
<glyph unicode="a" horiz-adv-x="575" d="M203 -6Q166 -6 135 13T84 74T65 182Q65 213 69 246T77 299Q90 381 125 435T220 517T367 545Q419 545 465 536T548 512T609 479L533 0H359L347 52Q333 39 310 26T260 3T203 -6ZM302 149Q325 149 341 159T366 178L399 383Q395
385 384 387T358 390Q332 390 314 377T284 341T267 288Q263 267 261 248T259 218Q259 193 267 171T302 149Z" />
<glyph unicode="b" horiz-adv-x="589" d="M398 -6Q368 -6 340 0T289 19T247 49L218 0H44L165 763H359L320 515Q348 529 380 537T436 545Q517 545 562 494T608 351Q608 329 604 295T594 223Q583 148 556 97T488 20T398 -6ZM335 149Q362 149 381 174T410 273Q412
287 413 299T414 320Q414 361 401 375T369 390Q353 390 333 387T298 375L266 171Q278 159 293 154T335 149Z" />
<glyph unicode="c" horiz-adv-x="471" d="M270 -6Q208 -6 163 14T93 79T69 204Q69 221 71 246T78 300Q92 391 127 444T214 521T329 545Q376 545 424 535T519 509L501 398H376Q339 398 318 382T285 337T267 270Q264 251 263 240T262 223Q262 195 270 177T294 149T334
139H467L450 30Q415 14 373 4T270 -6Z" />
<glyph unicode="d" horiz-adv-x="580" d="M215 -6Q139 -6 104 45T68 186Q68 242 80 303Q95 379 123 433T205 516T351 545Q371 545 391 544T427 541L462 763H656L535 0H361L349 52Q331 35 310 22T264 2T215 -6ZM305 149Q328 149 343 158T369 178L402 383Q397 385
386 387T361 390Q345 390 327 383T292 351T266 271Q264 257 263 244T261 217Q261 190 267 176T283 155T305 149Z" />
<glyph unicode="e" horiz-adv-x="548" d="M278 -6Q200 -6 154 19T88 91T68 203Q68 229 70 253T77 299Q92 391 130 444T227 521T364 545Q402 545 440 538T509 513T559 462T578 376Q578 318 561 281T514 225T443 198T357 190Q327 190 302 192T260 198Q259 194 259
189T258 178Q258 156 281 146T357 135H536L518 22Q473 11 411 3T278 -6ZM311 295Q348 295 366 302T391 323T398 355Q398 375 387 386T351 398Q329 398 314 387T288 354T272 299Q282 298 292 297T311 295Z" />
<glyph unicode="f" horiz-adv-x="401" d="M80 0L141 385H70L90 509L165 539L178 616Q186 661 203 690T247 737T310 762T392 769Q430 769 462 766T516 758L493 615H430Q409 615 394 611T371 595T361 560L359 539H468L444 385H335L274 0H80Z" />
<glyph unicode="g" horiz-adv-x="582" d="M151 -232L26 -221L47 -87H221Q255 -87 279 -83T317 -64T336 -24L348 52Q335 38 311 25T258 3T203 -6Q153 -6 123 21T79 92T66 183Q66 209 71 246T80 313Q91 384 119 429T186 500T271 535T364 545Q444 545 509 532T614
505L525 -54Q516 -109 491 -147T421 -206T310 -234T151 -232ZM305 149Q325 149 341 158T367 178L400 383Q390 387 378 388T355 390Q338 390 321 381T290 350T269 291Q264 260 262 247T260 217Q260 183 271 166T305 149Z" />
<glyph unicode="h" horiz-adv-x="600" d="M44 0L165 763H359L315 487Q341 509 384 527T486 545Q549 545 583 514T618 409Q618 379 612 340L558 0H364L414 318Q415 322 415 325T415 333Q415 356 403 363T374 371Q349 371 328 361T291 334L238 0H44Z" />
<glyph unicode="i" horiz-adv-x="280" d="M162 607Q152 607 146 613T142 630L159 741Q164 766 187 766H339Q350 766 354 759T357 741L340 630Q335 607 314 607H162ZM44 0L129 539H323L238 0H44Z" />
<glyph unicode="j" horiz-adv-x="280" d="M162 607Q152 607 146 613T142 630L159 741Q164 766 187 766H339Q350 766 354 759T357 741L340 630Q335 607 314 607H162ZM6 -237L129 539H323L237 -4Q227 -67 202 -128T150 -237H6Z" />
<glyph unicode="k" horiz-adv-x="587" d="M44 0L165 763H359L296 366Q334 377 363 399T412 457T443 539H637Q617 464 590 415T532 335T474 288L605 0H407L313 228Q304 226 293 224T273 222L238 0H44Z" />
<glyph unicode="l" horiz-adv-x="342" d="M256 0Q164 0 118 36T71 129Q71 146 71 161T74 189L165 763H359L279 258Q278 252 276 238T273 211T271 189Q271 165 283 158T317 146L346 141L324 0H256Z" />
<glyph unicode="m" horiz-adv-x="921" d="M44 0L129 539H291L315 487Q347 512 386 528T487 545Q529 545 560 528T614 467Q657 511 706 528T794 545Q876 545 906 509T937 417Q937 392 935 369T929 322L878 0H684L734 317Q735 321 735 324T735 331Q735 371 689 371Q670
371 650 362T611 334Q610 330 610 325T608 315L558 0H364L414 317Q415 322 415 325T415 332Q415 355 403 363T370 371Q342 371 324 360T291 334L238 0H44Z" />
<glyph unicode="n" horiz-adv-x="600" d="M44 0L129 539H291L315 487Q345 511 387 528T484 545Q526 545 556 530T602 489T618 427Q618 408 617 384T606 304L558 0H364L411 298Q413 312 414 320T415 334Q415 352 405 361T370 371Q348 371 327 361T291 334L238 0H44Z" />
<glyph unicode="o" horiz-adv-x="579" d="M289 -6Q214 -6 165 16T92 81T68 185Q68 216 70 241T76 289Q89 370 112 420T171 498T257 535T375 545Q467 545 514 524T578 458T595 344Q595 320 593 292T586 235Q571 137 535 85T438 13T289 -6ZM309 149Q330 149 344
154T366 171T381 205T393 262Q397 290 399 312T402 353Q402 377 390 385T350 394Q329 394 316 389T293 369T278 328T266 262Q263 242 262 226T260 194Q260 177 265 167T280 153T309 149Z" />
<glyph unicode="p" horiz-adv-x="576" d="M6 -237L125 511Q204 526 271 535T412 545Q515 545 554 495T594 348Q594 323 592 296T584 238Q570 151 533 98T444 19T333 -6Q305 -6 279 -2T239 9L200 -237H6ZM309 158Q332 158 349 168T379 204T399 274Q401 285 402
294T403 313Q403 354 393 372T356 390H299L263 165Q267 163 274 162T290 159T309 158Z" />
<glyph unicode="q" horiz-adv-x="573" d="M300 -237L346 52Q326 30 287 12T205 -6Q131 -6 99 41T66 179Q66 205 69 232T76 290Q88 367 115 417T179 495T261 534T352 545Q432 545 503 534T612 505L494 -237H300ZM302 149Q322 149 339 158T366 178L399 383Q386 387
376 388T355 390Q326 390 309 377T282 339T265 277Q261 257 260 242T258 218Q258 183 269 166T302 149Z" />
<glyph unicode="r" horiz-adv-x="435" d="M45 0L130 539H304L313 467Q339 499 372 522T449 545Q463 545 473 544T495 540L466 346Q452 346 437 346T408 346Q366 346 336 335T288 310L239 0H45Z" />
<glyph unicode="s" horiz-adv-x="516" d="M262 -6Q223 -6 193 -4T137 2T89 12T46 25L64 138H306Q319 138 327 143T336 156L338 168Q339 173 339 174T339 177Q339 192 314 192H246Q202 192 165 204T106 243T84 312Q84 323 84 335T87 360L93 395Q101 438 125 472T199
525T333 545Q368 545 406 541T479 530T541 513L523 400H296Q281 400 274 396T264 381L263 377Q262 373 262 370T261 363Q261 356 265 351T286 346H367Q436 346 477 316T518 236Q518 224 518 211T515 185L508 138Q496 59 431 27T262 -6Z" />
<glyph unicode="t" horiz-adv-x="424" d="M289 0Q200 0 155 30T109 127Q109 144 111 168T119 225L150 385H67L87 509L182 539L230 690H384L360 539H469L445 385H336L310 224Q309 218 307 205T305 183Q305 165 314 159T344 150L403 144L380 0H289Z" />
<glyph unicode="u" horiz-adv-x="600" d="M196 -6Q127 -6 97 28T67 122Q67 145 68 160T72 191L127 539H321L271 218Q270 214 270 211T270 203Q270 181 283 175T312 168Q338 168 358 179T394 205L447 539H641L556 0H382L370 52Q343 33 319 20T266 1T196 -6Z" />
<glyph unicode="v" horiz-adv-x="557" d="M156 0L75 539H275L300 179L379 378Q396 420 407 458T422 547H603Q601 479 576 416T524 297L380 0H156Z" />
<glyph unicode="w" horiz-adv-x="869" d="M152 0L75 539H275L299 179L440 539H563L626 179L687 395Q692 410 699 436T713 492T722 547H914Q914 510 905 469T882 390T856 326L706 0H501L456 222L357 0H152Z" />
<glyph unicode="x" horiz-adv-x="575" d="M382 0L261 208L68 539H266L405 303L581 0H382ZM-6 0L259 321L312 146L192 0H-6ZM393 202L323 359L447 539H655L393 202Z" />
<glyph unicode="y" horiz-adv-x="587" d="M96 -237V-101Q165 -87 208 -65T273 0Q215 5 183 25T136 78T118 156L86 539H286L289 197Q289 182 295 173T312 161T331 156L417 394Q430 429 440 468T451 547H635Q635 481 617 410T561 257L445 10Q403 -79 352 -131T238
-207T96 -237Z" />
<glyph unicode="z" horiz-adv-x="502" d="M31 0L53 138L309 385H81L105 539H557L536 401L279 154H496Q496 154 494 138T488 100T481 54T475 16T472 0H31Z" />
<glyph unicode="{" horiz-adv-x="322" d="M291 -210Q214 -210 166 -197T96 -155T74 -80Q74 -62 78 -31T88 38T101 110T111 171T115 204Q115 226 104 235T63 245L91 422Q108 424 122 429T146 445T159 475L188 656Q200 731 232 771T320 827T458 842L433 688Q412
688 401 681T385 657T375 614L348 440Q340 385 308 362T226 334Q268 325 291 304T315 248Q315 239 312 218T305 168T296 110T287 51T279 3T276 -26Q276 -45 284 -55T314 -66L291 -210Z" />
<glyph unicode="|" horiz-adv-x="250" d="M37 -72L170 770H324L191 -72H37Z" />
<glyph unicode="}" horiz-adv-x="322" d="M-23 -210L0 -66Q23 -66 34 -57T49 -33T56 -4L91 211Q98 254 129 279T211 314Q169 317 145 335T121 394Q121 404 124 431T133 492T144 561T152 619T156 650Q156 673 148 680T119 688L143 842Q216 842 263 825T334 775T357
694Q357 691 355 673T348 628T339 572T330 515T324 469T321 445Q321 430 328 421T347 408T374 402L346 225Q318 225 301 213T279 172L246 -38Q237 -92 219 -126T169 -178T90 -203T-23 -210Z" />
<glyph unicode="~" horiz-adv-x="404" d="M348 531Q332 531 318 536T292 548T266 560T238 566Q209 566 187 558T139 531L123 598Q146 625 180 648T257 672Q272 672 286 667T313 655T339 643T364 637Q383 637 399 642T430 657T457 677L472 603Q451 578 419 555T348 531Z" />
<glyph unicode="&#xa0;" horiz-adv-x="250" />
<glyph unicode="&#xa1;" horiz-adv-x="277" d="M266 337L204 -199H10L122 337H266ZM281 545Q302 545 302 526Q302 525 302 524T302 522L283 405Q280 380 255 380H142Q121 380 121 398Q121 400 121 402T121 405L140 522Q142 536 150 540T168 545H281Z" />
<glyph unicode="&#xa2;" horiz-adv-x="485" d="M197 -95L211 -5Q167 1 132 19T76 78T56 199Q56 281 75 343T128 447T206 511T301 536L316 634H424L409 534Q439 531 471 523T535 500L517 386Q517 386 476 389T368 392Q337 392 315 378T279 339T259 280T252 204Q252
178 259 164T284 145T328 139Q374 139 409 141T465 145T485 147L467 33Q433 13 395 5T319 -6L305 -95H197Z" />
<glyph unicode="&#xa3;" horiz-adv-x="609" d="M54 0L78 149L164 174L184 304L104 317L119 412L206 439L212 482Q227 576 263 634T361 721T516 749Q572 749 615 744T686 733L661 576H496Q469 576 452 570T425 548T410 504L400 439L558 422L541 317L378 304L358
174H597L569 0H54Z" />
<glyph unicode="&#xa4;" horiz-adv-x="609" d="M338 171Q292 171 255 193T197 252T175 333Q175 387 202 434T277 511T384 541Q430 541 467 519T526 460T548 379Q548 326 521 278T446 201T338 171ZM152 109L87 186L212 294L283 217L152 109ZM492 109L403 215L492
292L581 186L492 109ZM347 265Q376 265 400 277T439 313T453 370Q453 402 431 424T375 447Q346 447 323 435T285 399T271 342Q271 310 292 288T347 265ZM228 422L141 526L230 603L318 499L228 422ZM512 420L447 497L570 603L635 526L512 420Z" />
<glyph unicode="&#xa5;" horiz-adv-x="609" d="M115 261L130 355H584L569 261H115ZM92 114L107 208H561L546 114H92ZM204 0L236 200L105 743H316L365 408L526 743H745L430 200L398 0H204Z" />
<glyph unicode="&#xa6;" horiz-adv-x="250" d="M116 429L170 770H324L270 429H116ZM37 -72L89 256H243L191 -72H37Z" />
<glyph unicode="&#xa7;" horiz-adv-x="532" d="M313 -6Q283 -6 252 -6T189 -3T127 2T70 11L91 148H295Q310 148 318 150T330 156T335 167Q337 175 337 181T338 188Q338 194 333 197T313 200H233Q165 200 123 220T81 297Q81 303 81 309T83 323L88 355Q95 397 115
420T179 459Q152 474 142 497T131 549Q131 559 132 569T134 590L142 638Q149 678 172 711T241 764T355 784Q381 784 412 783T475 780T536 774T586 764L565 630H361Q347 630 339 627T326 619T321 606Q320 600 320 597T319 591Q319 584 323 580T344 575H421Q497 575
537 553T577 477Q577 465 574 450L569 418Q565 389 543 360T481 315Q507 306 520 286T533 233Q533 226 533 219T530 203L523 160Q513 96 484 60T412 9T313 -6ZM305 344H335Q348 344 356 346T370 354T378 374L383 403Q383 405 383 406T383 408Q383 419 375 424T349
430H319Q300 430 291 423T280 401L275 373Q275 372 275 371T275 368Q275 356 283 350T305 344Z" />
<glyph unicode="&#xa8;" horiz-adv-x="390" d="M346 627Q326 627 326 646Q326 647 327 652T332 681T345 761Q348 786 371 786H461Q481 786 481 766Q481 766 481 761T476 731T463 650Q460 627 436 627H346ZM149 627Q129 627 129 646Q129 647 130 652T135 681T148
761Q151 786 174 786H264Q284 786 284 766Q284 766 284 761T279 731T266 650Q263 627 239 627H149Z" />
<glyph unicode="&#xa9;" horiz-adv-x="792" d="M338 0Q278 0 231 18T150 70T98 151T80 258Q80 319 89 385T122 513T184 624T282 703T424 732H594Q673 732 726 704T806 625T833 504Q833 407 809 317T742 155T639 42T508 0H338ZM393 147Q358 147 327 159T278 204T259
295Q259 346 274 397T316 490T380 557T463 583Q482 583 511 581T571 574T628 559L613 467Q586 471 563 473T521 477T487 479Q457 479 436 466T401 430T381 379T375 321Q375 282 393 267T448 251Q489 251 524 256T587 267L573 175Q532 155 486 151T393 147ZM324
104H514Q555 104 593 131T661 208T710 329T728 488Q728 527 716 558T678 609T607 628H407Q353 628 312 600T242 522T200 410T185 276Q185 236 194 205T220 151T264 116T324 104Z" />
<glyph unicode="&#xaa;" horiz-adv-x="412" d="M60 248L74 336H446L432 248H60ZM189 356Q149 356 119 388T89 494Q89 517 92 542T98 581Q112 667 164 711T314 756Q375 756 423 741T499 707L444 360H300L289 397Q279 387 263 378T228 362T189 356ZM272 488Q284
488 292 493T305 504L325 624Q322 624 317 624T306 624Q292 624 282 617T267 598T257 573Q249 543 249 521Q249 512 252 500T272 488Z" />
<glyph unicode="&#xab;" horiz-adv-x="626" d="M259 56L64 284L325 507L407 412L257 284L368 154L259 56ZM509 56L314 284L575 507L657 412L507 284L618 154L509 56Z" />
<glyph unicode="&#xac;" horiz-adv-x="609" d="M399 159L448 467H602L553 159H399ZM143 399L168 553H616L591 399H143Z" />
<glyph unicode="&#xad;" horiz-adv-x="353" d="M54 213L78 367H392L368 213H54Z" />
<glyph unicode="&#xae;" horiz-adv-x="792" d="M338 0Q278 0 231 18T150 70T98 151T80 258Q80 319 89 385T122 513T184 624T282 703T424 732H594Q673 732 726 704T806 625T833 504Q833 407 809 317T742 155T639 42T508 0H338ZM261 153L329 580H516Q545 580 571
572T614 541T631 477Q631 442 621 407T591 347T543 311L602 153H488L437 315H401L375 153H261ZM324 104H514Q555 104 593 131T661 208T710 329T728 488Q728 527 716 558T678 609T607 628H407Q353 628 312 600T242 522T200 410T185 276Q185 236 194 205T220 151T264
116T324 104ZM414 399H483Q492 399 499 407T510 429T515 454Q515 467 510 471T495 476H426L414 399Z" />
<glyph unicode="&#xaf;" horiz-adv-x="348" d="M128 631L146 745H438L420 631H128Z" />
<glyph unicode="&#xb0;" horiz-adv-x="311" d="M230 470Q172 470 136 506T100 604Q100 647 119 686T178 750T279 775Q339 775 373 739T408 642Q408 598 390 559T333 495T230 470ZM244 557Q278 557 299 578T320 636Q320 660 306 674T265 688Q231 688 210 666T188
609Q188 585 203 571T244 557Z" />
<glyph unicode="&#xb1;" horiz-adv-x="609" d="M92 79L117 233H565L540 79H92ZM272 282L342 730H496L426 282H272ZM148 429L172 583H620L596 429H148Z" />
<glyph unicode="&#xb2;" horiz-adv-x="414" d="M95 355L114 474L271 623Q291 644 304 661T317 686Q317 697 311 700T291 703H155L174 823Q207 831 248 838T344 846Q419 846 450 821T481 745Q481 693 459 648T377 547L319 490H456L434 355H95Z" />
<glyph unicode="&#xb3;" horiz-adv-x="414" d="M295 351Q241 351 191 356T96 372L116 494H256Q281 494 292 495T308 499T312 505L313 511Q313 513 313 514T313 516Q313 522 310 526T298 532T277 535L161 540L180 658L290 666Q313 668 323 671T335 681L336 687Q336
688 336 688T336 690Q336 698 326 700T287 703H152L171 824Q225 834 275 840T373 846Q429 846 462 823T496 747Q496 741 496 734T494 719L489 689Q486 670 480 653T461 622T423 599Q441 593 450 582T462 555T466 521Q466 514 466 506T463 490L460 472Q450 412 407
382T295 351Z" />
<glyph unicode="&#xb4;" horiz-adv-x="244" d="M111 631L192 774H356L235 631H111Z" />
<glyph unicode="&#xb5;" horiz-adv-x="600" d="M265 -6Q235 -6 201 4T137 36T89 88T70 162Q70 170 70 177T72 191L127 539H321L270 217Q270 213 270 210T269 202Q269 180 282 173T315 165Q338 165 359 174T393 196L447 539H641L556 0H394L380 52Q358 24 331 9T265
-6ZM-1 -270L82 255H276L193 -270H-1Z" />
<glyph unicode="&#xb6;" horiz-adv-x="574" d="M189 -270L283 319Q274 314 256 308T212 302Q147 302 119 334T90 415Q90 423 91 433T96 465L118 603Q126 651 150 682T211 728T296 743H702L682 617H632L534 0H410L508 619H454L313 -270H189ZM255 426H299L330 619H286Q259
619 250 609T236 569L222 482Q220 469 219 462T218 450Q218 440 222 435T235 428T255 426Z" />
<glyph unicode="&#xb7;" horiz-adv-x="256" d="M120 305Q110 305 104 311T99 328L118 445Q121 470 146 470H259Q285 470 280 445L261 328Q259 315 252 310T233 305H120Z" />
<glyph unicode="&#xb8;" horiz-adv-x="238" d="M-4 -203L8 -124L24 -121Q38 -118 46 -113T57 -102T60 -89Q60 -81 54 -74T33 -62L111 -47Q138 -47 160 -61T183 -113Q183 -137 170 -157T129 -190T55 -203H-4ZM33 -62L96 20H182L119 -62H33Z" />
<glyph unicode="&#xb9;" horiz-adv-x="414" d="M195 355L252 712H167L182 808L290 846H427L349 355H195ZM103 355L125 490H462L440 355H103Z" />
<glyph unicode="&#xba;" horiz-adv-x="424" d="M60 248L74 336H446L432 248H60ZM259 356Q201 356 164 373T110 421T91 496Q91 520 93 538T97 573Q110 652 136 691T208 743T321 756Q392 756 427 740T475 692T488 607Q488 590 487 570T481 528Q470 457 443 420T371
369T259 356ZM276 488Q292 488 300 493T313 512T322 550Q326 571 326 584T327 611Q326 620 320 623T300 627Q284 627 276 622T264 602T256 563Q252 540 252 529T252 507Q253 502 254 498T261 491T276 488Z" />
<glyph unicode="&#xbb;" horiz-adv-x="626" d="M131 56L54 154L205 284L95 412L207 507L398 284L131 56ZM381 56L304 154L455 284L345 412L457 507L648 284L381 56Z" />
<glyph unicode="&#xbc;" horiz-adv-x="1157" d="M289 0L777 770H908L420 0H289ZM924 -75L937 4H739L723 70L908 412H1065L917 131H957L965 185L1005 253H1130L1111 131H1143L1125 27L1091 4L1078 -75H924ZM195 355L252 712H167L182 808L290 846H427L349 355H195ZM103
355L125 490H462L440 355H103Z" />
<glyph unicode="&#xbd;" horiz-adv-x="1157" d="M289 0L777 770H908L420 0H289ZM760 -75L779 44L936 193Q956 214 969 231T982 256Q982 267 976 270T956 273H820L839 393Q872 401 913 408T1009 416Q1084 416 1115 391T1146 315Q1146 263 1124 218T1042 117L984
60H1121L1099 -75H760ZM195 355L252 712H167L182 808L290 846H427L349 355H195ZM103 355L125 490H462L440 355H103Z" />
<glyph unicode="&#xbe;" horiz-adv-x="1156" d="M289 0L777 770H908L420 0H289ZM924 -65L937 14H739L723 80L908 422H1065L917 141H957L965 195L1005 263H1130L1111 141H1143L1125 37L1091 14L1078 -65H924ZM305 351Q251 351 201 356T106 372L126 494H266Q291
494 302 495T318 499T322 505L323 511Q323 513 323 514T323 516Q323 522 320 526T308 532T287 535L171 540L190 658L300 666Q323 668 333 671T345 681L346 687Q346 688 346 688T346 690Q346 698 336 700T297 703H162L181 824Q235 834 285 840T383 846Q439 846 472
823T506 747Q506 741 506 734T504 719L499 689Q496 670 490 653T471 622T433 599Q451 593 460 582T472 555T476 521Q476 514 476 506T473 490L470 472Q460 412 417 382T305 351Z" />
<glyph unicode="&#xbf;" horiz-adv-x="528" d="M447 337L412 113H330Q309 113 292 108T263 91T248 56L245 41Q245 38 245 35T245 30Q245 2 268 -10T332 -22Q371 -22 409 -14T488 8L465 -136Q427 -159 371 -177T244 -196Q146 -196 95 -149T43 -27Q43 -9 46 9L55
60Q70 156 129 206T291 257L303 337H447ZM462 545Q483 545 483 526Q483 525 483 524T483 522L464 405Q461 380 436 380H323Q302 380 302 398Q302 400 302 402T302 405L321 522Q323 536 331 540T349 545H462Z" />
<glyph unicode="&#xc0;" horiz-adv-x="709" d="M15 0L353 743H595L697 0H496L485 118H262L214 0H15ZM334 292H467L446 578L334 292ZM438 791L353 934H507L552 791H438Z" />
<glyph unicode="&#xc1;" horiz-adv-x="709" d="M15 0L353 743H595L697 0H496L485 118H262L214 0H15ZM334 292H467L446 578L334 292ZM410 791L491 934H655L534 791H410Z" />
<glyph unicode="&#xc2;" horiz-adv-x="709" d="M15 0L353 743H595L697 0H496L485 118H262L214 0H15ZM334 292H467L446 578L334 292ZM305 791L428 937H559L627 791H516L477 852L417 791H305Z" />
<glyph unicode="&#xc3;" horiz-adv-x="709" d="M15 0L353 743H595L697 0H496L485 118H262L214 0H15ZM334 292H467L446 578L334 292ZM281 785Q301 863 336 892T414 922Q437 922 456 918T492 908T523 898T551 893Q566 893 574 903T586 929H682Q662 852 631 820T551
787Q530 787 510 791T471 801T438 811T413 816Q397 816 389 806T377 785H281Z" />
<glyph unicode="&#xc4;" horiz-adv-x="709" d="M15 0L353 743H595L697 0H496L485 118H262L214 0H15ZM334 292H467L446 578L334 292ZM527 787Q507 787 507 806Q507 807 508 812T513 841T526 921Q529 946 552 946H642Q662 946 662 926Q662 926 662 921T657 891T644
810Q641 787 617 787H527ZM330 787Q310 787 310 806Q310 807 311 812T316 841T329 921Q332 946 355 946H445Q465 946 465 926Q465 926 465 921T460 891T447 810Q444 787 420 787H330Z" />
<glyph unicode="&#xc5;" horiz-adv-x="709" d="M15 0L353 743H595L697 0H496L485 118H262L214 0H15ZM334 292H467L446 578L334 292ZM477 760Q419 760 388 783T357 863Q357 900 374 929T425 977T506 995Q565 995 595 972T625 892Q625 836 588 798T477 760ZM486
829Q512 829 524 847T536 889Q536 909 526 917T498 926Q470 926 458 908T446 866Q446 846 456 838T486 829Z" />
<glyph unicode="&#xc6;" horiz-adv-x="1011" d="M655 -6Q611 -6 579 -1T525 18T494 52T483 103V118H281L195 0H6L376 552Q431 634 497 674T634 729T775 743Q828 743 907 739T1072 727L1046 564H787Q768 564 755 561T735 550T724 529T716 496L710 458L978 448L954
294L683 284L674 228Q670 202 680 191T706 178T737 176H985L959 14Q928 10 888 7T807 1T732 -3T676 -5T655 -6ZM392 282H509L547 527L392 282Z" />
<glyph unicode="&#xc7;" horiz-adv-x="592" d="M348 -6Q215 -6 151 65T86 258Q86 290 89 325T98 399Q116 516 154 593T257 710T420 749Q513 749 574 733T668 700L643 546Q603 558 552 566T456 575Q424 575 398 570T352 544T317 482T290 366Q285 332 282 305T278
256Q278 210 304 189T400 168Q463 168 503 171T585 179L561 26Q510 6 454 0T348 -6ZM195 -203L207 -124L223 -121Q237 -118 245 -113T256 -102T259 -89Q259 -81 253 -74T232 -62L310 -47Q337 -47 359 -61T382 -113Q382 -137 369 -157T328 -190T254 -203H195ZM232
-62L295 20H381L318 -62H232Z" />
<glyph unicode="&#xc8;" horiz-adv-x="604" d="M251 -6Q223 -6 191 0T130 26T88 80T82 173L143 556Q154 627 184 667T260 725T360 743Q435 743 510 739T664 728L638 564H390Q359 564 347 550T329 507L322 460L568 450L544 296L294 286L285 228Q283 212 286 200T301
182T331 176H577L551 12Q481 5 408 0T251 -6ZM388 791L303 934H457L502 791H388Z" />
<glyph unicode="&#xc9;" horiz-adv-x="604" d="M251 -6Q223 -6 191 0T130 26T88 80T82 173L143 556Q154 627 184 667T260 725T360 743Q435 743 510 739T664 728L638 564H390Q359 564 347 550T329 507L322 460L568 450L544 296L294 286L285 228Q283 212 286 200T301
182T331 176H577L551 12Q481 5 408 0T251 -6ZM360 791L441 934H605L484 791H360Z" />
<glyph unicode="&#xca;" horiz-adv-x="604" d="M251 -6Q223 -6 191 0T130 26T88 80T82 173L143 556Q154 627 184 667T260 725T360 743Q435 743 510 739T664 728L638 564H390Q359 564 347 550T329 507L322 460L568 450L544 296L294 286L285 228Q283 212 286 200T301
182T331 176H577L551 12Q481 5 408 0T251 -6ZM255 791L378 937H509L577 791H466L427 852L367 791H255Z" />
<glyph unicode="&#xcb;" horiz-adv-x="604" d="M251 -6Q223 -6 191 0T130 26T88 80T82 173L143 556Q154 627 184 667T260 725T360 743Q435 743 510 739T664 728L638 564H390Q359 564 347 550T329 507L322 460L568 450L544 296L294 286L285 228Q283 212 286 200T301
182T331 176H577L551 12Q481 5 408 0T251 -6ZM477 787Q457 787 457 806Q457 807 458 812T463 841T476 921Q479 946 502 946H592Q612 946 612 926Q612 926 612 921T607 891T594 810Q591 787 567 787H477ZM280 787Q260 787 260 806Q260 807 261 812T266 841T279 921Q282
946 305 946H395Q415 946 415 926Q415 926 415 921T410 891T397 810Q394 787 370 787H280Z" />
<glyph unicode="&#xcc;" horiz-adv-x="304" d="M55 0L173 743H367L249 0H55ZM238 791L153 934H307L352 791H238Z" />
<glyph unicode="&#xcd;" horiz-adv-x="304" d="M55 0L173 743H367L249 0H55ZM210 791L291 934H455L334 791H210Z" />
<glyph unicode="&#xce;" horiz-adv-x="304" d="M55 0L173 743H367L249 0H55ZM105 791L228 937H359L427 791H316L277 852L217 791H105Z" />
<glyph unicode="&#xcf;" horiz-adv-x="304" d="M55 0L173 743H367L249 0H55ZM327 787Q307 787 307 806Q307 807 308 812T313 841T326 921Q329 946 352 946H442Q462 946 462 926Q462 926 462 921T457 891T444 810Q441 787 417 787H327ZM130 787Q110 787 110 806Q110
807 111 812T116 841T129 921Q132 946 155 946H245Q265 946 265 926Q265 926 265 921T260 891T247 810Q244 787 220 787H130Z" />
<glyph unicode="&#xd0;" horiz-adv-x="696" d="M54 311L74 435H398L378 311H54ZM55 0L173 743H464Q568 743 625 710T704 619T726 483Q726 451 724 416T715 344Q700 247 670 181T593 75T483 18T340 0H55ZM277 174H361Q395 174 421 185T467 221T499 283T521 375Q526
410 529 435T532 474Q532 511 520 531T483 560T416 569H339L277 174Z" />
<glyph unicode="&#xd1;" horiz-adv-x="709" d="M55 0L173 743H327L522 329L588 743H782L664 0H510L315 414L249 0H55ZM263 785Q283 863 318 892T396 922Q419 922 438 918T474 908T505 898T533 893Q548 893 556 903T568 929H664Q644 852 613 820T533 787Q512 787
492 791T453 801T420 811T395 816Q379 816 371 806T359 785H263Z" />
<glyph unicode="&#xd2;" horiz-adv-x="704" d="M350 -6Q292 -6 243 4T158 40T103 115T83 239Q83 273 87 315T98 398Q114 499 142 566T215 674T322 731T470 749Q527 749 575 739T660 702T716 624T737 492Q737 461 733 419T722 336Q706 231 678 164T605 60T498 9T350
-6ZM380 169Q417 169 442 181T484 217T511 277T529 361Q535 399 539 434T543 490Q543 525 533 543T501 568T443 575Q408 575 383 566T341 534T312 472T291 373Q285 337 281 303T277 249Q277 219 287 202T320 177T380 169ZM439 791L354 934H508L553 791H439Z" />
<glyph unicode="&#xd3;" horiz-adv-x="704" d="M350 -6Q292 -6 243 4T158 40T103 115T83 239Q83 273 87 315T98 398Q114 499 142 566T215 674T322 731T470 749Q527 749 575 739T660 702T716 624T737 492Q737 461 733 419T722 336Q706 231 678 164T605 60T498 9T350
-6ZM380 169Q417 169 442 181T484 217T511 277T529 361Q535 399 539 434T543 490Q543 525 533 543T501 568T443 575Q408 575 383 566T341 534T312 472T291 373Q285 337 281 303T277 249Q277 219 287 202T320 177T380 169ZM411 791L492 934H656L535 791H411Z" />
<glyph unicode="&#xd4;" horiz-adv-x="704" d="M350 -6Q292 -6 243 4T158 40T103 115T83 239Q83 273 87 315T98 398Q114 499 142 566T215 674T322 731T470 749Q527 749 575 739T660 702T716 624T737 492Q737 461 733 419T722 336Q706 231 678 164T605 60T498 9T350
-6ZM380 169Q417 169 442 181T484 217T511 277T529 361Q535 399 539 434T543 490Q543 525 533 543T501 568T443 575Q408 575 383 566T341 534T312 472T291 373Q285 337 281 303T277 249Q277 219 287 202T320 177T380 169ZM306 791L429 937H560L628 791H517L478
852L418 791H306Z" />
<glyph unicode="&#xd5;" horiz-adv-x="704" d="M350 -6Q292 -6 243 4T158 40T103 115T83 239Q83 273 87 315T98 398Q114 499 142 566T215 674T322 731T470 749Q527 749 575 739T660 702T716 624T737 492Q737 461 733 419T722 336Q706 231 678 164T605 60T498 9T350
-6ZM380 169Q417 169 442 181T484 217T511 277T529 361Q535 399 539 434T543 490Q543 525 533 543T501 568T443 575Q408 575 383 566T341 534T312 472T291 373Q285 337 281 303T277 249Q277 219 287 202T320 177T380 169ZM282 785Q302 863 337 892T415 922Q438
922 457 918T493 908T524 898T552 893Q567 893 575 903T587 929H683Q663 852 632 820T552 787Q531 787 511 791T472 801T439 811T414 816Q398 816 390 806T378 785H282Z" />
<glyph unicode="&#xd6;" horiz-adv-x="704" d="M350 -6Q292 -6 243 4T158 40T103 115T83 239Q83 273 87 315T98 398Q114 499 142 566T215 674T322 731T470 749Q527 749 575 739T660 702T716 624T737 492Q737 461 733 419T722 336Q706 231 678 164T605 60T498 9T350
-6ZM380 169Q417 169 442 181T484 217T511 277T529 361Q535 399 539 434T543 490Q543 525 533 543T501 568T443 575Q408 575 383 566T341 534T312 472T291 373Q285 337 281 303T277 249Q277 219 287 202T320 177T380 169ZM528 787Q508 787 508 806Q508 807 509
812T514 841T527 921Q530 946 553 946H643Q663 946 663 926Q663 926 663 921T658 891T645 810Q642 787 618 787H528ZM331 787Q311 787 311 806Q311 807 312 812T317 841T330 921Q333 946 356 946H446Q466 946 466 926Q466 926 466 921T461 891T448 810Q445 787
421 787H331Z" />
<glyph unicode="&#xd7;" horiz-adv-x="609" d="M226 143L135 252L502 569L593 460L226 143ZM434 143L167 460L294 569L561 252L434 143Z" />
<glyph unicode="&#xd8;" horiz-adv-x="708" d="M35 0L685 743H790L140 0H35ZM350 -6Q292 -6 243 4T158 40T103 115T83 239Q83 273 87 315T98 398Q114 499 142 566T215 674T322 731T470 749Q527 749 575 739T660 702T716 624T737 492Q737 461 733 419T722 336Q706
231 678 164T605 60T498 9T350 -6ZM380 169Q417 169 442 181T484 217T511 277T529 361Q535 399 539 434T543 490Q543 525 533 543T501 568T443 575Q408 575 383 566T341 534T312 472T291 373Q285 337 281 303T277 249Q277 219 287 202T320 177T380 169Z" />
<glyph unicode="&#xd9;" horiz-adv-x="696" d="M350 -6Q224 -6 161 49T97 228Q97 254 101 285T110 350L173 743H367L300 320Q297 299 294 280T291 245Q291 208 310 188T378 168Q404 168 423 175T457 199T481 245T498 320L565 743H759L687 290Q672 196 644 138T575
48T477 6T350 -6ZM430 791L345 934H499L544 791H430Z" />
<glyph unicode="&#xda;" horiz-adv-x="696" d="M350 -6Q224 -6 161 49T97 228Q97 254 101 285T110 350L173 743H367L300 320Q297 299 294 280T291 245Q291 208 310 188T378 168Q404 168 423 175T457 199T481 245T498 320L565 743H759L687 290Q672 196 644 138T575
48T477 6T350 -6ZM402 791L483 934H647L526 791H402Z" />
<glyph unicode="&#xdb;" horiz-adv-x="696" d="M350 -6Q224 -6 161 49T97 228Q97 254 101 285T110 350L173 743H367L300 320Q297 299 294 280T291 245Q291 208 310 188T378 168Q404 168 423 175T457 199T481 245T498 320L565 743H759L687 290Q672 196 644 138T575
48T477 6T350 -6ZM297 791L420 937H551L619 791H508L469 852L409 791H297Z" />
<glyph unicode="&#xdc;" horiz-adv-x="696" d="M350 -6Q224 -6 161 49T97 228Q97 254 101 285T110 350L173 743H367L300 320Q297 299 294 280T291 245Q291 208 310 188T378 168Q404 168 423 175T457 199T481 245T498 320L565 743H759L687 290Q672 196 644 138T575
48T477 6T350 -6ZM519 787Q499 787 499 806Q499 807 500 812T505 841T518 921Q521 946 544 946H634Q654 946 654 926Q654 926 654 921T649 891T636 810Q633 787 609 787H519ZM322 787Q302 787 302 806Q302 807 303 812T308 841T321 921Q324 946 347 946H437Q457
946 457 926Q457 926 457 921T452 891T439 810Q436 787 412 787H322Z" />
<glyph unicode="&#xdd;" horiz-adv-x="660" d="M227 0L259 200L128 743H339L388 408L549 743H768L453 200L421 0H227ZM390 791L471 934H635L514 791H390Z" />
<glyph unicode="&#xde;" horiz-adv-x="582" d="M55 0L173 743H367L249 0H55ZM390 124Q346 124 304 133T231 151L254 298H362Q384 298 399 307T424 332T436 365Q438 378 439 390T441 406Q441 432 426 442T381 453H268L296 627H419Q481 627 530 610T609 548T639
425Q639 409 636 386T629 343Q619 282 596 240T539 173T467 136T390 124Z" />
<glyph unicode="&#xdf;" horiz-adv-x="620" d="M410 -6Q367 -6 330 -2T272 10L292 141Q323 139 343 139T381 138Q402 138 413 140T429 146T435 156Q436 161 436 163T436 167Q436 178 428 187T407 208T383 233T362 268T353 316Q353 346 364 373T391 424T424 470T451
512T462 550Q462 573 444 585T391 598Q353 598 333 568T301 461L228 0H34L121 551Q130 609 165 658T260 738T408 769Q492 769 543 742T616 673T639 583Q639 551 630 525T607 477T579 439T556 406T546 376Q546 366 554 355T574 329T597 299T617 261T625 213Q625
206 624 194T616 142Q609 93 586 64T532 19T469 -1T410 -6Z" />
<glyph unicode="&#xe0;" horiz-adv-x="575" d="M203 -6Q166 -6 135 13T84 74T65 182Q65 213 69 246T77 299Q90 381 125 435T220 517T367 545Q419 545 465 536T548 512T609 479L533 0H359L347 52Q333 39 310 26T260 3T203 -6ZM302 149Q325 149 341 159T366 178L399
383Q395 385 384 387T358 390Q332 390 314 377T284 341T267 288Q263 267 261 248T259 218Q259 193 267 171T302 149ZM338 631L253 774H407L452 631H338Z" />
<glyph unicode="&#xe1;" horiz-adv-x="575" d="M203 -6Q166 -6 135 13T84 74T65 182Q65 213 69 246T77 299Q90 381 125 435T220 517T367 545Q419 545 465 536T548 512T609 479L533 0H359L347 52Q333 39 310 26T260 3T203 -6ZM302 149Q325 149 341 159T366 178L399
383Q395 385 384 387T358 390Q332 390 314 377T284 341T267 288Q263 267 261 248T259 218Q259 193 267 171T302 149ZM320 631L401 774H565L444 631H320Z" />
<glyph unicode="&#xe2;" horiz-adv-x="575" d="M203 -6Q166 -6 135 13T84 74T65 182Q65 213 69 246T77 299Q90 381 125 435T220 517T367 545Q419 545 465 536T548 512T609 479L533 0H359L347 52Q333 39 310 26T260 3T203 -6ZM302 149Q325 149 341 159T366 178L399
383Q395 385 384 387T358 390Q332 390 314 377T284 341T267 288Q263 267 261 248T259 218Q259 193 267 171T302 149ZM214 631L337 777H468L536 631H425L386 692L326 631H214Z" />
<glyph unicode="&#xe3;" horiz-adv-x="575" d="M203 -6Q166 -6 135 13T84 74T65 182Q65 213 69 246T77 299Q90 381 125 435T220 517T367 545Q419 545 465 536T548 512T609 479L533 0H359L347 52Q333 39 310 26T260 3T203 -6ZM302 149Q325 149 341 159T366 178L399
383Q395 385 384 387T358 390Q332 390 314 377T284 341T267 288Q263 267 261 248T259 218Q259 193 267 171T302 149ZM181 625Q201 703 236 732T314 762Q337 762 356 758T392 748T423 738T451 733Q466 733 474 743T486 769H582Q562 692 531 660T451 627Q430 627
410 631T371 641T338 651T313 656Q297 656 289 646T277 625H181Z" />
<glyph unicode="&#xe4;" horiz-adv-x="575" d="M203 -6Q166 -6 135 13T84 74T65 182Q65 213 69 246T77 299Q90 381 125 435T220 517T367 545Q419 545 465 536T548 512T609 479L533 0H359L347 52Q333 39 310 26T260 3T203 -6ZM302 149Q325 149 341 159T366 178L399
383Q395 385 384 387T358 390Q332 390 314 377T284 341T267 288Q263 267 261 248T259 218Q259 193 267 171T302 149ZM435 627Q415 627 415 646Q415 647 416 652T421 681T434 761Q437 786 460 786H550Q570 786 570 766Q570 766 570 761T565 731T552 650Q549 627
525 627H435ZM238 627Q218 627 218 646Q218 647 219 652T224 681T237 761Q240 786 263 786H353Q373 786 373 766Q373 766 373 761T368 731T355 650Q352 627 328 627H238Z" />
<glyph unicode="&#xe5;" horiz-adv-x="575" d="M203 -6Q166 -6 135 13T84 74T65 182Q65 213 69 246T77 299Q90 381 125 435T220 517T367 545Q419 545 465 536T548 512T609 479L533 0H359L347 52Q333 39 310 26T260 3T203 -6ZM302 149Q325 149 341 159T366 178L399
383Q395 385 384 387T358 390Q332 390 314 377T284 341T267 288Q263 267 261 248T259 218Q259 193 267 171T302 149ZM387 580Q329 580 298 603T267 683Q267 720 284 749T335 797T416 815Q475 815 505 792T535 712Q535 656 498 618T387 580ZM396 649Q422 649 434
667T446 709Q446 729 436 737T408 746Q380 746 368 728T356 686Q356 666 366 658T396 649Z" />
<glyph unicode="&#xe6;" horiz-adv-x="861" d="M210 -6Q172 -6 139 12T87 70T67 179Q67 291 92 362T158 474T251 529T355 545Q380 545 408 543T465 534T520 514Q531 522 552 528T596 537T637 543T660 545Q775 545 831 504T888 372Q888 314 866 273T797 211T670
190Q653 190 632 191T594 194T569 198Q568 194 568 189T567 179Q567 166 575 156T606 141T666 135H845L827 22Q798 14 757 8T670 -2T582 -6Q547 -6 513 2T453 25T414 63Q376 38 343 23T278 1T210 -6ZM302 151Q317 151 332 157T360 172T378 190Q378 196 378 203T378
216Q378 247 382 276T393 333T409 385Q404 387 393 388T374 390Q345 390 324 379T288 345T267 290T260 216Q260 188 270 170T302 151ZM630 295Q680 295 694 312T708 351Q708 376 696 387T662 398Q644 398 631 392T608 372T593 341T582 299Q587 298 594 297T611
296T630 295Z" />
<glyph unicode="&#xe7;" horiz-adv-x="471" d="M270 -6Q208 -6 163 14T93 79T69 204Q69 221 71 246T78 300Q92 391 127 444T214 521T329 545Q376 545 424 535T519 509L501 398H376Q339 398 318 382T285 337T267 270Q264 251 263 240T262 223Q262 195 270 177T294
149T334 139H467L450 30Q415 14 373 4T270 -6ZM123 -203L135 -124L151 -121Q165 -118 173 -113T184 -102T187 -89Q187 -81 181 -74T160 -62L238 -47Q265 -47 287 -61T310 -113Q310 -137 297 -157T256 -190T182 -203H123ZM160 -62L223 20H309L246 -62H160Z" />
<glyph unicode="&#xe8;" horiz-adv-x="548" d="M278 -6Q200 -6 154 19T88 91T68 203Q68 229 70 253T77 299Q92 391 130 444T227 521T364 545Q402 545 440 538T509 513T559 462T578 376Q578 318 561 281T514 225T443 198T357 190Q327 190 302 192T260 198Q259 194
259 189T258 178Q258 156 281 146T357 135H536L518 22Q473 11 411 3T278 -6ZM311 295Q348 295 366 302T391 323T398 355Q398 375 387 386T351 398Q329 398 314 387T288 354T272 299Q282 298 292 297T311 295ZM337 631L252 774H406L451 631H337Z" />
<glyph unicode="&#xe9;" horiz-adv-x="548" d="M278 -6Q200 -6 154 19T88 91T68 203Q68 229 70 253T77 299Q92 391 130 444T227 521T364 545Q402 545 440 538T509 513T559 462T578 376Q578 318 561 281T514 225T443 198T357 190Q327 190 302 192T260 198Q259 194
259 189T258 178Q258 156 281 146T357 135H536L518 22Q473 11 411 3T278 -6ZM311 295Q348 295 366 302T391 323T398 355Q398 375 387 386T351 398Q329 398 314 387T288 354T272 299Q282 298 292 297T311 295ZM319 631L400 774H564L443 631H319Z" />
<glyph unicode="&#xea;" horiz-adv-x="548" d="M278 -6Q200 -6 154 19T88 91T68 203Q68 229 70 253T77 299Q92 391 130 444T227 521T364 545Q402 545 440 538T509 513T559 462T578 376Q578 318 561 281T514 225T443 198T357 190Q327 190 302 192T260 198Q259 194
259 189T258 178Q258 156 281 146T357 135H536L518 22Q473 11 411 3T278 -6ZM311 295Q348 295 366 302T391 323T398 355Q398 375 387 386T351 398Q329 398 314 387T288 354T272 299Q282 298 292 297T311 295ZM213 631L336 777H467L535 631H424L385 692L325 631H213Z"
/>
<glyph unicode="&#xeb;" horiz-adv-x="548" d="M278 -6Q200 -6 154 19T88 91T68 203Q68 229 70 253T77 299Q92 391 130 444T227 521T364 545Q402 545 440 538T509 513T559 462T578 376Q578 318 561 281T514 225T443 198T357 190Q327 190 302 192T260 198Q259 194
259 189T258 178Q258 156 281 146T357 135H536L518 22Q473 11 411 3T278 -6ZM311 295Q348 295 366 302T391 323T398 355Q398 375 387 386T351 398Q329 398 314 387T288 354T272 299Q282 298 292 297T311 295ZM434 627Q414 627 414 646Q414 647 415 652T420 681T433
761Q436 786 459 786H549Q569 786 569 766Q569 766 569 761T564 731T551 650Q548 627 524 627H434ZM237 627Q217 627 217 646Q217 647 218 652T223 681T236 761Q239 786 262 786H352Q372 786 372 766Q372 766 372 761T367 731T354 650Q351 627 327 627H237Z" />
<glyph unicode="&#xec;" horiz-adv-x="281" d="M45 0L130 539H324L239 0H45ZM457 631L372 774H526L571 631H457Z" />
<glyph unicode="&#xed;" horiz-adv-x="281" d="M45 0L130 539H324L239 0H45ZM183 631L264 774H428L307 631H183Z" />
<glyph unicode="&#xee;" horiz-adv-x="281" d="M45 0L130 539H324L239 0H45ZM333 631L456 777H587L655 631H544L505 692L445 631H333Z" />
<glyph unicode="&#xef;" horiz-adv-x="281" d="M45 0L130 539H324L239 0H45ZM298 627Q278 627 278 646Q278 647 279 652T284 681T297 761Q300 786 323 786H413Q433 786 433 766Q433 766 433 761T428 731T415 650Q412 627 388 627H298ZM101 627Q81 627 81 646Q81
647 82 652T87 681T100 761Q103 786 126 786H216Q236 786 236 766Q236 766 236 761T231 731T218 650Q215 627 191 627H101Z" />
<glyph unicode="&#xf0;" horiz-adv-x="579" d="M73 269Q86 350 107 400T158 478T230 515T324 525Q375 525 418 505T488 451T515 374Q533 340 550 305T586 235Q572 137 536 85T439 13T289 -6Q214 -6 165 16T92 81T68 185Q68 210 69 230T73 269ZM263 242Q261 228
261 217T260 194Q260 177 265 167T280 153T309 149Q330 149 344 154T366 171T381 205T393 262Q396 287 398 306T401 341Q401 360 389 367T347 374Q326 374 312 369T290 349T275 309T263 242ZM212 763Q350 763 437 733T566 634T607 452Q607 405 602 351T586 235L439
345Q444 379 447 408T450 463Q450 534 424 572T341 624T192 639L212 763ZM602 762L618 703L223 542L206 601L602 762Z" />
<glyph unicode="&#xf1;" horiz-adv-x="600" d="M44 0L129 539H291L315 487Q345 511 387 528T484 545Q526 545 556 530T602 489T618 427Q618 408 617 384T606 304L558 0H364L411 298Q413 312 414 320T415 334Q415 352 405 361T370 371Q348 371 327 361T291 334L238
0H44ZM193 625Q213 703 248 732T326 762Q349 762 368 758T404 748T435 738T463 733Q478 733 486 743T498 769H594Q574 692 543 660T463 627Q442 627 422 631T383 641T350 651T325 656Q309 656 301 646T289 625H193Z" />
<glyph unicode="&#xf2;" horiz-adv-x="579" d="M289 -6Q214 -6 165 16T92 81T68 185Q68 216 70 241T76 289Q89 370 112 420T171 498T257 535T375 545Q467 545 514 524T578 458T595 344Q595 320 593 292T586 235Q571 137 535 85T438 13T289 -6ZM309 149Q330 149
344 154T366 171T381 205T393 262Q397 290 399 312T402 353Q402 377 390 385T350 394Q329 394 316 389T293 369T278 328T266 262Q263 242 262 226T260 194Q260 177 265 167T280 153T309 149ZM337 631L252 774H406L451 631H337Z" />
<glyph unicode="&#xf3;" horiz-adv-x="579" d="M289 -6Q214 -6 165 16T92 81T68 185Q68 216 70 241T76 289Q89 370 112 420T171 498T257 535T375 545Q467 545 514 524T578 458T595 344Q595 320 593 292T586 235Q571 137 535 85T438 13T289 -6ZM309 149Q330 149
344 154T366 171T381 205T393 262Q397 290 399 312T402 353Q402 377 390 385T350 394Q329 394 316 389T293 369T278 328T266 262Q263 242 262 226T260 194Q260 177 265 167T280 153T309 149ZM319 631L400 774H564L443 631H319Z" />
<glyph unicode="&#xf4;" horiz-adv-x="579" d="M289 -6Q214 -6 165 16T92 81T68 185Q68 216 70 241T76 289Q89 370 112 420T171 498T257 535T375 545Q467 545 514 524T578 458T595 344Q595 320 593 292T586 235Q571 137 535 85T438 13T289 -6ZM309 149Q330 149
344 154T366 171T381 205T393 262Q397 290 399 312T402 353Q402 377 390 385T350 394Q329 394 316 389T293 369T278 328T266 262Q263 242 262 226T260 194Q260 177 265 167T280 153T309 149ZM213 631L336 777H467L535 631H424L385 692L325 631H213Z" />
<glyph unicode="&#xf5;" horiz-adv-x="579" d="M289 -6Q214 -6 165 16T92 81T68 185Q68 216 70 241T76 289Q89 370 112 420T171 498T257 535T375 545Q467 545 514 524T578 458T595 344Q595 320 593 292T586 235Q571 137 535 85T438 13T289 -6ZM309 149Q330 149
344 154T366 171T381 205T393 262Q397 290 399 312T402 353Q402 377 390 385T350 394Q329 394 316 389T293 369T278 328T266 262Q263 242 262 226T260 194Q260 177 265 167T280 153T309 149ZM180 625Q200 703 235 732T313 762Q336 762 355 758T391 748T422 738T450
733Q465 733 473 743T485 769H581Q561 692 530 660T450 627Q429 627 409 631T370 641T337 651T312 656Q296 656 288 646T276 625H180Z" />
<glyph unicode="&#xf6;" horiz-adv-x="579" d="M289 -6Q214 -6 165 16T92 81T68 185Q68 216 70 241T76 289Q89 370 112 420T171 498T257 535T375 545Q467 545 514 524T578 458T595 344Q595 320 593 292T586 235Q571 137 535 85T438 13T289 -6ZM309 149Q330 149
344 154T366 171T381 205T393 262Q397 290 399 312T402 353Q402 377 390 385T350 394Q329 394 316 389T293 369T278 328T266 262Q263 242 262 226T260 194Q260 177 265 167T280 153T309 149ZM434 627Q414 627 414 646Q414 647 415 652T420 681T433 761Q436 786
459 786H549Q569 786 569 766Q569 766 569 761T564 731T551 650Q548 627 524 627H434ZM237 627Q217 627 217 646Q217 647 218 652T223 681T236 761Q239 786 262 786H352Q372 786 372 766Q372 766 372 761T367 731T354 650Q351 627 327 627H237Z" />
<glyph unicode="&#xf7;" horiz-adv-x="609" d="M263 74Q240 74 243 97L258 194Q263 219 286 219H398Q424 219 419 194L404 97Q402 84 394 79T375 74H263ZM330 493Q320 493 314 499T309 516L325 613Q328 638 353 638H465Q489 638 486 613L470 516Q468 503 461 498T442
493H330ZM124 279L149 433H597L572 279H124Z" />
<glyph unicode="&#xf8;" horiz-adv-x="574" d="M15 0L558 539H644L101 0H15ZM289 -6Q214 -6 165 16T92 81T68 185Q68 216 70 241T76 289Q89 370 112 420T171 498T257 535T375 545Q467 545 514 524T578 458T595 344Q595 320 593 292T586 235Q571 137 535 85T438
13T289 -6ZM309 149Q330 149 344 154T366 171T381 205T393 262Q397 290 399 312T402 353Q402 377 390 385T350 394Q329 394 316 389T293 369T278 328T266 262Q263 242 262 226T260 194Q260 177 265 167T280 153T309 149Z" />
<glyph unicode="&#xf9;" horiz-adv-x="600" d="M196 -6Q127 -6 97 28T67 122Q67 145 68 160T72 191L127 539H321L271 218Q270 214 270 211T270 203Q270 181 283 175T312 168Q338 168 358 179T394 205L447 539H641L556 0H382L370 52Q343 33 319 20T266 1T196 -6ZM361
631L276 774H430L475 631H361Z" />
<glyph unicode="&#xfa;" horiz-adv-x="600" d="M196 -6Q127 -6 97 28T67 122Q67 145 68 160T72 191L127 539H321L271 218Q270 214 270 211T270 203Q270 181 283 175T312 168Q338 168 358 179T394 205L447 539H641L556 0H382L370 52Q343 33 319 20T266 1T196 -6ZM343
631L424 774H588L467 631H343Z" />
<glyph unicode="&#xfb;" horiz-adv-x="600" d="M196 -6Q127 -6 97 28T67 122Q67 145 68 160T72 191L127 539H321L271 218Q270 214 270 211T270 203Q270 181 283 175T312 168Q338 168 358 179T394 205L447 539H641L556 0H382L370 52Q343 33 319 20T266 1T196 -6ZM237
631L360 777H491L559 631H448L409 692L349 631H237Z" />
<glyph unicode="&#xfc;" horiz-adv-x="600" d="M196 -6Q127 -6 97 28T67 122Q67 145 68 160T72 191L127 539H321L271 218Q270 214 270 211T270 203Q270 181 283 175T312 168Q338 168 358 179T394 205L447 539H641L556 0H382L370 52Q343 33 319 20T266 1T196 -6ZM458
627Q438 627 438 646Q438 647 439 652T444 681T457 761Q460 786 483 786H573Q593 786 593 766Q593 766 593 761T588 731T575 650Q572 627 548 627H458ZM261 627Q241 627 241 646Q241 647 242 652T247 681T260 761Q263 786 286 786H376Q396 786 396 766Q396 766
396 761T391 731T378 650Q375 627 351 627H261Z" />
<glyph unicode="&#xfd;" horiz-adv-x="587" d="M96 -237V-101Q165 -87 208 -65T273 0Q215 5 183 25T136 78T118 156L86 539H286L289 197Q289 182 295 173T312 161T331 156L417 394Q430 429 440 468T451 547H635Q635 481 617 410T561 257L445 10Q403 -79 352 -131T238
-207T96 -237ZM323 631L404 774H568L447 631H323Z" />
<glyph unicode="&#xfe;" horiz-adv-x="581" d="M5 -237L164 763H359L324 541Q345 543 367 544T413 545Q515 545 554 495T594 348Q594 323 592 296T584 238Q570 151 533 98T445 19T334 -6Q305 -6 279 -3T239 9L200 -237H5ZM308 158Q331 158 348 168T379 204T399
274Q401 285 402 294T403 313Q403 352 392 371T355 390H299L263 165Q267 163 274 162T289 159T308 158Z" />
<glyph unicode="&#xff;" horiz-adv-x="587" d="M96 -237V-101Q165 -87 208 -65T273 0Q215 5 183 25T136 78T118 156L86 539H286L289 197Q289 182 295 173T312 161T331 156L417 394Q430 429 440 468T451 547H635Q635 481 617 410T561 257L445 10Q403 -79 352 -131T238
-207T96 -237ZM438 627Q418 627 418 646Q418 647 419 652T424 681T437 761Q440 786 463 786H553Q573 786 573 766Q573 766 573 761T568 731T555 650Q552 627 528 627H438ZM241 627Q221 627 221 646Q221 647 222 652T227 681T240 761Q243 786 266 786H356Q376 786
376 766Q376 766 376 761T371 731T358 650Q355 627 331 627H241Z" />
<glyph unicode="&#x2013;" horiz-adv-x="513" d="M54 212L78 367H551L527 212H54Z" />
<glyph unicode="&#x2014;" horiz-adv-x="736" d="M54 212L78 367H774L750 212H54Z" />
<glyph unicode="&#x2018;" horiz-adv-x="250" d="M135 472Q114 472 114 492Q114 494 114 495T115 499L140 659Q147 702 170 723T223 752T278 760Q296 760 305 759T321 756L309 684Q287 684 281 673T273 653L271 638H282Q303 638 303 618Q303 617 303 616T303 613L285
499Q281 472 256 472H135Z" />
<glyph unicode="&#x2019;" horiz-adv-x="250" d="M158 472Q140 472 132 473T115 476L127 548Q150 548 156 560T163 579L165 594H154Q133 594 133 614Q133 615 133 616T133 619L151 733Q156 760 180 760H301Q322 760 322 740Q322 739 322 737T321 733L296 573Q289
530 266 509T213 480T158 472Z" />
<glyph unicode="&#x201a;" horiz-adv-x="250" d="M63 -128Q45 -128 33 -126T20 -124L32 -52Q55 -52 61 -40T68 -21L70 -6H59Q38 -6 38 14Q38 15 38 16T38 19L56 133Q61 160 85 160H206Q227 160 227 140Q227 139 227 137T226 133L201 -27Q194 -70 171 -91T118 -120T63
-128Z" />
<glyph unicode="&#x201c;" horiz-adv-x="450" d="M135 472Q114 472 114 492Q114 494 114 495T115 499L140 659Q147 702 170 723T223 752T278 760Q296 760 305 759T321 756L309 684Q287 684 281 673T273 653L271 638H282Q303 638 303 618Q303 617 303 616T303 613L285
499Q281 472 256 472H135ZM335 472Q314 472 314 492Q314 494 314 495T315 499L340 659Q347 702 370 723T423 752T478 760Q496 760 505 759T521 756L509 684Q487 684 481 673T473 653L471 638H482Q503 638 503 618Q503 617 503 616T503 613L485 499Q481 472 456
472H335Z" />
<glyph unicode="&#x201d;" horiz-adv-x="450" d="M158 472Q140 472 132 473T115 476L127 548Q150 548 156 560T163 579L165 594H154Q133 594 133 614Q133 615 133 616T133 619L151 733Q156 760 180 760H301Q322 760 322 740Q322 739 322 737T321 733L296 573Q289
530 266 509T213 480T158 472ZM358 472Q340 472 332 473T315 476L327 548Q350 548 356 560T363 579L365 594H354Q333 594 333 614Q333 615 333 616T333 619L351 733Q356 760 380 760H501Q522 760 522 740Q522 739 522 737T521 733L496 573Q489 530 466 509T413
480T358 472Z" />
<glyph unicode="&#x201e;" horiz-adv-x="450" d="M63 -128Q45 -128 33 -126T20 -124L32 -52Q55 -52 61 -40T68 -21L70 -6H59Q38 -6 38 14Q38 15 38 16T38 19L56 133Q61 160 85 160H206Q227 160 227 140Q227 139 227 137T226 133L201 -27Q194 -70 171 -91T118 -120T63
-128ZM263 -128Q245 -128 233 -126T220 -124L232 -52Q255 -52 261 -40T268 -21L270 -6H259Q238 -6 238 14Q238 15 238 16T238 19L256 133Q261 160 285 160H406Q427 160 427 140Q427 139 427 137T426 133L401 -27Q394 -70 371 -91T318 -120T263 -128Z" />
<glyph unicode="&#x2022;" horiz-adv-x="306" d="M123 274Q91 274 96 306L120 456Q122 472 132 481T159 491H303Q338 491 332 456L308 306Q305 288 294 281T267 274H123Z" />
<glyph unicode="&#x2039;" horiz-adv-x="376" d="M259 56L64 284L325 507L407 412L257 284L368 154L259 56Z" />
<glyph unicode="&#x203a;" horiz-adv-x="376" d="M131 56L54 154L205 284L95 412L207 507L398 284L131 56Z" />
</font>
</defs>
</svg>
