<?xml version="1.0" standalone="no"?>
<!DOCTYPE svg PUBLIC "-//W3C//DTD SVG 1.1//EN" "http://www.w3.org/Graphics/SVG/1.1/DTD/svg11.dtd">
<svg xmlns="http://www.w3.org/2000/svg">
<defs >
<font id="Exo" horiz-adv-x="533" ><font-face
    font-family="Exo SemiBold"
    units-per-em="1000"
    panose-1="0 0 0 0 0 0 0 0 0 0"
    ascent="1002"
    descent="-327"
    alphabetic="0" />
<glyph unicode=" " horiz-adv-x="262" />
<glyph unicode="!" horiz-adv-x="270" d="M87 202L72 737H196L178 202H87ZM97 -1Q78 -1 78 17V112Q78 131 97 131H167Q187 131 187 112V17Q187 7 182 3T167 -1H97Z" />
<glyph unicode="&quot;" horiz-adv-x="359" d="M46 501L36 684V751H155V684L147 501H46ZM208 501L198 684V751H317V684L309 501H208Z" />
<glyph unicode="#" horiz-adv-x="710" d="M137 0L174 215H18L31 297H190L213 433H52L65 515H229L268 732H350L312 515H440L478 732H560L523 515H694L682 433H510L487 297H659L648 215H468L431 0H348L386 215H257L219 0H137ZM273 297H404L427 433H295L273 297Z" />
<glyph unicode="$" horiz-adv-x="609" d="M261 724L254 786L317 824L325 762L261 724ZM254 -89V8H325V-89H254ZM287 -6Q260 -6 230 -5T168 0T108 7T58 16V113Q86 111 123 109T202 106T281 105Q321 105 352 112T400 139T417 193V228Q417 267 395 288T330 309H261Q160
309 106 353T51 504V542Q51 649 110 696T281 744Q319 744 359 741T437 732T500 721V624Q456 627 400 630T295 633Q257 633 228 625T184 597T169 536V512Q169 465 194 446T268 427H345Q410 427 452 403T514 338T535 243V196Q535 114 503 70T415 10T287 -6Z" />
<glyph unicode="%" horiz-adv-x="962" d="M213 0L660 732H742L298 0H213ZM170 349Q97 349 68 382T38 480V601Q38 665 67 698T172 732H273Q347 732 376 699T406 601V480Q406 416 377 383T271 349H170ZM185 429H257Q296 429 311 444T326 498V583Q326 623 312 637T259
652H187Q153 652 136 639T118 583V498Q118 462 132 446T185 429ZM689 3Q616 3 587 36T557 134V255Q557 319 586 352T691 386H793Q867 386 896 353T926 255V134Q926 70 897 37T791 3H689ZM704 83H775Q815 83 830 98T846 152V237Q846 277 831 291T777 306H706Q673
306 655 293T637 237V152Q637 116 651 100T704 83Z" />
<glyph unicode="&amp;" horiz-adv-x="689" d="M231 -5Q176 -5 132 19T62 88T37 191Q37 245 60 292T129 379L191 432L176 455Q145 501 137 534T128 594Q128 646 153 677T219 722T310 736Q349 736 383 734T446 727T496 717V627H333Q296 627 274 613T252 567Q252
546 263 523T300 465L460 246L605 379L651 324L582 225L521 166L646 0H517L442 96L407 64Q364 26 323 11T231 -5ZM252 108Q277 108 300 117T350 152L377 179L251 347L208 309Q178 283 167 258T155 205Q155 162 181 135T252 108Z" />
<glyph unicode="&apos;" horiz-adv-x="197" d="M46 501L36 684V751H155V684L147 501H46Z" />
<glyph unicode="(" horiz-adv-x="373" d="M243 -210Q194 -143 154 -66T90 108T66 326Q66 443 91 539T156 715T243 860H355Q311 786 274 703T213 527T190 326Q190 219 210 129T268 -43T355 -210H243Z" />
<glyph unicode=")" horiz-adv-x="372" d="M18 -210Q64 -133 101 -51T160 124T182 325Q182 432 163 520T106 691T18 860H129Q180 793 220 715T283 542T306 325Q306 208 283 113T219 -62T129 -210H18Z" />
<glyph unicode="*" horiz-adv-x="439" d="M294 512L252 563L368 645L395 607L294 512ZM150 400L106 414L134 551L198 535L150 400ZM188 571L44 577V624L185 636L188 571ZM325 406L202 474L237 530L353 443L325 406ZM224 588L177 722L222 737L285 612L224 588Z" />
<glyph unicode="+" horiz-adv-x="609" d="M254 132V580H354V132H254ZM80 306V406H528V306H80Z" />
<glyph unicode="," horiz-adv-x="222" d="M100 -85Q84 -85 72 -83T60 -80V-41Q74 -41 79 -37T85 -22V8H76Q68 8 63 13T57 28V110Q57 131 76 131H146Q157 131 161 125T165 110V-22Q165 -48 155 -62T130 -80T100 -85Z" />
<glyph unicode="-" horiz-adv-x="347" d="M23 240V340H325V240H23Z" />
<glyph unicode="." horiz-adv-x="222" d="M76 -1Q57 -1 57 17V112Q57 131 76 131H147Q166 131 166 112V17Q166 7 161 3T147 -1H76Z" />
<glyph unicode="/" horiz-adv-x="441" d="M18 -72L299 770H423L142 -72H18Z" />
<glyph unicode="0" horiz-adv-x="650" d="M252 -4Q194 -4 151 16T85 78T62 182V553Q62 616 85 658T152 722T253 744H404Q466 744 506 721T567 656T587 553V182Q587 90 538 43T403 -4H252ZM281 108H371Q419 108 441 131T464 200V541Q464 590 441 611T376 633H277Q234
633 210 610T186 541V200Q186 153 211 131T281 108Z" />
<glyph unicode="1" horiz-adv-x="369" d="M174 0V626L35 601V680L187 745H298V0H174Z" />
<glyph unicode="2" horiz-adv-x="589" d="M49 0V100L305 351Q339 384 360 412T391 467T401 528Q401 558 390 580T351 615T274 627H69V724Q116 732 173 738T299 744Q385 744 434 721T504 653T525 547Q525 497 512 455T471 375T401 295L214 112H549V0H49Z" />
<glyph unicode="3" horiz-adv-x="581" d="M317 -6Q238 -6 167 -2T40 12V111H272Q313 111 342 118T386 143T401 195V232Q401 263 386 281T347 308T293 317L109 325V419L288 428Q337 430 364 447T392 503V537Q392 582 362 604T266 627H59V726Q112 733 176 739T315
744Q380 744 424 723T492 662T515 565V508Q515 477 507 454T484 414T453 388T417 372Q436 367 455 355T490 323T516 276T526 216V173Q526 85 471 40T317 -6Z" />
<glyph unicode="4" horiz-adv-x="610" d="M380 1V168H48L24 229L277 738H404L170 273H380V436L406 515H504V273H589V188L504 168V1H380Z" />
<glyph unicode="5" horiz-adv-x="616" d="M322 -5Q259 -5 192 -1T68 9V106H327Q366 106 391 119T428 154T440 203V265Q440 306 418 329T347 353H282Q245 353 225 337T198 288H81L102 738H537V627H209L199 418Q213 436 241 447T307 458H390Q448 458 486 436T544
375T564 287V178Q564 115 536 75T453 15T322 -5Z" />
<glyph unicode="6" horiz-adv-x="613" d="M273 -4Q221 -4 181 12T114 69T73 181T58 363Q58 468 76 541T130 659T215 724T331 744Q377 744 427 741T517 730V633H340Q262 633 222 580T182 420Q208 426 237 429T298 434T362 435Q433 435 477 417T541 361T561 271V166Q561
104 538 67T475 13T383 -4H273ZM297 107H356Q380 107 398 114T427 140T438 189V248Q438 282 426 299T390 323T329 330H182Q182 263 189 220T210 152T246 117T297 107Z" />
<glyph unicode="7" horiz-adv-x="550" d="M128 0L361 615H26V738H486L520 683L267 0H128Z" />
<glyph unicode="8" horiz-adv-x="633" d="M256 -4Q217 -4 183 3T122 28T81 76T66 152V255Q66 287 78 311T109 353T153 375Q122 390 107 410T86 455T81 505V590Q81 646 104 680T165 729T250 744H389Q437 744 473 729T531 680T553 590V505Q553 491 550 473T538 437T517
405T484 387Q517 380 535 359T560 310T567 259V152Q567 91 544 58T481 10T391 -4H256ZM276 102H363Q408 102 425 120T443 174V249Q443 287 424 305T361 324H276Q262 324 247 320T219 307T198 283T190 249V174Q190 134 213 118T276 102ZM276 430H360Q388 430 403
440T425 468T432 506V561Q432 608 414 623T363 639H276Q237 639 220 622T202 561V506Q202 467 219 449T276 430Z" />
<glyph unicode="9" horiz-adv-x="613" d="M284 -5Q238 -5 188 -1T97 9V106H274Q353 106 393 159T433 319Q408 314 378 310T317 305T253 304Q182 304 138 322T74 378T53 469V574Q53 635 76 672T140 726T232 743H342Q393 743 433 727T500 670T542 558T557 376Q557
271 539 198T485 80T399 15T284 -5ZM286 410H433Q433 476 426 519T405 587T369 622T318 632H259Q235 632 217 625T188 600T177 550V491Q177 458 189 441T226 417T286 410Z" />
<glyph unicode=":" horiz-adv-x="222" d="M76 -1Q57 -1 57 17V112Q57 131 76 131H147Q166 131 166 112V17Q166 7 161 3T147 -1H76ZM76 405Q57 405 57 423V518Q57 537 76 537H147Q166 537 166 518V423Q166 413 161 409T147 405H76Z" />
<glyph unicode=";" horiz-adv-x="222" d="M76 405Q57 405 57 423V518Q57 537 76 537H147Q166 537 166 518V423Q166 413 161 409T147 405H76ZM100 -85Q84 -85 72 -83T60 -80V-41Q74 -41 79 -37T85 -22V8H76Q68 8 63 13T57 28V110Q57 131 76 131H146Q157 131 161
125T165 110V-22Q165 -48 155 -62T130 -80T100 -85Z" />
<glyph unicode="&lt;" horiz-adv-x="609" d="M511 159L96 295V405L511 537V429L216 351L511 267V159Z" />
<glyph unicode="=" horiz-adv-x="609" d="M80 442V542H528V442H80ZM80 426V526H528V426H80Z" />
<glyph unicode="&gt;" horiz-adv-x="609" d="M98 159V267L393 351L98 429V537L513 405V295L98 159Z" />
<glyph unicode="?" horiz-adv-x="530" d="M156 201V385H218Q281 385 311 404T341 477V519Q341 578 311 603T220 628Q174 628 132 619T43 593V683Q85 709 138 724T255 739Q328 739 374 714T442 644T464 538V475Q464 383 413 337T250 291V201H156ZM167 -1Q148 -1
148 17V112Q148 131 167 131H238Q257 131 257 112V17Q257 7 252 3T238 -1H167Z" />
<glyph unicode="@" horiz-adv-x="879" d="M267 -177Q224 -177 187 -166T120 -129T75 -63T58 36V337Q58 364 63 391T82 445T119 491T179 524T267 536H451Q484 536 515 531T571 509T612 462T628 378V24H552L535 82Q534 82 520 72T482 49T427 25T362 15Q319 15 291
34T248 85T234 150V191Q234 256 272 289T381 322H533V371Q533 411 512 426T453 442H267Q235 442 209 433T168 400T153 331V48Q153 -3 170 -31T214 -71T267 -82H586Q654 -82 682 -48T710 48V501Q710 564 678 601T586 638H188V713Q212 718 260 722T370 730T494 733H586Q628
733 667 721T737 681T786 610T804 501V48Q804 -28 781 -78T711 -152T592 -177H267ZM401 110Q422 110 447 116T495 132T533 156V256L402 248Q385 247 370 244T345 229T335 194V168Q335 140 351 125T401 110Z" />
<glyph unicode="A" horiz-adv-x="681" d="M23 0L263 738H419L659 0H530L473 175H206L150 0H23ZM235 286H443L339 632L235 286Z" />
<glyph unicode="B" horiz-adv-x="619" d="M69 0V738H351Q455 738 505 689T555 546Q555 502 542 469T505 414T451 384Q474 378 496 366T538 331T568 278T579 204Q579 128 554 84T480 20T363 0H69ZM192 111H359Q390 111 413 122T448 157T461 225Q461 259 448 282T412
317T359 330H192V111ZM192 426H353Q390 426 413 453T437 526Q438 583 413 605T350 627H192V426Z" />
<glyph unicode="C" horiz-adv-x="584" d="M315 -6Q250 -6 201 9T118 64T67 178T50 372Q50 485 67 558T119 672T204 729T318 745Q362 745 403 740T480 728T542 713V618Q525 622 494 625T424 631T343 634Q297 634 265 624T212 585T183 505T174 370Q174 288 182 236T209
156T260 116T342 105Q417 105 465 108T542 116V21Q514 13 479 7T403 -2T315 -6Z" />
<glyph unicode="D" horiz-adv-x="676" d="M69 0V738H374Q446 738 494 713T572 639T613 522T626 369Q626 247 598 166T514 42T374 0H69ZM192 111H362Q413 111 443 141T488 229T503 369Q503 445 494 495T468 574T425 615T362 627H192V111Z" />
<glyph unicode="E" horiz-adv-x="594" d="M240 -5Q216 -5 187 -1T130 19T86 66T69 151V577Q69 624 83 655T120 705T172 730T229 738Q299 738 355 736T457 732T544 727V624H265Q231 624 212 607T192 554V423L499 416V319L192 312V185Q192 155 202 139T229 117T264
111H544V8Q500 4 448 2T343 -2T240 -5Z" />
<glyph unicode="F" horiz-adv-x="577" d="M69 0V577Q69 624 83 655T120 705T172 730T229 738Q268 738 321 738T432 735T544 727V624H262Q229 624 211 606T192 555V406L499 399V302L192 295V0H69Z" />
<glyph unicode="G" horiz-adv-x="661" d="M281 -5Q211 -5 167 20T97 93T61 211T50 370Q50 461 61 531T102 648T182 720T315 745Q361 745 403 742T484 731T560 715V620Q539 623 504 626T425 631T336 634Q270 634 235 609T187 525T174 369Q174 292 181 242T204 162T249
121T319 109Q363 109 404 117T474 136V306H325V402Q345 405 373 407T433 410T494 412Q524 412 548 412T593 409V0H500L483 51Q452 33 398 14T281 -5Z" />
<glyph unicode="H" horiz-adv-x="696" d="M69 0V738H192V419H503V738H627V0H503V308H192V0H69Z" />
<glyph unicode="I" horiz-adv-x="261" d="M69 0V738H192V0H69Z" />
<glyph unicode="J" horiz-adv-x="397" d="M145 -6Q114 -6 81 0T26 15V113Q47 110 72 108T118 105Q146 105 165 113T194 140T205 192V738H329V174Q329 112 310 72T250 13T145 -6Z" />
<glyph unicode="K" horiz-adv-x="631" d="M69 0V738H192V423H301L471 738H603L400 368L608 0H476L301 311H192V0H69Z" />
<glyph unicode="L" horiz-adv-x="534" d="M234 0Q182 0 145 16T88 68T69 165V738H192V185Q192 157 202 141T228 118T265 112H510V0H234Z" />
<glyph unicode="M" horiz-adv-x="866" d="M49 0L134 738H254L433 147L611 738H731L818 0H698L630 580L650 578L490 0H374L212 578L233 579L168 0H49Z" />
<glyph unicode="N" horiz-adv-x="697" d="M77 0V738H176L512 211V738H636V0H537L201 527V0H77Z" />
<glyph unicode="O" horiz-adv-x="695" d="M347 -6Q273 -6 218 8T125 61T69 174T50 367Q50 487 69 561T125 675T218 730T347 745Q422 745 478 730T571 676T626 562T645 367Q645 248 627 174T571 62T478 9T347 -6ZM347 105Q396 105 429 115T483 153T512 232T521
367Q521 455 512 507T482 587T429 624T347 634Q301 634 268 625T215 588T184 508T174 367Q174 284 182 233T211 154T264 116T347 105Z" />
<glyph unicode="P" horiz-adv-x="615" d="M69 0V738H374Q409 738 445 730T511 696T560 622T579 491Q579 409 560 359T511 283T445 247T376 237Q359 237 334 238T281 242T230 247T192 252V0H69ZM192 349H358Q387 349 409 362T443 406T455 490Q455 542 443 572T410
614T362 627H192V349Z" />
<glyph unicode="Q" horiz-adv-x="695" d="M511 -187Q467 -187 427 -171T359 -122T327 -36H413Q422 -69 449 -83T506 -97Q521 -97 536 -94T564 -88V-180Q551 -182 538 -184T511 -187ZM347 -6Q273 -6 218 8T125 61T69 174T50 367Q50 487 69 561T125 675T218 730T347
745Q422 745 478 730T571 676T626 562T645 367Q645 248 627 174T571 62T478 9T347 -6ZM347 105Q396 105 429 115T483 153T512 232T521 367Q521 455 512 507T482 587T429 624T347 634Q301 634 268 625T215 588T184 508T174 367Q174 284 182 233T211 154T264 116T347
105Z" />
<glyph unicode="R" horiz-adv-x="620" d="M69 0V738H369Q410 738 446 729T511 694T556 625T573 509Q573 454 562 418T533 358T493 323T448 302L590 0H465L337 284Q323 284 305 284T266 284T227 285T192 286V0H69ZM192 383H348Q370 383 388 388T420 408T441 446T449
508Q449 545 442 568T420 604T388 622T348 627H192V383Z" />
<glyph unicode="S" horiz-adv-x="585" d="M287 -6Q260 -6 230 -5T168 0T108 7T58 16V113Q86 111 123 109T202 106T281 105Q321 105 352 112T400 139T417 193V228Q417 267 395 288T330 309H261Q160 309 106 353T51 504V542Q51 649 110 696T281 744Q319 744 359
741T437 732T500 721V624Q456 627 400 630T295 633Q257 633 228 625T184 597T169 536V512Q169 465 194 446T268 427H345Q410 427 452 403T514 338T535 243V196Q535 114 503 70T415 10T287 -6Z" />
<glyph unicode="T" horiz-adv-x="579" d="M228 0V627H16V738H563V627H352V0H228Z" />
<glyph unicode="U" horiz-adv-x="682" d="M341 -5Q280 -5 228 5T138 42T80 115T59 235V738H182V235Q182 187 201 159T255 118T341 106Q391 106 426 118T481 158T500 235V738H623V235Q623 162 603 116T544 43T455 6T341 -5Z" />
<glyph unicode="V" horiz-adv-x="681" d="M263 0L23 738H151L341 133L531 738H659L419 0H263Z" />
<glyph unicode="W" horiz-adv-x="991" d="M204 0L23 738H151L284 180L438 738H554L707 180L840 738H968L787 0H659L496 559L332 0H204Z" />
<glyph unicode="X" horiz-adv-x="649" d="M486 0L24 738H160L623 0H486ZM27 0L271 398L335 293L163 0H27ZM377 332L315 438L489 738H626L377 332Z" />
<glyph unicode="Y" horiz-adv-x="624" d="M250 0V231L24 738H152L314 357L476 738H601L374 231V0H250Z" />
<glyph unicode="Z" horiz-adv-x="569" d="M40 0V100L382 627H40V738H532V639L191 111H532V0H40Z" />
<glyph unicode="[" horiz-adv-x="337" d="M247 -210Q191 -210 157 -191T106 -141T82 -75T76 -9V652Q76 691 84 725T111 785T164 827T247 842H320V742H282Q245 742 223 718T200 635V-3Q200 -37 208 -61T235 -97T282 -110H320V-210H247Z" />
<glyph unicode="\" horiz-adv-x="441" d="M299 -72L18 770H142L423 -72H299Z" />
<glyph unicode="]" horiz-adv-x="337" d="M18 -210V-110H56Q84 -110 102 -98T129 -61T138 -3V635Q138 694 116 718T56 742H18V842H91Q140 842 173 827T226 786T254 725T262 652V-9Q262 -39 256 -74T233 -140T181 -190T91 -210H18Z" />
<glyph unicode="^" horiz-adv-x="390" d="M44 531L158 667H243L346 531H273L198 608L118 531H44Z" />
<glyph unicode="_" horiz-adv-x="609" d="M0 -182V-82H609V-182H0Z" />
<glyph unicode="`" horiz-adv-x="226" d="M136 631L18 770H119L209 631H136Z" />
<glyph unicode="a" horiz-adv-x="548" d="M174 -6Q114 -6 76 30T38 129V174Q38 236 80 275T211 314H364V361Q364 389 354 408T318 436T239 446H77V518Q114 528 164 535T283 543Q349 544 395 528T464 473T488 369V0H391L370 58Q363 52 345 42T300 21T241 2T174
-6ZM234 81Q247 81 263 84T297 92T328 101T352 110T364 115V255L248 249Q202 245 182 225T161 172V150Q161 125 171 110T198 88T234 81Z" />
<glyph unicode="b" horiz-adv-x="583" d="M351 -6Q315 -6 286 2T232 24T187 52L166 0H63V763H187V495Q221 514 264 528T345 543Q413 543 455 515T516 426T536 263Q536 175 517 115T457 25T351 -6ZM306 95Q339 95 362 112T399 167T412 269Q412 345 398 382T360
431T306 443Q271 443 242 433T187 408V128Q210 116 239 106T306 95Z" />
<glyph unicode="c" horiz-adv-x="490" d="M268 -6Q220 -6 180 6T109 49T63 133T46 266Q46 348 61 402T106 487T176 530T271 543Q316 543 362 539T454 522V451H308Q260 451 230 436T185 381T170 266Q170 192 185 154T230 102T309 88H462V18Q438 11 406 6T339 -3T268 -6Z" />
<glyph unicode="d" horiz-adv-x="580" d="M238 -6Q175 -6 132 21T68 108T46 263Q46 363 65 424T128 514T248 543Q288 543 327 535T395 516V763H519V0H416L395 52Q379 37 353 24T297 3T238 -6ZM280 94Q316 94 345 105T395 129V427Q370 436 344 443T287 450Q245
450 219 435T182 380T170 269Q170 202 181 164T216 110T280 94Z" />
<glyph unicode="e" horiz-adv-x="539" d="M282 -5Q195 -5 144 19T69 102T46 268Q46 376 68 435T141 519T279 543Q356 543 402 528T470 473T492 361Q492 310 472 280T415 236T326 223H169Q171 173 182 144T224 101T314 88H476V15Q435 7 390 1T282 -5ZM168 298H314Q349
298 365 311T382 361Q382 396 372 416T339 444T279 453Q237 453 213 440T179 394T168 298Z" />
<glyph unicode="f" horiz-adv-x="384" d="M98 0V436H20V516L98 536V581Q98 645 114 686T168 748T268 769Q303 769 330 765T376 756V668H291Q264 668 249 659T228 633T222 587V536H369V436H222V0H98Z" />
<glyph unicode="g" horiz-adv-x="580" d="M200 -247Q149 -247 109 -233T47 -189T24 -117V-98Q24 -54 49 -24T113 23T194 39L230 -2Q205 -2 185 -10T153 -34T141 -74V-90Q141 -126 165 -142T233 -159H342Q388 -159 414 -142T441 -88V-71Q441 -49 432 -34T403 -11T349
-2H215Q135 -2 95 29T54 107Q54 147 77 173T143 208Q109 224 90 249T62 303T54 362Q54 423 79 461T152 518T271 537H560V468L465 455Q475 445 486 431T506 394T514 334Q514 289 496 252T435 193T322 171H231Q199 171 179 161T159 127Q159 107 175 99T209 91H368Q429
91 471 75T536 25T558 -65V-82Q558 -159 509 -203T357 -247H200ZM251 264H309Q346 264 366 275T394 306T402 350Q402 384 392 404T362 434T314 443H258Q213 443 190 423T166 355Q166 307 188 286T251 264Z" />
<glyph unicode="h" horiz-adv-x="593" d="M63 0V762H187V480Q219 504 267 524T367 545Q426 545 462 521T515 455T532 358V0H408V343Q408 371 397 391T366 422T319 433Q293 433 271 428T229 412T187 389V0H63Z" />
<glyph unicode="i" horiz-adv-x="251" d="M79 621Q60 621 60 639V730Q60 750 79 750H173Q182 750 186 744T191 730V639Q191 621 173 621H79ZM63 0V536H187V0H63Z" />
<glyph unicode="j" horiz-adv-x="251" d="M79 621Q60 621 60 639V730Q60 750 79 750H172Q181 750 185 744T190 730V639Q190 621 172 621H79ZM63 -237V536H187V9Q187 -57 179 -123T157 -237H63Z" />
<glyph unicode="k" horiz-adv-x="537" d="M63 0V763H187V340H255L389 536H516L346 284L530 0H403L253 229H187V0H63Z" />
<glyph unicode="l" horiz-adv-x="306" d="M222 -2Q169 -2 134 16T81 72T63 173V763H187V190Q187 154 194 134T216 106T250 94L295 88V-2H222Z" />
<glyph unicode="m" horiz-adv-x="937" d="M63 0V536H164L187 480Q224 506 268 525T374 545Q424 545 458 524T510 468Q533 486 565 503T635 533T708 545Q770 545 807 521T861 453T877 352V0H753V342Q753 371 742 391T712 422T664 433Q628 433 592 419T525 385Q529
375 530 363T532 339V0H408V342Q408 371 397 391T367 422T319 433Q293 433 271 428T228 413T187 389V0H63Z" />
<glyph unicode="n" horiz-adv-x="593" d="M63 0V536H164L187 480Q220 505 267 525T366 545Q429 545 465 520T516 451T532 357V0H408V342Q408 371 397 391T367 422T319 433Q293 433 271 428T228 413T187 389V0H63Z" />
<glyph unicode="o" horiz-adv-x="576" d="M287 -5Q224 -5 178 8T103 52T60 136T46 269Q46 352 60 405T103 489T179 531T287 543Q351 543 397 531T472 488T515 405T529 269Q529 188 516 135T473 51T398 8T287 -5ZM287 94Q318 94 340 99T376 122T398 175T405 270Q405
328 398 363T377 415T340 438T287 444Q257 444 235 439T199 416T178 363T170 270Q170 211 177 176T199 123T235 100T287 94Z" />
<glyph unicode="p" horiz-adv-x="583" d="M63 -237V536H166L187 483Q206 498 231 512T285 534T345 543Q396 543 432 523T492 467T525 380T536 268Q536 180 518 119T458 25T345 -7Q305 -7 264 4T187 33V-237H63ZM306 95Q335 95 359 110T397 163T412 268Q412 333
398 372T361 427T307 443Q270 443 240 432T187 408V128Q213 113 244 104T306 95Z" />
<glyph unicode="q" horiz-adv-x="580" d="M395 -237V52Q363 28 322 11T240 -6Q168 -6 126 23T65 114T46 268Q46 367 68 428T135 516T250 543Q298 543 347 541T441 534T519 525V-237H395ZM275 94Q305 94 337 104T395 129V450H286Q242 450 217 430T181 370T170 272Q170
204 181 165T215 110T275 94Z" />
<glyph unicode="r" horiz-adv-x="419" d="M63 0V536H159L187 450Q219 489 258 516T351 543Q362 543 374 542T396 537V411Q382 413 366 414T335 415Q304 415 279 408T231 387T187 350V0H63Z" />
<glyph unicode="s" horiz-adv-x="503" d="M255 -6Q232 -6 203 -5T144 -1T89 6T48 15V88H279Q304 88 321 92T348 108T357 144V163Q357 188 341 202T283 217H202Q155 217 119 230T61 274T40 358V388Q40 439 59 472T124 523T246 541Q278 541 315 538T386 531T440
520V447H222Q185 447 166 435T146 388V369Q146 347 155 336T182 321T225 317H308Q387 317 425 281T463 179V135Q463 81 438 50T367 7T255 -6Z" />
<glyph unicode="t" horiz-adv-x="381" d="M258 0Q200 0 163 17T110 76T94 184L98 436H14V516L102 536L120 686H217V536H353V436H217V185Q217 159 222 143T236 117T257 103T280 98L347 91V0H258Z" />
<glyph unicode="u" horiz-adv-x="593" d="M218 -6Q144 -6 103 35T62 157V536H186V193Q186 140 210 122T277 104Q312 104 345 115T407 147V536H531V0H430L407 56Q369 32 321 13T218 -6Z" />
<glyph unicode="v" horiz-adv-x="554" d="M202 0L15 536H142L276 115L413 536H539L344 0H202Z" />
<glyph unicode="w" horiz-adv-x="816" d="M164 0L15 536H142L243 115L359 536H463L579 115L674 536H801L654 0H517L409 363L298 0H164Z" />
<glyph unicode="x" horiz-adv-x="529" d="M390 0L13 536H139L516 0H390ZM13 0L219 306L264 190L139 0H13ZM310 228L258 331L390 535L516 536L310 228Z" />
<glyph unicode="y" horiz-adv-x="559" d="M223 -237L285 0Q246 0 215 15T161 60T125 137L15 536H143L240 162Q247 139 257 127T277 110T295 103T307 102L418 536H544L372 -138L324 -237H223Z" />
<glyph unicode="z" horiz-adv-x="501" d="M47 0V90L319 436H38V536H463V446L190 100H463V0H47Z" />
<glyph unicode="{" horiz-adv-x="315" d="M297 -210Q235 -210 195 -198T131 -164T99 -109T89 -38V215Q89 235 80 249T54 270T18 276V391Q35 393 51 398T79 416T90 452V656Q90 711 110 753T176 818T297 842V742Q266 742 248 731T222 691T214 609V432Q214 385 188
362T119 334Q161 326 187 302T213 239V3Q213 -62 231 -89T297 -116V-210Z" />
<glyph unicode="|" horiz-adv-x="252" d="M76 -72V770H176V-72H76Z" />
<glyph unicode="}" horiz-adv-x="315" d="M18 -210V-116Q66 -116 84 -89T102 3V239Q102 278 127 302T195 334Q153 338 127 361T101 432V609Q101 662 93 690T67 730T18 742V842Q93 842 138 819T204 753T225 656V452Q225 429 236 417T264 399T297 391V276Q277 278
261 271T236 249T226 215V-38Q226 -77 217 -109T184 -163T120 -198T18 -210Z" />
<glyph unicode="~" horiz-adv-x="432" d="M279 535Q262 535 245 543T211 560T179 578T153 586Q128 586 108 575T62 545L44 587Q66 613 95 634T160 655Q177 655 193 647T225 630T255 612T281 604Q306 604 330 619T371 649L388 603Q369 578 342 557T279 535Z" />
<glyph unicode="&#xa0;" horiz-adv-x="262" />
<glyph unicode="&#xa1;" horiz-adv-x="270" d="M183 334L198 -202H74L92 334H183ZM173 537Q192 537 192 518V424Q192 404 173 404H102Q83 404 83 424V518Q83 529 89 533T102 537H173Z" />
<glyph unicode="&#xa2;" horiz-adv-x="486" d="M228 -90V-5Q188 -4 153 7T92 49T50 131T35 266Q35 349 49 401T90 483T152 524T231 536V627H302V534Q334 532 371 524T444 504V431Q427 435 385 438T279 442Q248 442 226 436T188 411T166 357T159 263Q159 209 166
175T189 122T227 96T281 89Q324 89 356 91T412 97T450 103V29Q411 11 376 4T299 -5V-90H228Z" />
<glyph unicode="&#xa3;" horiz-adv-x="609" d="M60 0V94L158 111V322L60 331V393L158 411V504Q158 593 184 645T261 719T389 742Q437 742 478 738T547 730V631H395Q357 631 332 622T295 589T282 517V411L476 399V331L282 322V111H554V0H60Z" />
<glyph unicode="&#xa4;" horiz-adv-x="609" d="M304 183Q257 183 218 206T156 269T132 356Q132 404 155 443T218 505T304 529Q352 529 391 506T453 443T477 356Q477 309 454 270T391 207T304 183ZM122 121L69 174L177 282L230 229L122 121ZM173 434L69 538L122
591L226 487L173 434ZM486 121L380 227L433 280L539 174L486 121ZM304 249Q334 249 358 263T396 302T411 356Q411 386 397 410T358 448T304 463Q275 463 251 449T213 410T199 356Q199 327 213 303T251 264T304 249ZM433 432L380 485L486 591L539 538L433 432Z"
/>
<glyph unicode="&#xa5;" horiz-adv-x="609" d="M78 261V326H530V261H78ZM78 126V192H530V126H78ZM232 0V231L6 738H134L296 357L458 738H582L356 231V0H232Z" />
<glyph unicode="&#xa6;" horiz-adv-x="252" d="M76 429V770H176V429H76ZM76 -72V256H176V-72H76Z" />
<glyph unicode="&#xa7;" horiz-adv-x="543" d="M315 -6Q291 -6 260 -6T197 -4T136 0T86 6V94H291Q325 94 342 100T365 117T372 143V181Q372 197 368 206T350 219T311 223H202Q151 223 117 233T64 267T45 335V380Q45 425 62 446T115 478Q80 492 68 523T55 590V647Q55
691 73 721T130 768T228 784Q250 784 281 783T346 781T410 777T458 770V684H246Q222 684 206 680T181 663T173 628V596Q173 572 186 562T233 551H339Q398 551 433 540T484 504T500 436V392Q500 356 485 331T432 295Q455 289 468 275T487 240T493 195V139Q493 84
472 52T410 7T315 -6ZM232 316H311Q341 316 356 319T376 332T382 366V408Q382 427 376 437T355 452T311 457H232Q193 457 178 446T163 406V365Q163 350 169 339T191 322T232 316Z" />
<glyph unicode="&#xa8;" horiz-adv-x="404" d="M272 643Q253 643 253 662V752Q253 772 272 772H329Q338 772 343 767T348 752V662Q348 643 329 643H272ZM76 643Q57 643 57 662V752Q57 772 76 772H133Q142 772 147 767T152 752V662Q152 643 133 643H76Z" />
<glyph unicode="&#xa9;" horiz-adv-x="822" d="M311 0Q254 0 211 20T137 76T87 158T58 259T49 368Q49 436 60 501T99 618T179 701T311 732H534Q594 732 636 712T705 655T747 573T768 474T774 368Q774 281 758 213T710 97T635 25T534 0H311ZM382 147Q341 147 306
164T249 229T227 365Q227 446 246 493T301 562T383 583Q403 583 432 581T495 575T555 562V504Q526 509 498 511T446 515T406 516Q370 516 347 502T312 455T300 362Q300 286 324 250T405 214Q451 214 490 219T561 230V172Q519 155 475 151T382 147ZM311 67H528Q578
67 617 97T678 194T701 368Q701 424 695 477T670 572T619 640T534 665H311Q274 665 241 652T181 606T138 516T121 368Q121 308 132 254T166 158T226 92T311 67Z" />
<glyph unicode="&#xaa;" horiz-adv-x="410" d="M28 257V317H376V257H28ZM124 472Q124 455 131 445T150 431T174 427Q186 427 200 429T227 436T250 443T260 447V541L180 536Q151 535 138 521T124 487V472ZM25 490Q25 535 56 559T150 583H260V620Q260 648 244 661T173
674H53V736Q82 745 120 751T212 757Q262 758 297 746T350 706T369 627V360H283L265 402Q260 397 247 390T214 374T173 361T127 356Q82 356 54 381T25 450V490Z" />
<glyph unicode="&#xab;" horiz-adv-x="617" d="M267 62L44 282L262 496L326 434L171 282L329 126L267 62ZM517 62L294 282L512 496L576 434L421 282L579 126L517 62Z" />
<glyph unicode="&#xac;" horiz-adv-x="609" d="M428 186V467H528V186H428ZM80 426V526H528V426H80Z" />
<glyph unicode="&#xad;" horiz-adv-x="347" d="M23 240V340H325V240H23Z" />
<glyph unicode="&#xae;" horiz-adv-x="822" d="M311 0Q254 0 211 20T137 76T87 158T58 259T49 368Q49 436 60 501T99 618T179 701T311 732H534Q594 732 636 712T705 655T747 573T768 474T774 368Q774 281 758 213T710 97T635 25T534 0H311ZM311 67H528Q578 67
617 97T678 194T701 368Q701 424 695 477T670 572T619 640T534 665H311Q274 665 241 652T181 606T138 516T121 368Q121 308 132 254T166 158T226 92T311 67ZM257 153V580H440Q473 580 502 570T551 531T570 447Q570 412 563 390T543 356T516 336T486 325L581 153H507L416
327L330 329V153H257ZM330 383H440Q467 383 482 394T497 446Q497 485 482 499T440 513H330V383Z" />
<glyph unicode="&#xaf;" horiz-adv-x="364" d="M44 656V729H320V656H44Z" />
<glyph unicode="&#xb0;" horiz-adv-x="322" d="M162 486Q102 486 62 525T22 626Q22 668 40 699T90 749T162 767Q224 767 262 728T300 626Q300 564 262 525T162 486ZM162 543Q198 543 220 566T243 626Q243 663 221 686T162 710Q126 710 103 687T79 626Q79 590 102
567T162 543Z" />
<glyph unicode="&#xb1;" horiz-adv-x="609" d="M80 106V206H528V106H80ZM254 282V730H354V282H254ZM80 456V556H528V456H80Z" />
<glyph unicode="&#xb2;" horiz-adv-x="453" d="M45 280V360L222 540Q255 573 271 602T288 663Q288 681 281 695T256 717T207 725H58V807Q92 813 134 818T228 824Q293 824 330 807T382 757T398 678Q398 641 389 612T360 555T305 491L190 375H415V280H45Z" />
<glyph unicode="&#xb3;" horiz-adv-x="453" d="M239 276Q181 276 132 280T39 291V375H203Q233 375 253 380T283 397T293 429V451Q293 471 283 482T257 499T220 506L89 511V592L215 599Q249 601 268 611T287 646V669Q287 697 267 711T200 725H52V808Q93 816 139
820T241 824Q313 823 353 790T394 691V651Q394 622 385 603T360 571T324 552Q345 546 362 532T390 495T401 442V414Q401 347 358 312T239 276Z" />
<glyph unicode="&#xb4;" horiz-adv-x="226" d="M18 631L107 770H209L90 631H18Z" />
<glyph unicode="&#xb5;" horiz-adv-x="593" d="M261 -6Q224 -6 189 6T124 44T79 105T62 186V536H186V193Q186 158 198 139T230 112T277 104Q317 104 347 115T407 147V536H531V0H430L413 56Q385 28 348 11T261 -6ZM62 -269V240H186V-269H62Z" />
<glyph unicode="&#xb6;" horiz-adv-x="573" d="M258 -270V321Q251 316 232 312T183 307Q131 307 97 327T47 381T31 455V598Q31 646 52 677T110 723T191 738H568V654H502V0H419V656H340V-270H258ZM197 390H258V656H197Q151 656 133 637T114 578V468Q114 441 122
426T144 403T172 393T197 390Z" />
<glyph unicode="&#xb7;" horiz-adv-x="260" d="M95 306Q76 306 76 324V398Q76 418 95 418H166Q185 418 185 398V324Q185 314 180 310T166 306H95Z" />
<glyph unicode="&#xb8;" horiz-adv-x="250" d="M44 -195V-144L64 -142Q87 -139 98 -130T110 -103Q110 -89 100 -78T57 -64L107 -52Q145 -52 167 -68T190 -118Q190 -154 164 -174T87 -195H44ZM57 -64L109 16H165L114 -64H57Z" />
<glyph unicode="&#xb9;" horiz-adv-x="453" d="M181 280V723L68 705V782L193 825H290V280H181ZM60 280V375H411V280H60Z" />
<glyph unicode="&#xba;" horiz-adv-x="429" d="M39 257V317H389V257H39ZM140 557Q140 503 148 477T172 444T214 436Q239 436 255 443T280 477T289 557Q289 612 281 637T256 670T214 678Q189 678 173 671T148 638T140 557ZM31 557Q31 637 49 680T108 741T214 758Q280
758 320 741T379 680T398 557Q398 479 380 436T322 375T214 357Q149 357 108 375T49 437T31 557Z" />
<glyph unicode="&#xbb;" horiz-adv-x="617" d="M104 62L43 126L198 279L41 433L105 496L325 279L104 62ZM354 62L293 126L448 279L291 433L355 496L575 279L354 62Z" />
<glyph unicode="&#xbc;" horiz-adv-x="1275" d="M408 0L779 770H866L495 0H408ZM1072 0V116H834L820 184L989 540H1098L940 205H1072V294L1098 374H1175V205H1232V133L1175 116V0H1072ZM185 280V723L72 705V782L197 825H294V280H185ZM64 280V375H415V280H64Z" />
<glyph unicode="&#xbd;" horiz-adv-x="1275" d="M408 0L779 770H866L495 0H408ZM840 0V80L1017 260Q1050 293 1066 322T1083 383Q1083 401 1076 415T1051 437T1002 445H853V527Q887 533 929 538T1023 544Q1088 544 1125 527T1177 477T1193 398Q1193 361 1184 332T1155
275T1100 211L985 95H1210V0H840ZM185 280V723L72 705V782L197 825H294V280H185ZM64 280V375H415V280H64Z" />
<glyph unicode="&#xbe;" horiz-adv-x="1275" d="M408 0L779 770H866L495 0H408ZM1072 0V116H834L820 184L989 540H1098L940 205H1072V294L1098 374H1175V205H1232V133L1175 116V0H1072ZM249 276Q191 276 142 280T49 291V375H213Q243 375 263 380T293 397T303 429V451Q303
471 293 482T267 499T230 506L99 511V592L225 599Q259 601 278 611T297 646V669Q297 697 277 711T210 725H62V808Q103 816 149 820T251 824Q323 823 363 790T404 691V651Q404 622 395 603T370 571T334 552Q355 546 372 532T400 495T411 442V414Q411 347 368 312T249
276Z" />
<glyph unicode="&#xbf;" horiz-adv-x="530" d="M374 334V151H311Q250 151 220 132T189 59V16Q189 -43 219 -67T310 -92Q356 -92 398 -83T486 -57V-147Q445 -173 392 -188T274 -203Q202 -204 156 -179T88 -109T65 -2V61Q65 152 116 198T280 245V334H374ZM363 537Q382
537 382 518V424Q382 404 363 404H292Q272 404 272 424V518Q272 529 278 533T292 537H363Z" />
<glyph unicode="&#xc0;" horiz-adv-x="681" d="M23 0L263 738H419L659 0H530L473 175H206L150 0H23ZM235 286H443L339 632L235 286ZM316 791L198 930H299L389 791H316Z" />
<glyph unicode="&#xc1;" horiz-adv-x="681" d="M23 0L263 738H419L659 0H530L473 175H206L150 0H23ZM235 286H443L339 632L235 286ZM309 791L398 930H500L381 791H309Z" />
<glyph unicode="&#xc2;" horiz-adv-x="681" d="M23 0L263 738H419L659 0H530L473 175H206L150 0H23ZM235 286H443L339 632L235 286ZM186 791L300 930H385L488 791H415L340 874L260 791H186Z" />
<glyph unicode="&#xc3;" horiz-adv-x="681" d="M23 0L263 738H419L659 0H530L473 175H206L150 0H23ZM235 286H443L339 632L235 286ZM157 795Q160 841 174 867T210 905T259 917Q283 917 303 910T340 892T374 873T408 865Q430 865 443 879T457 921H520Q517 860 491
828T419 796Q395 796 375 804T337 822T302 840T268 848Q248 848 235 835T219 795H157Z" />
<glyph unicode="&#xc4;" horiz-adv-x="681" d="M23 0L263 738H419L659 0H530L473 175H206L150 0H23ZM235 286H443L339 632L235 286ZM414 803Q395 803 395 822V912Q395 932 414 932H471Q480 932 485 927T490 912V822Q490 803 471 803H414ZM193 803Q174 803 174
822V912Q174 932 193 932H251Q260 932 264 927T269 912V822Q269 803 251 803H193Z" />
<glyph unicode="&#xc5;" horiz-adv-x="681" d="M23 0L263 738H419L659 0H530L473 175H206L150 0H23ZM235 286H443L339 632L235 286ZM340 766Q282 766 251 790T220 877Q220 940 251 964T340 989Q399 989 428 965T458 877Q458 814 429 790T340 766ZM340 813Q372
813 386 826T400 877Q400 914 386 928T340 942Q309 942 294 928T279 877Q279 840 294 827T340 813Z" />
<glyph unicode="&#xc6;" horiz-adv-x="975" d="M645 -5Q566 -5 523 20T474 115L473 174H249L145 0H23L343 567Q377 630 416 668T507 722T629 738Q713 738 790 734T925 727V624H650Q614 624 600 610T585 565V423L880 416V319L585 312V185Q585 155 596 139T626 117T668
111H925V9Q862 4 793 0T645 -5ZM305 279H473V581L305 279Z" />
<glyph unicode="&#xc7;" horiz-adv-x="584" d="M315 -6Q250 -6 201 9T118 64T67 178T50 372Q50 485 67 558T119 672T204 729T318 745Q362 745 403 740T480 728T542 713V618Q525 622 494 625T424 631T343 634Q297 634 265 624T212 585T183 505T174 370Q174 288
182 236T209 156T260 116T342 105Q417 105 465 108T542 116V21Q514 13 479 7T403 -2T315 -6ZM262 -195V-144L282 -142Q305 -139 316 -130T328 -103Q328 -89 318 -78T275 -64L325 -52Q363 -52 385 -68T408 -118Q408 -154 382 -174T305 -195H262ZM275 -64L327 16H383L332
-64H275Z" />
<glyph unicode="&#xc8;" horiz-adv-x="594" d="M240 -5Q216 -5 187 -1T130 19T86 66T69 151V577Q69 624 83 655T120 705T172 730T229 738Q299 738 355 736T457 732T544 727V624H265Q231 624 212 607T192 554V423L499 416V319L192 312V185Q192 155 202 139T229
117T264 111H544V8Q500 4 448 2T343 -2T240 -5ZM289 791L171 930H272L362 791H289Z" />
<glyph unicode="&#xc9;" horiz-adv-x="594" d="M240 -5Q216 -5 187 -1T130 19T86 66T69 151V577Q69 624 83 655T120 705T172 730T229 738Q299 738 355 736T457 732T544 727V624H265Q231 624 212 607T192 554V423L499 416V319L192 312V185Q192 155 202 139T229
117T264 111H544V8Q500 4 448 2T343 -2T240 -5ZM282 791L371 930H473L354 791H282Z" />
<glyph unicode="&#xca;" horiz-adv-x="594" d="M240 -5Q216 -5 187 -1T130 19T86 66T69 151V577Q69 624 83 655T120 705T172 730T229 738Q299 738 355 736T457 732T544 727V624H265Q231 624 212 607T192 554V423L499 416V319L192 312V185Q192 155 202 139T229
117T264 111H544V8Q500 4 448 2T343 -2T240 -5ZM159 791L273 930H358L461 791H388L313 874L233 791H159Z" />
<glyph unicode="&#xcb;" horiz-adv-x="594" d="M240 -5Q216 -5 187 -1T130 19T86 66T69 151V577Q69 624 83 655T120 705T172 730T229 738Q299 738 355 736T457 732T544 727V624H265Q231 624 212 607T192 554V423L499 416V319L192 312V185Q192 155 202 139T229
117T264 111H544V8Q500 4 448 2T343 -2T240 -5ZM387 803Q368 803 368 822V912Q368 932 387 932H444Q453 932 458 927T463 912V822Q463 803 444 803H387ZM166 803Q147 803 147 822V912Q147 932 166 932H224Q233 932 237 927T242 912V822Q242 803 224 803H166Z" />
<glyph unicode="&#xcc;" horiz-adv-x="261" d="M69 0V738H192V0H69ZM107 791L-11 930H90L180 791H107Z" />
<glyph unicode="&#xcd;" horiz-adv-x="261" d="M69 0V738H192V0H69ZM100 791L189 930H291L172 791H100Z" />
<glyph unicode="&#xce;" horiz-adv-x="261" d="M69 0V738H192V0H69ZM-23 791L91 930H176L279 791H206L131 874L51 791H-23Z" />
<glyph unicode="&#xcf;" horiz-adv-x="261" d="M69 0V738H192V0H69ZM206 803Q187 803 187 822V912Q187 932 206 932H263Q272 932 277 927T282 912V822Q282 803 263 803H206ZM-15 803Q-34 803 -34 822V912Q-34 932 -15 932H43Q52 932 56 927T61 912V822Q61 803
43 803H-15Z" />
<glyph unicode="&#xd0;" horiz-adv-x="676" d="M13 332V414H329V332H13ZM69 0V738H374Q446 738 494 713T572 639T613 522T626 369Q626 247 598 166T514 42T374 0H69ZM192 111H362Q413 111 443 141T488 229T503 369Q503 445 494 495T468 574T425 615T362 627H192V111Z" />
<glyph unicode="&#xd1;" horiz-adv-x="697" d="M77 0V738H176L512 211V738H636V0H537L201 527V0H77ZM159 795Q162 841 176 867T212 905T261 917Q285 917 305 910T342 892T376 873T410 865Q432 865 445 879T459 921H522Q519 860 493 828T421 796Q397 796 377 804T339
822T304 840T270 848Q250 848 237 835T221 795H159Z" />
<glyph unicode="&#xd2;" horiz-adv-x="695" d="M347 -6Q273 -6 218 8T125 61T69 174T50 367Q50 487 69 561T125 675T218 730T347 745Q422 745 478 730T571 676T626 562T645 367Q645 248 627 174T571 62T478 9T347 -6ZM347 105Q396 105 429 115T483 153T512 232T521
367Q521 455 512 507T482 587T429 624T347 634Q301 634 268 625T215 588T184 508T174 367Q174 284 182 233T211 154T264 116T347 105ZM324 791L206 930H307L397 791H324Z" />
<glyph unicode="&#xd3;" horiz-adv-x="695" d="M347 -6Q273 -6 218 8T125 61T69 174T50 367Q50 487 69 561T125 675T218 730T347 745Q422 745 478 730T571 676T626 562T645 367Q645 248 627 174T571 62T478 9T347 -6ZM347 105Q396 105 429 115T483 153T512 232T521
367Q521 455 512 507T482 587T429 624T347 634Q301 634 268 625T215 588T184 508T174 367Q174 284 182 233T211 154T264 116T347 105ZM317 791L406 930H508L389 791H317Z" />
<glyph unicode="&#xd4;" horiz-adv-x="695" d="M347 -6Q273 -6 218 8T125 61T69 174T50 367Q50 487 69 561T125 675T218 730T347 745Q422 745 478 730T571 676T626 562T645 367Q645 248 627 174T571 62T478 9T347 -6ZM347 105Q396 105 429 115T483 153T512 232T521
367Q521 455 512 507T482 587T429 624T347 634Q301 634 268 625T215 588T184 508T174 367Q174 284 182 233T211 154T264 116T347 105ZM194 791L308 930H393L496 791H423L348 874L268 791H194Z" />
<glyph unicode="&#xd5;" horiz-adv-x="695" d="M347 -6Q273 -6 218 8T125 61T69 174T50 367Q50 487 69 561T125 675T218 730T347 745Q422 745 478 730T571 676T626 562T645 367Q645 248 627 174T571 62T478 9T347 -6ZM347 105Q396 105 429 115T483 153T512 232T521
367Q521 455 512 507T482 587T429 624T347 634Q301 634 268 625T215 588T184 508T174 367Q174 284 182 233T211 154T264 116T347 105ZM165 795Q168 841 182 867T218 905T267 917Q291 917 311 910T348 892T382 873T416 865Q438 865 451 879T465 921H528Q525 860
499 828T427 796Q403 796 383 804T345 822T310 840T276 848Q256 848 243 835T227 795H165Z" />
<glyph unicode="&#xd6;" horiz-adv-x="695" d="M347 -6Q273 -6 218 8T125 61T69 174T50 367Q50 487 69 561T125 675T218 730T347 745Q422 745 478 730T571 676T626 562T645 367Q645 248 627 174T571 62T478 9T347 -6ZM347 105Q396 105 429 115T483 153T512 232T521
367Q521 455 512 507T482 587T429 624T347 634Q301 634 268 625T215 588T184 508T174 367Q174 284 182 233T211 154T264 116T347 105ZM422 803Q403 803 403 822V912Q403 932 422 932H479Q488 932 493 927T498 912V822Q498 803 479 803H422ZM201 803Q182 803 182
822V912Q182 932 201 932H259Q268 932 272 927T277 912V822Q277 803 259 803H201Z" />
<glyph unicode="&#xd7;" horiz-adv-x="609" d="M427 162L110 479L181 550L498 233L427 162ZM181 162L110 233L427 550L498 479L181 162Z" />
<glyph unicode="&#xd8;" horiz-adv-x="695" d="M61 0L550 738H634L145 0H61ZM347 -6Q273 -6 218 8T125 61T69 174T50 367Q50 487 69 561T125 675T218 730T347 745Q422 745 478 730T571 676T626 562T645 367Q645 248 627 174T571 62T478 9T347 -6ZM347 105Q396
105 429 115T483 153T512 232T521 367Q521 455 512 507T482 587T429 624T347 634Q301 634 268 625T215 588T184 508T174 367Q174 284 182 233T211 154T264 116T347 105Z" />
<glyph unicode="&#xd9;" horiz-adv-x="682" d="M341 -5Q280 -5 228 5T138 42T80 115T59 235V738H182V235Q182 187 201 159T255 118T341 106Q391 106 426 118T481 158T500 235V738H623V235Q623 162 603 116T544 43T455 6T341 -5ZM311 791L193 930H294L384 791H311Z" />
<glyph unicode="&#xda;" horiz-adv-x="682" d="M341 -5Q280 -5 228 5T138 42T80 115T59 235V738H182V235Q182 187 201 159T255 118T341 106Q391 106 426 118T481 158T500 235V738H623V235Q623 162 603 116T544 43T455 6T341 -5ZM303 791L392 930H494L375 791H303Z" />
<glyph unicode="&#xdb;" horiz-adv-x="682" d="M341 -5Q280 -5 228 5T138 42T80 115T59 235V738H182V235Q182 187 201 159T255 118T341 106Q391 106 426 118T481 158T500 235V738H623V235Q623 162 603 116T544 43T455 6T341 -5ZM181 791L295 930H380L483 791H410L335
874L255 791H181Z" />
<glyph unicode="&#xdc;" horiz-adv-x="682" d="M341 -5Q280 -5 228 5T138 42T80 115T59 235V738H182V235Q182 187 201 159T255 118T341 106Q391 106 426 118T481 158T500 235V738H623V235Q623 162 603 116T544 43T455 6T341 -5ZM409 803Q390 803 390 822V912Q390
932 409 932H466Q475 932 480 927T485 912V822Q485 803 466 803H409ZM188 803Q169 803 169 822V912Q169 932 188 932H246Q255 932 259 927T264 912V822Q264 803 246 803H188Z" />
<glyph unicode="&#xdd;" horiz-adv-x="624" d="M250 0V231L24 738H152L314 357L476 738H601L374 231V0H250ZM284 791L373 930H475L356 791H284Z" />
<glyph unicode="&#xde;" horiz-adv-x="577" d="M69 0V738H192V613H336Q370 613 406 605T473 573T522 503T541 380Q541 303 522 255T473 183T407 149T338 140Q325 140 305 142T263 146T222 151T192 155V0H69ZM192 252H320Q349 252 371 264T405 304T417 379Q417
426 405 452T372 490T324 502H192V252Z" />
<glyph unicode="&#xdf;" horiz-adv-x="598" d="M399 -7Q353 -7 311 -3T245 9V92Q270 91 302 90T369 88Q405 88 425 97T452 121T460 146V162Q460 180 448 191T417 212T376 231T335 255T304 289T292 339Q292 370 304 395T334 442T370 484T400 527T413 575Q413 624
384 645T299 666Q237 666 207 632T177 527V0H53V540Q53 604 79 655T159 736T300 766Q383 766 433 742T507 677T530 582Q530 548 518 521T488 473T452 433T422 397T410 361Q410 344 422 332T453 310T493 290T534 264T566 227T578 172V144Q578 102 562 73T519 27T461
1T399 -7Z" />
<glyph unicode="&#xe0;" horiz-adv-x="548" d="M174 -6Q114 -6 76 30T38 129V174Q38 236 80 275T211 314H364V361Q364 389 354 408T318 436T239 446H77V518Q114 528 164 535T283 543Q349 544 395 528T464 473T488 369V0H391L370 58Q363 52 345 42T300 21T241 2T174
-6ZM234 81Q247 81 263 84T297 92T328 101T352 110T364 115V255L248 249Q202 245 182 225T161 172V150Q161 125 171 110T198 88T234 81ZM255 631L137 770H238L328 631H255Z" />
<glyph unicode="&#xe1;" horiz-adv-x="548" d="M174 -6Q114 -6 76 30T38 129V174Q38 236 80 275T211 314H364V361Q364 389 354 408T318 436T239 446H77V518Q114 528 164 535T283 543Q349 544 395 528T464 473T488 369V0H391L370 58Q363 52 345 42T300 21T241 2T174
-6ZM234 81Q247 81 263 84T297 92T328 101T352 110T364 115V255L248 249Q202 245 182 225T161 172V150Q161 125 171 110T198 88T234 81ZM231 631L320 770H422L303 631H231Z" />
<glyph unicode="&#xe2;" horiz-adv-x="548" d="M174 -6Q114 -6 76 30T38 129V174Q38 236 80 275T211 314H364V361Q364 389 354 408T318 436T239 446H77V518Q114 528 164 535T283 543Q349 544 395 528T464 473T488 369V0H391L370 58Q363 52 345 42T300 21T241 2T174
-6ZM234 81Q247 81 263 84T297 92T328 101T352 110T364 115V255L248 249Q202 245 182 225T161 172V150Q161 125 171 110T198 88T234 81ZM117 631L231 770H316L419 631H346L271 714L191 631H117Z" />
<glyph unicode="&#xe3;" horiz-adv-x="548" d="M174 -6Q114 -6 76 30T38 129V174Q38 236 80 275T211 314H364V361Q364 389 354 408T318 436T239 446H77V518Q114 528 164 535T283 543Q349 544 395 528T464 473T488 369V0H391L370 58Q363 52 345 42T300 21T241 2T174
-6ZM234 81Q247 81 263 84T297 92T328 101T352 110T364 115V255L248 249Q202 245 182 225T161 172V150Q161 125 171 110T198 88T234 81ZM96 635Q99 681 113 707T149 745T198 757Q222 757 242 750T279 732T313 713T347 705Q369 705 382 719T396 761H459Q456 700
430 668T358 636Q334 636 314 644T276 662T241 680T207 688Q187 688 174 675T158 635H96Z" />
<glyph unicode="&#xe4;" horiz-adv-x="548" d="M174 -6Q114 -6 76 30T38 129V174Q38 236 80 275T211 314H364V361Q364 389 354 408T318 436T239 446H77V518Q114 528 164 535T283 543Q349 544 395 528T464 473T488 369V0H391L370 58Q363 52 345 42T300 21T241 2T174
-6ZM234 81Q247 81 263 84T297 92T328 101T352 110T364 115V255L248 249Q202 245 182 225T161 172V150Q161 125 171 110T198 88T234 81ZM336 643Q317 643 317 662V752Q317 772 336 772H394Q403 772 407 767T412 752V662Q412 643 394 643H336ZM140 643Q121 643 121
662V752Q121 772 140 772H198Q207 772 211 767T216 752V662Q216 643 198 643H140Z" />
<glyph unicode="&#xe5;" horiz-adv-x="548" d="M174 -6Q114 -6 76 30T38 129V174Q38 236 80 275T211 314H364V361Q364 389 354 408T318 436T239 446H77V518Q114 528 164 535T283 543Q349 544 395 528T464 473T488 369V0H391L370 58Q363 52 345 42T300 21T241 2T174
-6ZM234 81Q247 81 263 84T297 92T328 101T352 110T364 115V255L248 249Q202 245 182 225T161 172V150Q161 125 171 110T198 88T234 81ZM270 588Q212 588 181 612T150 699Q150 762 181 786T270 811Q329 811 358 787T388 699Q388 636 359 612T270 588ZM270 635Q302
635 316 648T330 699Q330 736 316 750T270 764Q239 764 224 750T209 699Q209 662 224 649T270 635Z" />
<glyph unicode="&#xe6;" horiz-adv-x="862" d="M180 -6Q131 -6 100 12T54 62T40 132V172Q40 212 58 243T114 292T212 311H366V363Q366 390 356 408T320 436T251 446H79V518Q121 530 163 536T264 543Q321 544 366 525T433 470Q456 508 498 525T602 543Q674 543
719 527T787 471T810 357Q810 284 765 257T637 230H487Q487 185 498 157T530 114T579 94T644 88H794V15Q745 2 691 -2T585 -6Q539 -6 503 7T442 42T401 90Q379 66 345 44T269 8T180 -6ZM236 81Q274 81 311 98T376 144Q372 159 369 186T364 249L236 242Q196 240
180 220T164 173V152Q164 124 174 109T201 88T236 81ZM487 309H633Q655 309 669 313T690 329T698 360Q698 394 688 413T654 441T593 450Q551 450 528 438T496 395T487 309Z" />
<glyph unicode="&#xe7;" horiz-adv-x="490" d="M268 -6Q220 -6 180 6T109 49T63 133T46 266Q46 348 61 402T106 487T176 530T271 543Q316 543 362 539T454 522V451H308Q260 451 230 436T185 381T170 266Q170 192 185 154T230 102T309 88H462V18Q438 11 406 6T339
-3T268 -6ZM196 -195V-144L216 -142Q239 -139 250 -130T262 -103Q262 -89 252 -78T209 -64L259 -52Q297 -52 319 -68T342 -118Q342 -154 316 -174T239 -195H196ZM209 -64L261 16H317L266 -64H209Z" />
<glyph unicode="&#xe8;" horiz-adv-x="539" d="M282 -5Q195 -5 144 19T69 102T46 268Q46 376 68 435T141 519T279 543Q356 543 402 528T470 473T492 361Q492 310 472 280T415 236T326 223H169Q171 173 182 144T224 101T314 88H476V15Q435 7 390 1T282 -5ZM168
298H314Q349 298 365 311T382 361Q382 396 372 416T339 444T279 453Q237 453 213 440T179 394T168 298ZM255 631L137 770H238L328 631H255Z" />
<glyph unicode="&#xe9;" horiz-adv-x="539" d="M282 -5Q195 -5 144 19T69 102T46 268Q46 376 68 435T141 519T279 543Q356 543 402 528T470 473T492 361Q492 310 472 280T415 236T326 223H169Q171 173 182 144T224 101T314 88H476V15Q435 7 390 1T282 -5ZM168
298H314Q349 298 365 311T382 361Q382 396 372 416T339 444T279 453Q237 453 213 440T179 394T168 298ZM231 631L320 770H422L303 631H231Z" />
<glyph unicode="&#xea;" horiz-adv-x="539" d="M282 -5Q195 -5 144 19T69 102T46 268Q46 376 68 435T141 519T279 543Q356 543 402 528T470 473T492 361Q492 310 472 280T415 236T326 223H169Q171 173 182 144T224 101T314 88H476V15Q435 7 390 1T282 -5ZM168
298H314Q349 298 365 311T382 361Q382 396 372 416T339 444T279 453Q237 453 213 440T179 394T168 298ZM117 631L231 770H316L419 631H346L271 714L191 631H117Z" />
<glyph unicode="&#xeb;" horiz-adv-x="539" d="M282 -5Q195 -5 144 19T69 102T46 268Q46 376 68 435T141 519T279 543Q356 543 402 528T470 473T492 361Q492 310 472 280T415 236T326 223H169Q171 173 182 144T224 101T314 88H476V15Q435 7 390 1T282 -5ZM168
298H314Q349 298 365 311T382 361Q382 396 372 416T339 444T279 453Q237 453 213 440T179 394T168 298ZM336 643Q317 643 317 662V752Q317 772 336 772H394Q403 772 407 767T412 752V662Q412 643 394 643H336ZM140 643Q121 643 121 662V752Q121 772 140 772H198Q207
772 211 767T216 752V662Q216 643 198 643H140Z" />
<glyph unicode="&#xec;" horiz-adv-x="249" d="M63 0V536H187V0H63ZM366 631L248 770H349L439 631H366Z" />
<glyph unicode="&#xed;" horiz-adv-x="249" d="M63 0V536H187V0H63ZM86 631L175 770H277L158 631H86Z" />
<glyph unicode="&#xee;" horiz-adv-x="249" d="M63 0V536H187V0H63ZM228 631L342 770H427L530 631H457L382 714L302 631H228Z" />
<glyph unicode="&#xef;" horiz-adv-x="249" d="M63 0V536H187V0H63ZM191 643Q172 643 172 662V752Q172 772 191 772H249Q258 772 262 767T267 752V662Q267 643 249 643H191ZM-5 643Q-24 643 -24 662V752Q-24 772 -5 772H53Q62 772 66 767T71 752V662Q71 643 53 643H-5Z" />
<glyph unicode="&#xf0;" horiz-adv-x="576" d="M287 -5Q224 -5 178 7T103 50T60 133T46 263Q46 344 61 396T106 478T176 518T271 530Q315 530 349 521T407 493T443 442Q461 417 481 394T515 341T529 269Q529 188 516 135T473 51T398 8T287 -5ZM287 94Q318 94 340
99T376 122T398 173T405 264Q405 321 398 354T377 404T340 426T287 432Q257 432 235 427T199 405T178 355T170 264Q170 207 177 173T199 122T235 100T287 94ZM529 269L418 312Q418 418 401 489T348 604T260 667T135 690V765Q238 762 312 736T435 652T506 501T529
269ZM166 564L150 606L508 745L524 702L166 564Z" />
<glyph unicode="&#xf1;" horiz-adv-x="593" d="M63 0V536H164L187 480Q220 505 267 525T366 545Q429 545 465 520T516 451T532 357V0H408V342Q408 371 397 391T367 422T319 433Q293 433 271 428T228 413T187 389V0H63ZM122 635Q125 681 139 707T175 745T224 757Q248
757 268 750T305 732T339 713T373 705Q395 705 408 719T422 761H485Q482 700 456 668T384 636Q360 636 340 644T302 662T267 680T233 688Q213 688 200 675T184 635H122Z" />
<glyph unicode="&#xf2;" horiz-adv-x="576" d="M287 -5Q224 -5 178 8T103 52T60 136T46 269Q46 352 60 405T103 489T179 531T287 543Q351 543 397 531T472 488T515 405T529 269Q529 188 516 135T473 51T398 8T287 -5ZM287 94Q318 94 340 99T376 122T398 175T405
270Q405 328 398 363T377 415T340 438T287 444Q257 444 235 439T199 416T178 363T170 270Q170 211 177 176T199 123T235 100T287 94ZM272 631L154 770H255L345 631H272Z" />
<glyph unicode="&#xf3;" horiz-adv-x="576" d="M287 -5Q224 -5 178 8T103 52T60 136T46 269Q46 352 60 405T103 489T179 531T287 543Q351 543 397 531T472 488T515 405T529 269Q529 188 516 135T473 51T398 8T287 -5ZM287 94Q318 94 340 99T376 122T398 175T405
270Q405 328 398 363T377 415T340 438T287 444Q257 444 235 439T199 416T178 363T170 270Q170 211 177 176T199 123T235 100T287 94ZM249 631L338 770H440L321 631H249Z" />
<glyph unicode="&#xf4;" horiz-adv-x="576" d="M287 -5Q224 -5 178 8T103 52T60 136T46 269Q46 352 60 405T103 489T179 531T287 543Q351 543 397 531T472 488T515 405T529 269Q529 188 516 135T473 51T398 8T287 -5ZM287 94Q318 94 340 99T376 122T398 175T405
270Q405 328 398 363T377 415T340 438T287 444Q257 444 235 439T199 416T178 363T170 270Q170 211 177 176T199 123T235 100T287 94ZM134 631L248 770H333L436 631H363L288 714L208 631H134Z" />
<glyph unicode="&#xf5;" horiz-adv-x="576" d="M287 -5Q224 -5 178 8T103 52T60 136T46 269Q46 352 60 405T103 489T179 531T287 543Q351 543 397 531T472 488T515 405T529 269Q529 188 516 135T473 51T398 8T287 -5ZM287 94Q318 94 340 99T376 122T398 175T405
270Q405 328 398 363T377 415T340 438T287 444Q257 444 235 439T199 416T178 363T170 270Q170 211 177 176T199 123T235 100T287 94ZM114 635Q117 681 131 707T167 745T216 757Q240 757 260 750T297 732T331 713T365 705Q387 705 400 719T414 761H477Q474 700 448
668T376 636Q352 636 332 644T294 662T259 680T225 688Q205 688 192 675T176 635H114Z" />
<glyph unicode="&#xf6;" horiz-adv-x="576" d="M287 -5Q224 -5 178 8T103 52T60 136T46 269Q46 352 60 405T103 489T179 531T287 543Q351 543 397 531T472 488T515 405T529 269Q529 188 516 135T473 51T398 8T287 -5ZM287 94Q318 94 340 99T376 122T398 175T405
270Q405 328 398 363T377 415T340 438T287 444Q257 444 235 439T199 416T178 363T170 270Q170 211 177 176T199 123T235 100T287 94ZM353 643Q334 643 334 662V752Q334 772 353 772H411Q420 772 424 767T429 752V662Q429 643 411 643H353ZM157 643Q138 643 138
662V752Q138 772 157 772H215Q224 772 228 767T233 752V662Q233 643 215 643H157Z" />
<glyph unicode="&#xf7;" horiz-adv-x="609" d="M269 501Q245 501 245 524V592Q245 617 269 617H339Q364 617 364 592V524Q364 511 357 506T339 501H269ZM269 95Q245 95 245 118V186Q245 211 269 211H339Q364 211 364 186V118Q364 105 357 100T339 95H269ZM80 306V406H528V306H80Z"
/>
<glyph unicode="&#xf8;" horiz-adv-x="576" d="M37 0L480 536H539L96 0H37ZM287 -5Q224 -5 178 8T103 52T60 136T46 269Q46 352 60 405T103 489T179 531T287 543Q351 543 397 531T472 488T515 405T529 269Q529 188 516 135T473 51T398 8T287 -5ZM287 94Q318 94
340 99T376 122T398 175T405 270Q405 328 398 363T377 415T340 438T287 444Q257 444 235 439T199 416T178 363T170 270Q170 211 177 176T199 123T235 100T287 94Z" />
<glyph unicode="&#xf9;" horiz-adv-x="593" d="M218 -6Q144 -6 103 35T62 157V536H186V193Q186 140 210 122T277 104Q312 104 345 115T407 147V536H531V0H430L407 56Q369 32 321 13T218 -6ZM276 631L158 770H259L349 631H276Z" />
<glyph unicode="&#xfa;" horiz-adv-x="593" d="M218 -6Q144 -6 103 35T62 157V536H186V193Q186 140 210 122T277 104Q312 104 345 115T407 147V536H531V0H430L407 56Q369 32 321 13T218 -6ZM252 631L341 770H443L324 631H252Z" />
<glyph unicode="&#xfb;" horiz-adv-x="593" d="M218 -6Q144 -6 103 35T62 157V536H186V193Q186 140 210 122T277 104Q312 104 345 115T407 147V536H531V0H430L407 56Q369 32 321 13T218 -6ZM137 631L251 770H336L439 631H366L291 714L211 631H137Z" />
<glyph unicode="&#xfc;" horiz-adv-x="593" d="M218 -6Q144 -6 103 35T62 157V536H186V193Q186 140 210 122T277 104Q312 104 345 115T407 147V536H531V0H430L407 56Q369 32 321 13T218 -6ZM357 643Q338 643 338 662V752Q338 772 357 772H415Q424 772 428 767T433
752V662Q433 643 415 643H357ZM161 643Q142 643 142 662V752Q142 772 161 772H219Q228 772 232 767T237 752V662Q237 643 219 643H161Z" />
<glyph unicode="&#xfd;" horiz-adv-x="559" d="M223 -237L285 0Q246 0 215 15T161 60T125 137L15 536H143L240 162Q247 139 257 127T277 110T295 103T307 102L418 536H544L372 -138L324 -237H223ZM233 631L322 770H424L305 631H233Z" />
<glyph unicode="&#xfe;" horiz-adv-x="583" d="M63 -237V763H187V483Q206 498 231 512T285 534T345 543Q394 543 430 523T489 467T524 380T536 268Q536 180 517 119T455 25T345 -7Q305 -7 264 4T187 33V-237H63ZM306 95Q335 95 359 109T397 160T412 262Q412 330
398 369T361 426T307 443Q270 443 240 432T187 408V128Q213 113 244 104T306 95Z" />
<glyph unicode="&#xff;" horiz-adv-x="559" d="M223 -237L285 0Q246 0 215 15T161 60T125 137L15 536H143L240 162Q247 139 257 127T277 110T295 103T307 102L418 536H544L372 -138L324 -237H223ZM338 643Q319 643 319 662V752Q319 772 338 772H396Q405 772 409
767T414 752V662Q414 643 396 643H338ZM142 643Q123 643 123 662V752Q123 772 142 772H200Q209 772 213 767T218 752V662Q218 643 200 643H142Z" />
<glyph unicode="&#x2013;" horiz-adv-x="519" d="M23 239V340H496V239H23Z" />
<glyph unicode="&#x2014;" horiz-adv-x="742" d="M23 239V340H719V239H23Z" />
<glyph unicode="&#x2018;" horiz-adv-x="211" d="M69 509Q59 509 55 515T51 532V681Q51 713 64 729T97 751T133 756Q145 756 151 756T162 754V708Q145 708 141 700T136 682V646H145Q154 646 160 641T166 625V532Q166 509 145 509H69Z" />
<glyph unicode="&#x2019;" horiz-adv-x="211" d="M78 505Q67 505 61 505T49 507V553Q67 553 71 561T75 579V615H66Q57 615 51 620T45 636V729Q45 752 66 752H142Q152 752 156 746T160 729V580Q160 548 146 532T113 510T78 505Z" />
<glyph unicode="&#x201a;" horiz-adv-x="211" d="M78 -116Q67 -116 59 -115T49 -114V-68Q67 -68 71 -60T75 -42V-6H66Q57 -6 51 -1T45 15V108Q45 131 66 131H142Q152 131 156 125T160 108V-41Q160 -73 146 -89T113 -111T78 -116Z" />
<glyph unicode="&#x201c;" horiz-adv-x="361" d="M69 509Q59 509 55 515T51 532V681Q51 713 64 729T97 751T133 756Q145 756 151 756T162 754V708Q145 708 141 700T136 682V646H145Q154 646 160 641T166 625V532Q166 509 145 509H69ZM220 509Q210 509 206 515T202
532V681Q202 713 215 729T248 751T284 756Q296 756 302 756T313 754V708Q296 708 292 700T287 682V646H296Q305 646 311 641T317 625V532Q317 509 296 509H220Z" />
<glyph unicode="&#x201d;" horiz-adv-x="361" d="M78 505Q67 505 61 505T49 507V553Q67 553 71 561T75 579V615H66Q57 615 51 620T45 636V729Q45 752 66 752H142Q152 752 156 746T160 729V580Q160 548 146 532T113 510T78 505ZM229 505Q218 505 212 505T200 507V553Q218
553 222 561T226 579V615H217Q208 615 202 620T196 636V729Q196 752 217 752H293Q303 752 307 746T311 729V580Q311 548 297 532T264 510T229 505Z" />
<glyph unicode="&#x201e;" horiz-adv-x="361" d="M78 -116Q67 -116 59 -115T49 -114V-68Q67 -68 71 -60T75 -42V-6H66Q57 -6 51 -1T45 15V108Q45 131 66 131H142Q152 131 156 125T160 108V-41Q160 -73 146 -89T113 -111T78 -116ZM229 -116Q218 -116 210 -115T200
-114V-68Q218 -68 222 -60T226 -42V-6H217Q208 -6 202 -1T196 15V108Q196 131 217 131H293Q303 131 307 125T311 108V-41Q311 -73 297 -89T264 -111T229 -116Z" />
<glyph unicode="&#x2022;" horiz-adv-x="313" d="M109 299Q76 299 76 331V431Q76 447 84 456T109 466H203Q238 466 238 431V331Q238 313 228 306T203 299H109Z" />
<glyph unicode="&#x2039;" horiz-adv-x="367" d="M267 62L44 282L262 496L326 434L171 282L329 126L267 62Z" />
<glyph unicode="&#x203a;" horiz-adv-x="367" d="M104 62L43 126L198 279L41 433L105 496L325 279L104 62Z" />
</font>
</defs>
</svg>
