<?xml version="1.0" standalone="no"?>
<!DOCTYPE svg PUBLIC "-//W3C//DTD SVG 1.1//EN" "http://www.w3.org/Graphics/SVG/1.1/DTD/svg11.dtd">
<svg xmlns="http://www.w3.org/2000/svg">
<defs >
<font id="Exo" horiz-adv-x="531" ><font-face
    font-family="Exo Light"
    units-per-em="1000"
    panose-1="0 0 0 0 0 0 0 0 0 0"
    ascent="1002"
    descent="-327"
    alphabetic="0" />
<glyph unicode=" " horiz-adv-x="237" />
<glyph unicode="!" horiz-adv-x="263" d="M140 198L217 733H275L182 198H140ZM113 0Q101 0 101 11Q101 12 101 12T101 14L113 87Q115 101 130 101H161Q173 101 173 91Q173 90 173 89T173 87L161 14Q160 6 156 3T145 0H113Z" />
<glyph unicode="&quot;" horiz-adv-x="250" d="M130 510L149 677L159 744H216L206 677L173 510H130ZM238 510L257 677L267 744H324L314 677L281 510H238Z" />
<glyph unicode="#" horiz-adv-x="673" d="M156 0L232 237H62L73 273H245L303 455H130L142 491H316L394 732H430L352 491H518L595 732H631L554 491H730L719 455H542L484 273H660L649 237H470L395 0H359L434 237H268L192 0H156ZM281 273H448L506 455H339L281 273Z" />
<glyph unicode="$" horiz-adv-x="609" d="M409 729L398 751L431 824L442 803L409 729ZM265 -88L279 5L315 4L301 -88H265ZM299 -6Q262 -6 220 -4T140 1T74 9L81 53Q122 50 183 48T302 46Q352 46 391 55T456 92T489 170L497 225Q499 233 499 241T500 257Q500 301
474 321T389 341H291Q220 341 183 370T146 461Q146 479 149 500L158 565Q170 636 200 674T278 726T385 740Q404 740 432 739T491 735T550 729T599 722L593 678Q561 680 521 682T444 685T382 686Q334 686 299 676T243 639T214 560L205 505Q204 496 204 488T203 473Q203
430 227 414T302 397H402Q481 397 519 365T557 270Q557 252 554 229L543 162Q534 96 501 60T416 9T299 -6Z" />
<glyph unicode="%" horiz-adv-x="957" d="M232 0L789 732H831L275 0H232ZM234 349Q173 349 148 371T123 437Q123 456 126 476L146 605Q157 669 189 700T297 732H398Q460 732 485 710T511 644Q511 635 510 626T507 605L487 476Q477 412 444 381T335 349H234ZM246
387H337Q388 387 414 406T450 482L468 599Q470 609 470 616T471 631Q471 665 452 679T387 694H296Q246 694 220 676T183 599L164 482Q164 473 163 465T162 450Q162 414 182 401T246 387ZM675 3Q614 3 589 25T564 91Q564 109 567 130L587 259Q597 323 629 354T738
386H839Q901 386 926 364T952 298Q952 289 951 280T948 259L928 130Q918 66 885 35T776 3H675ZM687 41H778Q829 41 855 60T891 136L909 253Q911 263 912 270T913 285Q913 319 894 333T829 348H738Q687 348 661 330T624 253L606 136Q605 127 604 119T603 104Q603
68 623 55T687 41Z" />
<glyph unicode="&amp;" horiz-adv-x="665" d="M222 -6Q149 -6 105 37T60 155Q60 209 74 251T121 327T206 394L277 435L261 464Q242 498 235 529T227 586Q227 634 249 667T315 716T417 733Q452 733 477 732T522 728T559 723L552 682H418Q358 682 321 660T284 584Q284
560 291 534T317 475L488 179L663 324L681 299L599 207L515 136L595 0H532L470 106L433 77Q373 29 324 12T222 -6ZM238 49Q276 49 315 61T404 114L444 147L299 394L244 363Q194 335 167 306T130 243T120 167Q120 112 151 81T238 49Z" />
<glyph unicode="&apos;" horiz-adv-x="142" d="M130 510L149 677L159 744H216L206 677L173 510H130Z" />
<glyph unicode="(" horiz-adv-x="335" d="M221 -210Q190 -153 170 -91T139 39T129 179Q129 249 140 321T172 466T226 608T299 741T390 860H446Q384 789 337 708T256 539T205 362T188 187Q188 82 210 -17T278 -210H221Z" />
<glyph unicode=")" horiz-adv-x="334" d="M-9 -210Q55 -131 103 -48T184 123T233 297T250 471Q250 573 229 666T160 860H216Q249 798 269 737T299 612T309 477Q309 406 299 335T267 193T214 52T141 -83T47 -210H-9Z" />
<glyph unicode="*" horiz-adv-x="470" d="M364 526L342 556L469 638L481 617L364 526ZM397 418L286 488L311 522L415 438L397 418ZM203 403L181 411L234 546L271 538L203 403ZM135 587L138 612L281 619L277 581L135 587ZM325 591L293 723L318 730L364 607L325 591Z" />
<glyph unicode="+" horiz-adv-x="609" d="M301 132L371 580H421L351 132H301ZM133 331L141 381H589L581 331H133Z" />
<glyph unicode="," horiz-adv-x="189" d="M74 -75Q66 -75 61 -74T56 -72L59 -55Q69 -55 74 -52T81 -39L87 3H80Q68 3 68 15Q68 16 68 17T68 22L79 86Q80 101 96 101H126Q138 101 138 90Q138 89 138 87T137 82L119 -32Q116 -50 109 -59T92 -72T74 -75Z" />
<glyph unicode="-" horiz-adv-x="335" d="M65 265L73 315H363L355 265H65Z" />
<glyph unicode="." horiz-adv-x="189" d="M79 0Q67 0 67 11Q67 12 67 12T67 14L79 87Q81 101 96 101H127Q139 101 139 91Q139 90 139 89T139 87L127 14Q126 6 122 3T111 0H79Z" />
<glyph unicode="/" horiz-adv-x="384" d="M13 -72L427 770H482L68 -72H13Z" />
<glyph unicode="0" horiz-adv-x="658" d="M261 -1Q217 -1 182 12T127 55T107 130Q107 139 108 148T110 169L173 568Q182 625 211 663T284 721T379 740H519Q598 740 633 704T668 608Q668 599 667 589T664 568L602 169Q587 79 533 39T401 -1H261ZM279 51H398Q466
51 501 84T545 175L606 564Q608 572 608 580T608 594Q608 641 581 664T500 688H378Q319 688 280 656T230 564L169 175Q168 168 167 161T166 147Q166 100 196 76T279 51Z" />
<glyph unicode="1" horiz-adv-x="359" d="M206 0L313 678L147 627L153 665L326 734H380L264 0H206Z" />
<glyph unicode="2" horiz-adv-x="595" d="M57 0L64 48L371 314Q464 395 504 462T545 582Q545 613 532 636T485 672T392 686H194L201 729Q246 733 300 736T410 740Q482 740 524 721T585 670T603 594Q603 529 558 452T412 286L148 54H552L544 0H57Z" />
<glyph unicode="3" horiz-adv-x="587" d="M306 -6Q227 -6 160 -4T46 4L53 46H298Q342 46 379 56T442 94T478 172Q483 201 486 220T489 246Q489 282 470 302T421 333T361 344L177 351L183 390L374 397Q430 399 470 423T519 504Q525 538 527 553T529 575T530 586Q530
635 494 661T392 688H181L188 730Q230 734 287 737T418 740Q477 740 514 724T570 677T589 604Q589 599 589 591T586 564T577 505Q571 469 555 445T519 405T479 381T445 371Q458 368 475 360T508 338T536 302T547 250Q547 241 544 219T535 165Q521 81 462 38T306
-6Z" />
<glyph unicode="4" horiz-adv-x="587" d="M396 2L428 197H74L64 233L432 734H492L133 247H435L469 460L492 523H536L493 247H601L595 208L486 197L454 2H396Z" />
<glyph unicode="5" horiz-adv-x="638" d="M344 -4Q281 -4 221 -2T115 4L123 48H353Q400 48 439 63T505 108T539 180L553 270Q554 278 554 286T555 301Q555 347 526 372T436 398H351Q301 398 268 376T219 305H164L253 734H661L653 682H299L239 391Q253 413 286
430T369 448H459Q536 448 575 411T615 314Q615 306 615 297T613 279L595 170Q586 112 551 74T463 16T344 -4Z" />
<glyph unicode="6" horiz-adv-x="628" d="M275 -2Q229 -2 195 16T141 79T121 205Q121 288 133 366T169 512T232 631T325 711T450 740Q491 740 541 738T630 731L622 688H438Q384 688 335 656T250 560T199 397Q231 400 271 402T350 405T414 406Q472 406 513 396T578
360T601 290Q601 282 601 274T598 256L582 154Q573 96 545 62T477 13T391 -2H275ZM291 50H389Q422 50 450 59T498 92T526 161L540 249Q541 256 541 262T542 275Q542 308 524 325T474 349T395 356H192Q186 311 182 275T178 208Q178 147 191 113T230 64T291 50Z"
/>
<glyph unicode="7" horiz-adv-x="540" d="M160 0L539 676H150L160 734H598L615 700L228 0H160Z" />
<glyph unicode="8" horiz-adv-x="648" d="M261 -1Q209 -1 175 12T125 50T109 109Q109 117 109 124T111 139L128 247Q134 286 154 311T200 352T246 371Q211 388 196 414T180 471Q180 478 181 486T183 501L196 586Q205 643 231 676T295 724T379 739H519Q579 739
610 714T641 630Q641 620 640 610T637 586L624 501Q622 483 614 465T594 429T565 399T528 380Q565 373 583 346T602 282Q602 275 602 269T600 254L581 140Q573 91 549 60T487 14T400 -1H261ZM278 49H396Q454 49 485 73T524 146L540 247Q542 255 542 262T543 276Q543
315 519 332T438 349H324Q308 349 287 344T244 328T207 296T186 247L170 146Q169 141 169 136T169 126Q169 85 200 67T278 49ZM333 400H446Q485 400 510 415T550 453T567 498L579 575Q581 585 581 594T582 612Q582 654 561 671T498 689H379Q320 689 291 662T251
575L239 498Q238 493 238 489T238 479Q238 445 260 423T333 400Z" />
<glyph unicode="9" horiz-adv-x="628" d="M469 738Q516 738 550 720T603 657T623 530Q623 448 611 370T575 223T513 105T420 25T295 -4Q254 -4 204 -1T115 4L122 48H306Q362 48 410 80T494 176T546 339Q513 336 473 334T394 331T330 330Q273 330 231 340T166 376T143
446Q143 453 144 461T146 479L162 582Q172 640 200 674T268 723T354 738H469ZM453 685H355Q323 685 295 677T246 644T218 575L205 487Q204 480 203 474T202 461Q202 428 220 411T271 387T349 380H552Q559 425 562 461T566 528Q566 589 553 623T514 671T453 685Z"
/>
<glyph unicode=":" horiz-adv-x="189" d="M79 0Q67 0 67 11Q67 12 67 12T67 14L79 87Q81 101 96 101H127Q139 101 139 91Q139 90 139 89T139 87L127 14Q126 6 122 3T111 0H79ZM148 432Q136 432 136 443Q136 444 136 444T136 446L148 519Q150 533 165 533H196Q208
533 208 523Q208 522 208 521T208 519L196 446Q195 438 191 435T180 432H148Z" />
<glyph unicode=";" horiz-adv-x="189" d="M148 432Q136 432 136 443Q136 444 136 444T136 446L148 519Q150 533 165 533H196Q208 533 208 523Q208 522 208 521T208 519L196 446Q195 438 191 435T180 432H148ZM74 -75Q66 -75 61 -74T56 -72L59 -55Q69 -55 74 -52T81
-39L87 3H80Q68 3 68 15Q68 16 68 17T68 22L79 86Q80 101 96 101H126Q138 101 138 90Q138 89 138 87T137 82L119 -32Q116 -50 109 -59T92 -72T74 -75Z" />
<glyph unicode="&lt;" horiz-adv-x="609" d="M528 186L134 322L142 375L578 510L571 460L192 348L535 236L528 186Z" />
<glyph unicode="=" horiz-adv-x="609" d="M370 467L378 517H826L818 467H370ZM152 451L160 501H608L600 451H152Z" />
<glyph unicode="&gt;" horiz-adv-x="609" d="M139 186L147 236L526 350L182 460L190 510L584 375L576 322L139 186Z" />
<glyph unicode="?" d="M208 197L231 343H275Q335 343 374 354T434 393T463 468L474 536Q476 550 477 561T478 584Q478 639 448 663T354 687Q301 687 253 678T148 647L155 687Q214 716 269 727T380 739Q466 739 502 702T538 600Q538 574 533 542L521 467Q507 380
448 338T269 295L254 197H208ZM187 0Q175 0 175 11Q175 12 175 12T175 14L187 87Q189 101 204 101H235Q247 101 247 91Q247 90 247 89T247 87L235 14Q234 6 230 3T219 0H187Z" />
<glyph unicode="@" horiz-adv-x="909" d="M223 -183Q168 -183 132 -162T77 -104T58 -22Q58 -12 59 -2T61 19L141 521Q148 563 163 597T206 656T271 694T364 707H751Q803 707 837 689T889 638T906 559Q906 536 902 509L852 173Q849 152 838 123T804 66T745 19T657
0H611L605 61Q593 47 570 35T519 14T461 -1T406 -6Q364 -6 328 11T270 68T249 179Q249 295 285 376T382 500T515 543Q574 543 627 527T714 479L650 43Q668 43 691 47T737 64T779 104T804 177L854 513Q856 525 857 535T858 556Q858 616 825 638T741 661H357Q300
661 265 641T213 586T189 513L109 15Q106 -2 106 -19Q106 -75 140 -106T230 -137H614L609 -170Q584 -173 540 -176T439 -181T319 -183H223ZM416 42Q460 42 511 52T609 99L663 461Q621 482 586 489T514 497Q454 497 405 460T327 353T297 185Q297 128 314 97T358
54T416 42Z" />
<glyph unicode="A" horiz-adv-x="670" d="M39 0L419 734H494L631 0H571L528 227H217L99 0H39ZM241 279H521L448 680L241 279Z" />
<glyph unicode="B" horiz-adv-x="607" d="M75 0L191 734H439Q501 734 539 717T594 669T612 595Q612 582 611 570T608 545Q597 477 560 437T472 384Q495 378 519 361T561 312T578 234Q578 224 578 211T572 178Q556 92 499 46T338 0H75ZM141 52H347Q402 52 436 70T489
120T519 196Q521 208 522 219T523 238Q523 295 488 326T396 358H190L141 52ZM197 405H402Q464 405 500 439T549 535Q552 549 553 560T555 583Q555 636 522 659T428 682H241L197 405Z" />
<glyph unicode="C" horiz-adv-x="590" d="M311 -6Q205 -6 157 52T108 220Q108 258 113 301T124 381Q142 496 177 576T272 698T418 740Q493 740 546 731T639 713L631 669Q582 678 533 683T424 688Q372 688 333 670T265 613T216 513T181 366Q175 331 171 291T167
220Q167 128 203 87T326 46Q401 46 447 49T534 60L527 16Q478 4 421 -1T311 -6Z" />
<glyph unicode="D" horiz-adv-x="670" d="M75 0L191 734H451Q536 734 584 705T653 619T674 479Q674 448 671 416T662 353Q650 276 626 212T563 100T469 26T339 0H75ZM141 52H343Q404 52 449 76T525 144T575 244T605 366Q610 399 613 428T616 480Q616 546 601 591T546
659T438 682H241L141 52Z" />
<glyph unicode="E" horiz-adv-x="573" d="M223 -6Q197 -6 172 -1T128 20T99 63T96 137L169 597Q178 650 202 680T259 722T330 734Q404 733 478 731T628 726L620 681H333Q290 681 262 659T225 583L195 392L531 385L524 342L186 338L156 144Q150 104 160 83T191
55T242 48H522L514 2Q443 0 370 -2T223 -6Z" />
<glyph unicode="F" horiz-adv-x="550" d="M75 0L169 591Q178 651 202 682T260 724T328 734Q406 733 480 731T628 726L620 681H331Q285 681 260 659T225 583L194 386L531 379L523 336L186 332L133 0H75Z" />
<glyph unicode="G" horiz-adv-x="642" d="M298 -6Q195 -6 152 48T108 220Q108 257 112 298T124 384Q141 493 176 573T273 697T428 742Q507 742 562 733T660 711L654 667Q612 676 555 683T430 690Q352 690 303 652T226 543T181 368Q167 278 167 217Q167 129 201
88T315 47Q341 47 371 52T432 64T488 78T527 92L565 333H374L380 377Q407 381 448 382T550 384Q562 384 576 384T603 383T629 381L569 0H527L525 52Q512 46 487 36T429 17T362 1T298 -6Z" />
<glyph unicode="H" horiz-adv-x="658" d="M75 0L191 734H249L194 383H588L644 734H702L585 0H527L580 331H185L133 0H75Z" />
<glyph unicode="I" horiz-adv-x="208" d="M75 0L191 734H249L133 0H75Z" />
<glyph unicode="J" horiz-adv-x="339" d="M135 -6Q103 -6 76 1T32 18L39 62Q61 54 85 51T129 48Q181 48 213 79T258 178L346 734H404L314 170Q300 78 256 36T135 -6Z" />
<glyph unicode="K" horiz-adv-x="583" d="M75 0L191 734H249L196 394H335L597 734H659L379 367L555 0H495L331 342H187L133 0H75Z" />
<glyph unicode="L" horiz-adv-x="521" d="M217 0Q161 0 128 22T94 103Q94 113 95 122T97 141L191 734H249L156 146Q155 138 155 131T154 115Q154 76 177 64T233 52H505L497 0H217Z" />
<glyph unicode="M" horiz-adv-x="797" d="M63 0L263 734H317L424 84L739 734H793L762 0H705L734 626L439 0H385L288 624L121 0H63Z" />
<glyph unicode="N" horiz-adv-x="661" d="M75 0L191 734H240L545 99L646 734H704L588 0H540L234 636L133 0H75Z" />
<glyph unicode="O" horiz-adv-x="683" d="M339 -6Q284 -6 241 3T168 34T122 99T106 207Q106 242 110 283T122 374Q140 485 167 557T235 668T331 724T460 740Q513 740 555 731T628 697T675 629T691 518Q691 484 687 442T676 350Q658 238 630 168T561 60T465 8T339
-6ZM350 47Q408 47 451 59T526 105T580 201T618 361Q625 409 629 448T633 518Q633 590 611 626T549 675T450 688Q393 688 349 675T274 628T219 529T180 363Q173 317 169 278T164 209Q164 141 184 106T245 59T350 47Z" />
<glyph unicode="P" horiz-adv-x="597" d="M75 0L191 734H465Q511 734 547 720T605 671T627 575Q627 562 625 542T620 506Q610 438 587 395T532 327T465 293T394 283Q344 283 286 286T179 292L133 0H75ZM186 336H390Q430 336 464 351T525 404T562 511Q564 525 566
542T568 570Q568 631 538 656T455 682H241L186 336Z" />
<glyph unicode="Q" horiz-adv-x="683" d="M486 -163Q446 -163 414 -150T363 -109T342 -35H381Q390 -81 416 -100T486 -119Q504 -119 522 -116T555 -108L549 -154Q519 -163 486 -163ZM339 -6Q284 -6 241 3T168 34T122 99T106 207Q106 242 110 283T122 374Q140 485
167 557T235 668T331 724T460 740Q513 740 555 731T628 697T675 629T691 518Q691 484 687 442T676 350Q658 238 630 168T561 60T465 8T339 -6ZM350 47Q408 47 451 59T526 105T580 201T618 361Q625 409 629 448T633 518Q633 590 611 626T549 675T450 688Q393 688
349 675T274 628T219 529T180 363Q173 317 169 278T164 209Q164 141 184 106T245 59T350 47Z" />
<glyph unicode="R" horiz-adv-x="612" d="M75 0L191 734H455Q485 734 515 727T570 702T610 652T625 570Q625 556 624 542T620 511Q610 451 591 415T546 358T495 330T448 318L552 0H493L394 311Q376 311 349 312T291 313T232 314T183 316L133 0H75ZM190 360H400Q437
360 469 371T526 416T561 516Q563 529 563 541T564 563Q564 613 546 638T501 672T444 682H241L190 360Z" />
<glyph unicode="S" horiz-adv-x="567" d="M299 -6Q262 -6 220 -4T140 1T74 9L81 53Q122 50 183 48T302 46Q352 46 391 55T456 92T489 170L497 225Q499 233 499 241T500 257Q500 301 474 321T389 341H291Q220 341 183 370T146 461Q146 479 149 500L158 565Q170
636 200 674T278 726T385 740Q404 740 432 739T491 735T550 729T599 722L593 678Q561 680 521 682T444 685T382 686Q334 686 299 676T243 639T214 560L205 505Q204 496 204 488T203 473Q203 430 227 414T302 397H402Q481 397 519 365T557 270Q557 252 554 229L543
162Q534 96 501 60T416 9T299 -6Z" />
<glyph unicode="T" horiz-adv-x="604" d="M268 0L376 682H136L144 734H682L674 682H434L326 0H268Z" />
<glyph unicode="U" horiz-adv-x="673" d="M336 -6Q229 -6 172 39T115 194Q115 220 118 255T127 326L191 734H249L184 320Q179 286 176 254T172 197Q172 112 215 79T340 46Q390 46 430 56T501 94T554 176T591 320L656 734H714L648 314Q631 210 603 147T536 50T447
6T336 -6Z" />
<glyph unicode="V" horiz-adv-x="670" d="M292 0L155 734H215L340 63L688 734H748L368 0H292Z" />
<glyph unicode="W" horiz-adv-x="994" d="M259 0L155 734H216L308 78L578 734H640L692 79L1003 734H1064L718 0H652L596 652L325 0H259Z" />
<glyph unicode="X" horiz-adv-x="605" d="M500 0L338 344L153 734H218L381 385L565 0H500ZM40 0L335 383L359 328L108 0H40ZM382 346L358 399L619 734H686L382 346Z" />
<glyph unicode="Y" horiz-adv-x="604" d="M264 0L303 248L142 734H206L341 315L627 734H694L361 248L322 0H264Z" />
<glyph unicode="Z" horiz-adv-x="557" d="M42 0L50 50L546 682H150L158 734H621L613 684L117 52H523L515 0H42Z" />
<glyph unicode="[" horiz-adv-x="330" d="M217 -210Q166 -210 140 -190T103 -140T93 -79Q93 -65 94 -52T97 -28L207 664Q211 692 222 723T252 781T304 825T383 842H441L433 794H387Q343 794 310 763T264 658L155 -26Q154 -36 153 -46T152 -66Q152 -109 171 -135T236
-162H282L275 -210H217Z" />
<glyph unicode="\" horiz-adv-x="384" d="M294 -72L146 770H201L349 -72H294Z" />
<glyph unicode="]" horiz-adv-x="330" d="M-9 -210L-2 -162H44Q81 -162 106 -144T146 -95T168 -26L276 658Q278 670 279 680T280 700Q280 750 257 772T196 794H150L157 842H215Q264 842 291 824T328 776T339 714Q339 701 338 689T335 664L225 -28Q221 -53 211
-84T182 -144T130 -191T49 -210H-9Z" />
<glyph unicode="^" horiz-adv-x="401" d="M144 531L291 663H333L426 531H389L306 633L181 531H144Z" />
<glyph unicode="_" horiz-adv-x="609" d="M-24 -155L-17 -105H592L585 -155H-24Z" />
<glyph unicode="`" horiz-adv-x="210" d="M252 631L145 766H197L286 631H252Z" />
<glyph unicode="a" horiz-adv-x="562" d="M248 -6Q203 -6 166 12T108 70T87 173Q87 198 90 225T97 274Q111 365 142 423T229 510T369 539Q402 539 439 533T509 515T566 481L490 0H442L441 58Q427 48 395 33T324 6T248 -6ZM267 43Q319 43 362 59T447 96L504 457Q487
467 451 478T365 490Q296 490 254 466T189 393T153 264Q149 237 147 218T145 181Q145 111 178 77T267 43Z" />
<glyph unicode="b" horiz-adv-x="567" d="M321 -6Q288 -6 254 3T191 26T140 55L120 0H73L194 763H252L207 481Q255 509 309 524T402 539Q472 539 517 495T562 362Q562 339 560 310T552 248Q540 172 510 115T432 26T321 -6ZM309 43Q390 43 434 99T496 263Q500 289
502 312T504 354Q504 428 471 459T386 490Q341 490 294 476T200 440L146 93Q178 74 217 59T309 43Z" />
<glyph unicode="c" horiz-adv-x="482" d="M274 -6Q219 -6 177 10T112 67T88 185Q88 203 91 227T98 278Q113 373 146 430T230 513T345 539Q382 539 430 535T517 527L510 492H353Q303 492 264 472T196 403T154 264Q150 241 148 222T146 189Q146 129 162 97T211 53T290
41H451L446 6Q414 1 372 -2T274 -6Z" />
<glyph unicode="d" horiz-adv-x="564" d="M245 -6Q177 -6 133 38T88 169Q88 224 98 277Q113 357 139 415T219 506T365 539Q407 539 443 532T513 507L554 763H612L491 0H443V58Q420 43 389 29T321 4T245 -6ZM263 43Q314 43 360 58T448 96L505 457Q475 474 442 482T365
490Q295 490 254 466T191 393T155 265Q151 241 149 220T146 180Q146 130 162 100T204 57T263 43Z" />
<glyph unicode="e" horiz-adv-x="548" d="M308 -6Q231 -6 183 14T112 76T90 177Q90 208 93 237T100 293Q112 372 143 427T230 512T369 542Q412 542 446 535T504 511T542 467T556 400Q556 348 535 314T477 261T395 235T301 227Q251 227 211 232T151 243Q149 226
148 209T147 174Q147 104 188 72T325 40H484L478 4Q449 1 403 -2T308 -6ZM277 265Q343 265 393 276T471 315T500 394Q500 449 467 472T365 495Q295 495 253 469T188 395T155 276Q179 272 211 269T277 265Z" />
<glyph unicode="f" horiz-adv-x="368" d="M112 0L188 483H104L111 520L196 533L210 616Q214 641 221 667T244 717T289 755T365 769Q394 769 425 767T482 763L475 721H370Q332 721 312 707T282 667T266 605L254 533H426L418 483H246L170 0H112Z" />
<glyph unicode="g" horiz-adv-x="564" d="M205 -236L56 -230L62 -190H222Q270 -190 313 -177T385 -135T423 -58L442 58Q409 36 373 22T302 1T236 -6Q195 -6 162 14T108 74T88 168Q88 194 91 223T99 283Q109 347 129 395T182 475T262 523T374 539Q442 539 493 533T573
520L480 -65Q471 -119 444 -153T377 -207T293 -232T205 -236ZM259 43Q307 43 351 56T448 96L509 483Q475 485 441 487T371 490Q305 493 262 471T194 400T156 275Q152 245 149 222T146 176Q146 108 179 76T259 43Z" />
<glyph unicode="h" horiz-adv-x="571" d="M73 0L194 763H252L205 473Q250 502 306 521T424 541Q491 541 525 508T560 411Q560 390 557 364L499 0H441L496 354Q498 365 499 375T500 394Q500 446 473 467T396 489Q339 489 295 474T199 429L131 0H73Z" />
<glyph unicode="i" horiz-adv-x="203" d="M183 633Q177 633 174 637T171 648L182 719Q185 734 199 734H238Q245 734 247 730T249 719L238 648Q236 633 222 633H183ZM73 0L157 533H215L131 0H73Z" />
<glyph unicode="j" horiz-adv-x="203" d="M183 633Q177 633 174 637T171 648L182 719Q185 734 199 734H238Q245 734 247 730T249 719L238 648Q236 633 222 633H183ZM35 -237L157 533H215L130 -4Q121 -62 108 -121T76 -237H35Z" />
<glyph unicode="k" horiz-adv-x="515" d="M73 0L194 763H252L180 311Q244 313 297 334T391 404T456 533H514Q494 462 464 415T398 339T326 295L487 0H425L275 278Q250 272 222 268T173 264L131 0H73Z" />
<glyph unicode="l" horiz-adv-x="284" d="M207 0Q152 0 123 27T93 103Q93 124 95 144T101 181L194 763H252L161 195Q160 186 158 172T155 144T153 115Q153 79 169 65T215 47L272 41L265 0H207Z" />
<glyph unicode="m" horiz-adv-x="939" d="M73 0L157 533H202L205 473Q251 501 306 521T422 541Q482 541 511 519T556 460Q605 497 666 519T787 541Q854 541 891 510T928 411Q928 400 927 386T923 360L866 0H808L865 359Q867 367 868 376T869 393Q869 489 763 489Q703
489 655 470T557 420Q559 407 559 390T554 350L499 0H441L496 351Q498 364 499 373T501 394Q501 436 478 462T396 489Q337 489 294 473T199 429L131 0H73Z" />
<glyph unicode="n" horiz-adv-x="571" d="M73 0L157 533H202L205 473Q251 502 306 521T422 541Q472 541 502 524T546 479T560 414Q560 402 559 386T551 326L499 0H441L492 324Q497 358 499 371T501 394Q501 434 478 461T396 489Q338 489 294 474T199 429L131 0H73Z" />
<glyph unicode="o" horiz-adv-x="564" d="M281 -6Q224 -6 181 11T113 68T89 173Q89 197 91 220T97 270Q110 350 131 402T184 484T261 526T367 539Q438 539 480 518T540 456T559 354Q559 330 556 304T549 248Q534 151 503 95T418 17T281 -6ZM289 43Q332 43 365
51T423 82T464 148T491 259Q496 288 498 311T500 355Q500 429 468 460T358 491Q312 491 279 481T222 446T182 376T154 259Q150 235 148 214T146 175Q146 120 164 92T215 53T289 43Z" />
<glyph unicode="p" horiz-adv-x="563" d="M35 -237L156 525Q200 532 257 535T390 539Q473 539 516 495T560 358Q560 333 557 306T550 256Q537 176 508 117T428 26T301 -6Q254 -6 214 1T135 28L93 -237H35ZM297 44Q359 44 398 70T459 146T493 269Q496 287 499 308T502
351Q502 420 473 455T378 490L207 488L141 72Q173 62 196 56T242 47T297 44Z" />
<glyph unicode="q" horiz-adv-x="563" d="M394 -237L441 58Q390 24 334 9T235 -6Q167 -6 128 42T88 169Q88 195 91 222T98 278Q109 344 129 393T182 474T263 522T381 539Q431 539 485 534T573 520L452 -237H394ZM259 43Q308 43 353 57T448 96L509 483Q477 485
446 487T385 490Q310 493 264 470T193 397T155 271Q151 244 149 221T146 176Q146 111 177 77T259 43Z" />
<glyph unicode="r" horiz-adv-x="388" d="M73 0L157 533H205V469Q238 496 280 517T374 539Q394 539 412 538T443 531L434 473Q418 476 401 478T362 480Q314 480 273 463T198 424L131 0H73Z" />
<glyph unicode="s" horiz-adv-x="505" d="M275 -6Q254 -6 224 -5T162 -3T104 0T63 5L69 40H287Q341 40 374 58T415 122L422 163Q423 168 423 171T423 179Q423 240 346 240H242Q198 240 168 249T124 277T109 326Q109 335 110 345T113 367L120 411Q127 450 146 478T203
523T302 539Q328 539 365 537T440 533T501 527L494 492H291Q234 492 208 471T174 408L167 371Q165 358 164 350T163 336Q163 310 183 300T252 290H357Q411 290 445 265T479 190Q479 183 479 176T477 162L469 113Q458 48 407 21T275 -6Z" />
<glyph unicode="t" horiz-adv-x="378" d="M264 0Q201 0 170 29T138 111Q138 133 140 153T147 195L196 484H110L116 522L203 533L238 682H282L258 533H419L412 484H250L204 195Q202 179 199 160T196 122Q196 87 214 69T270 48L334 42L327 0H264Z" />
<glyph unicode="u" horiz-adv-x="571" d="M234 -6Q164 -6 130 27T95 117Q95 134 96 147T99 172L157 533H215L158 173Q157 165 156 156T155 137Q155 94 179 70T259 46Q316 46 360 61T456 103L525 533H583L498 0H451L450 60Q419 41 387 26T317 3T234 -6Z" />
<glyph unicode="v" horiz-adv-x="535" d="M222 0L98 533H157L263 59L464 417Q480 447 489 476T504 541H553Q553 505 541 468T507 391L286 0H222Z" />
<glyph unicode="w" horiz-adv-x="812" d="M203 0L98 533H157L246 61L446 533H491L575 60L749 433Q754 445 760 463T772 503T780 541H832Q832 520 827 497T814 450T796 407L598 0H535L457 444L265 0H203Z" />
<glyph unicode="x" horiz-adv-x="520" d="M425 0L283 245L117 533H176L325 277L485 0H425ZM35 0L281 283L298 229L97 0H35ZM323 248L303 297L503 533H567L323 248Z" />
<glyph unicode="y" horiz-adv-x="552" d="M97 -237V-192Q142 -181 193 -138T289 0Q262 3 239 12T199 46T173 119L100 533H160L226 132Q232 99 244 82T274 59T310 51L491 442Q500 463 509 489T521 541H570Q570 510 564 478T539 408L345 3Q305 -81 266 -131T186
-205T97 -237Z" />
<glyph unicode="z" horiz-adv-x="498" d="M58 1L65 45L446 484H121L128 533H519L513 487L132 49H459Q459 49 459 44T457 32T454 18T452 6T451 1H58Z" />
<glyph unicode="{" horiz-adv-x="308" d="M272 -210Q211 -210 178 -194T131 -151T117 -91Q117 -76 122 -41T135 39T150 126T163 202T169 244Q169 276 152 290T93 305L102 362Q119 364 139 370T177 390T197 431L233 656Q242 717 264 758T328 821T439 842L431 794Q391
794 364 784T318 742T289 648L254 424Q248 384 220 362T155 334Q192 329 210 307T229 257Q229 249 225 225T216 167T204 94T191 21T182 -40T178 -75Q178 -125 203 -144T279 -164L272 -210Z" />
<glyph unicode="|" horiz-adv-x="253" d="M91 -72L224 770H274L141 -72H91Z" />
<glyph unicode="}" horiz-adv-x="308" d="M-7 -210L0 -164Q41 -164 69 -151T115 -109T140 -31L181 227Q187 261 212 285T279 314Q248 318 228 336T207 388Q207 401 211 432T222 504T236 586T247 657T251 699Q251 752 226 773T152 794L160 842Q217 842 250 825T297
778T311 710Q311 705 308 682T299 626T289 557T278 487T270 430T267 399Q267 377 279 366T308 349T340 342L332 285Q299 285 272 270T237 216L197 -38Q192 -72 181 -103T148 -158T89 -196T-7 -210Z" />
<glyph unicode="~" horiz-adv-x="459" d="M378 539Q362 539 348 549T319 572T291 594T264 604Q236 604 211 591T157 557L152 577Q180 601 209 619T271 638Q286 638 300 629T329 606T357 583T383 573Q403 573 422 581T459 602T489 623L496 603Q469 578 441 559T378 539Z" />
<glyph unicode="&#xa0;" horiz-adv-x="237" />
<glyph unicode="&#xa1;" horiz-adv-x="263" d="M208 335L130 -200H72L166 335H208ZM235 534Q247 534 247 522Q247 521 247 521T247 520L235 447Q234 432 218 432H187Q175 432 175 443Q175 444 175 445T175 447L186 520Q188 527 192 530T203 534H235Z" />
<glyph unicode="&#xa2;" horiz-adv-x="487" d="M231 -85L243 -5Q198 -4 161 10T103 63T81 171Q81 245 99 311T150 427T230 507T330 536L343 621H379L366 535Q400 533 440 526T513 508L508 474Q475 480 434 485T342 490Q295 490 258 464T194 394T153 292T139 172Q139
119 154 91T198 52T266 41Q305 41 336 44T394 51T449 61L444 26Q395 11 359 5T279 -4L267 -85H231Z" />
<glyph unicode="&#xa3;" horiz-adv-x="609" d="M65 0L72 43L187 52L233 339L120 344L125 376L240 384L262 524Q276 610 308 655T389 718T498 735Q538 735 576 733T640 727L633 683H493Q445 683 411 672T354 627T321 529L298 384L521 378L516 344L291 339L245 52H547L539
0H65Z" />
<glyph unicode="&#xa4;" horiz-adv-x="609" d="M339 195Q299 195 268 214T218 264T199 335Q199 387 223 428T289 493T383 517Q424 517 455 498T505 448T524 377Q524 326 500 285T433 219T339 195ZM132 133L107 162L232 270L258 241L132 133ZM520 133L430 239L464
268L553 162L520 133ZM341 233Q382 233 414 249T466 298T486 375Q486 419 457 449T381 479Q341 479 309 462T258 412T238 337Q238 294 267 264T341 233ZM256 446L169 550L202 579L290 475L256 446ZM492 444L468 473L590 579L615 550L492 444Z" />
<glyph unicode="&#xa5;" horiz-adv-x="609" d="M95 260L101 298H551L545 260H95ZM76 138L82 176H532L526 138H76ZM250 0L290 248L129 734H193L327 315L614 734H681L348 248L308 0H250Z" />
<glyph unicode="&#xa6;" horiz-adv-x="253" d="M170 429L224 770H274L220 429H170ZM91 -72L143 256H193L141 -72H91Z" />
<glyph unicode="&#xa7;" horiz-adv-x="554" d="M315 -6Q297 -6 268 -6T206 -4T146 -2T103 2L109 42H315Q367 42 394 52T434 80T449 121Q456 161 459 180T462 207Q462 229 445 236T377 244H242Q175 244 143 263T111 322Q111 328 111 336T114 358L122 403Q129 451
149 470T203 497Q178 506 169 523T160 564Q160 571 160 578T162 597L172 656Q179 703 200 731T259 771T349 784Q368 784 399 784T466 782T530 780T574 775L568 736H348Q315 736 290 730T249 705T227 649Q221 614 219 598T216 575Q216 546 237 538T298 529H448Q514
529 540 513T567 455Q567 440 564 423L555 367Q548 324 531 304T477 277Q502 269 511 254T520 219Q520 211 519 201T515 171L506 120Q499 73 475 45T410 6T315 -6ZM259 290H385Q430 290 452 294T484 312T497 358L506 413Q508 420 508 426T509 437Q509 465 492 474T431
483H290Q233 483 210 469T179 411L170 357Q169 353 169 349T169 341Q169 317 188 304T259 290Z" />
<glyph unicode="&#xa8;" horiz-adv-x="417" d="M388 658Q376 658 376 670Q376 671 377 674T380 692T388 744Q390 759 405 759H432Q444 759 444 748Q444 748 444 744T441 725T432 672Q430 658 415 658H388ZM183 658Q171 658 171 670Q171 671 171 674T174 692T182
744Q185 759 200 759H226Q238 759 238 748Q238 748 238 744T235 725T226 672Q225 658 209 658H183Z" />
<glyph unicode="&#xa9;" horiz-adv-x="850" d="M320 0Q264 0 225 23T161 86T126 175T114 275Q114 343 130 409T175 534T243 636T330 706T430 732H668Q736 732 777 700T836 614T855 497Q855 400 831 311T766 152T671 41T558 0H320ZM412 147Q380 147 353 158T309
200T293 287Q293 349 308 403T349 497T410 560T481 583Q502 583 532 581T595 575T655 565L651 539Q621 544 589 546T529 550T485 551Q451 551 423 530T373 471T341 389T329 294Q329 237 351 208T425 179Q476 179 521 183T602 195L599 169Q550 155 506 151T412 147ZM318
32H561Q613 32 659 69T742 171T800 318T822 491Q822 552 807 599T758 673T669 700H425Q375 700 326 667T236 575T172 441T148 278Q148 230 156 186T185 107T238 52T318 32Z" />
<glyph unicode="&#xaa;" horiz-adv-x="407" d="M92 266L97 300H421L416 266H92ZM228 356Q178 356 143 387T107 488Q107 506 110 526T116 563Q131 662 177 709T319 756Q357 756 400 746T469 713L414 360H372L371 402Q360 394 337 384T284 365T228 356ZM246 398Q283
398 314 409T375 435L416 692Q404 698 378 706T316 714Q266 714 236 698T190 646T164 555Q157 518 157 495Q157 446 181 422T246 398Z" />
<glyph unicode="&#xab;" horiz-adv-x="608" d="M274 67L94 279L336 486L364 454L156 278L310 99L274 67ZM524 67L344 279L586 486L614 454L406 278L560 99L524 67Z" />
<glyph unicode="&#xac;" horiz-adv-x="609" d="M512 211L555 484H605L562 211H512ZM152 451L160 501H608L600 451H152Z" />
<glyph unicode="&#xad;" horiz-adv-x="335" d="M65 265L73 315H363L355 265H65Z" />
<glyph unicode="&#xae;" horiz-adv-x="850" d="M320 0Q264 0 225 23T161 86T126 175T114 275Q114 343 130 409T175 534T243 636T330 706T430 732H668Q736 732 777 700T836 614T855 497Q855 400 831 311T766 152T671 41T558 0H320ZM299 153L367 580H546Q575 580
600 573T640 546T655 487Q655 450 640 418T597 364T533 339L608 153H575L501 339L363 343L333 153H299ZM318 32H561Q613 32 659 69T742 171T800 318T822 491Q822 552 807 599T758 673T669 700H425Q375 700 326 667T236 575T172 441T148 278Q148 230 156 186T185
107T238 52T318 32ZM368 367H516Q546 367 569 383T607 425T621 480Q621 518 601 533T545 548H396L368 367Z" />
<glyph unicode="&#xaf;" horiz-adv-x="379" d="M167 679L173 714H433L427 679H167Z" />
<glyph unicode="&#xb0;" horiz-adv-x="333" d="M247 502Q198 502 168 531T137 609Q137 653 155 686T208 739T288 759Q337 759 366 730T395 652Q395 608 377 574T326 521T247 502ZM251 531Q302 531 334 564T366 649Q366 685 344 707T283 730Q232 730 199 696T166
612Q166 576 189 554T251 531Z" />
<glyph unicode="&#xb1;" horiz-adv-x="609" d="M101 131L109 181H557L549 131H101ZM325 282L395 730H445L375 282H325ZM157 481L165 531H613L605 481H157Z" />
<glyph unicode="&#xb2;" horiz-adv-x="420" d="M105 355L111 394L322 568Q381 616 403 657T426 737Q426 766 405 783T326 801H194L200 837Q230 841 268 843T345 846Q417 846 446 820T476 751Q476 702 451 651T356 543L181 399H441L434 355H105Z" />
<glyph unicode="&#xb3;" horiz-adv-x="420" d="M277 351Q223 351 177 353T98 359L105 396H269Q298 396 322 402T362 424T383 472L389 505Q390 510 390 513T391 519Q391 541 379 554T349 572T312 578L184 583L190 618L317 623Q355 625 380 639T411 688L417 725Q418
729 418 732T418 740Q418 769 396 785T328 801H186L192 838Q223 841 263 843T353 846Q411 846 439 821T468 755Q468 750 468 744T466 732L459 690Q455 659 439 640T405 612T373 601Q385 598 401 589T428 564T440 521Q440 516 440 511T437 500L431 465Q423 409 383
380T277 351Z" />
<glyph unicode="&#xb4;" horiz-adv-x="210" d="M124 631L254 766H307L160 631H124Z" />
<glyph unicode="&#xb5;" horiz-adv-x="586" d="M256 -6Q221 -6 193 4T146 32T116 77T106 136Q106 148 107 159T110 181L165 533H223L166 171Q165 162 164 153T163 136Q163 84 194 65T274 46Q328 46 371 59T465 100L533 533H591L507 0H464L461 60Q418 32 366 13T256
-6ZM39 -268L117 226H175L97 -268H39Z" />
<glyph unicode="&#xb6;" horiz-adv-x="572" d="M239 -270L333 324Q324 319 302 316T250 312Q179 312 145 348T111 436Q111 443 111 450T114 468L134 594Q142 642 170 673T238 719T320 734H669L662 688H581L472 0H428L537 690H435L283 -270H239ZM262 356H338L391
690H315Q255 690 219 661T176 586L159 473Q158 465 157 459T156 446Q156 406 172 387T213 362T262 356Z" />
<glyph unicode="&#xb7;" horiz-adv-x="276" d="M143 352Q137 352 134 356T131 366L136 399Q139 414 153 414H185Q199 414 197 399L191 366Q190 359 186 356T175 352H143Z" />
<glyph unicode="&#xb8;" horiz-adv-x="261" d="M30 -187L34 -163L58 -161Q82 -159 97 -149T119 -126T126 -104Q126 -89 113 -79T60 -67L89 -56Q128 -56 145 -69T163 -107Q163 -123 152 -141T117 -173T58 -187H30ZM60 -67L126 12H154L89 -67H60Z" />
<glyph unicode="&#xb9;" horiz-adv-x="420" d="M249 355L319 802L197 770L202 802L331 847H375L297 355H249ZM124 355L131 398H428L422 355H124Z" />
<glyph unicode="&#xba;" horiz-adv-x="433" d="M92 266L97 300H421L416 266H92ZM255 356Q211 356 178 368T128 410T109 488Q109 506 111 523T115 559Q128 638 152 680T216 739T319 756Q373 756 404 741T450 696T464 619Q464 602 462 583T457 542Q446 470 422 430T358
373T255 356ZM262 398Q304 398 332 409T379 454T408 550Q411 571 412 588T413 620Q413 671 390 693T310 715Q266 715 238 702T192 654T164 553Q162 533 161 519T159 490Q159 452 172 432T208 405T262 398Z" />
<glyph unicode="&#xbb;" horiz-adv-x="608" d="M90 67L64 100L271 276L118 457L154 486L334 275L90 67ZM340 67L314 100L521 276L368 457L404 486L584 275L340 67Z" />
<glyph unicode="&#xbc;" horiz-adv-x="1147" d="M336 0L840 770H882L378 0H336ZM990 -14L1011 111H774L767 139L1010 472H1062L827 153H1016L1038 287L1055 331H1093L1065 153H1135L1130 120L1059 111L1038 -14H990ZM257 355L327 802L205 770L210 802L339 847H383L305
355H257ZM132 355L139 398H436L430 355H132Z" />
<glyph unicode="&#xbd;" horiz-adv-x="1147" d="M336 0L840 770H882L378 0H336ZM754 -15L760 24L971 198Q1030 246 1052 287T1075 367Q1075 396 1054 413T975 431H843L849 467Q879 471 917 473T994 476Q1066 476 1095 450T1125 381Q1125 332 1100 281T1005 173L830
29H1090L1083 -15H754ZM257 355L327 802L205 770L210 802L339 847H383L305 355H257ZM132 355L139 398H436L430 355H132Z" />
<glyph unicode="&#xbe;" horiz-adv-x="1147" d="M336 0L840 770H882L378 0H336ZM990 -12L1011 113H774L767 141L1010 474H1062L827 155H1016L1038 289L1055 333H1093L1065 155H1135L1130 122L1059 113L1038 -12H990ZM287 351Q233 351 187 353T108 359L115 396H279Q308
396 332 402T372 424T393 472L399 505Q400 510 400 513T401 519Q401 541 389 554T359 572T322 578L194 583L200 618L327 623Q365 625 390 639T421 688L427 725Q428 729 428 732T428 740Q428 769 406 785T338 801H196L202 838Q233 841 273 843T363 846Q421 846 449
821T478 755Q478 750 478 744T476 732L469 690Q465 659 449 640T415 612T383 601Q395 598 411 589T438 564T450 521Q450 516 450 511T447 500L441 465Q433 409 393 380T287 351Z" />
<glyph unicode="&#xbf;" d="M393 336L370 191H326Q266 191 227 180T167 141T138 66L127 -2Q125 -16 124 -28T123 -51Q123 -106 153 -129T247 -153Q300 -153 348 -144T453 -114L447 -154Q388 -182 332 -194T222 -206Q136 -206 100 -169T63 -67Q63 -39 68 -9L81
66Q95 154 153 196T332 239L347 336H393ZM414 534Q426 534 426 522Q426 521 426 521T426 520L414 447Q413 432 398 432H366Q354 432 354 443Q354 444 354 445T354 447L366 520Q367 527 372 530T383 534H414Z" />
<glyph unicode="&#xc0;" horiz-adv-x="670" d="M39 0L419 734H494L631 0H571L528 227H217L99 0H39ZM241 279H521L448 680L241 279ZM462 791L355 926H407L496 791H462Z" />
<glyph unicode="&#xc1;" horiz-adv-x="670" d="M39 0L419 734H494L631 0H571L528 227H217L99 0H39ZM241 279H521L448 680L241 279ZM430 791L560 926H613L466 791H430Z" />
<glyph unicode="&#xc2;" horiz-adv-x="670" d="M39 0L419 734H494L631 0H571L528 227H217L99 0H39ZM241 279H521L448 680L241 279ZM308 791L455 924H497L590 791H553L470 895L345 791H308Z" />
<glyph unicode="&#xc3;" horiz-adv-x="670" d="M39 0L419 734H494L631 0H571L528 227H217L99 0H39ZM241 279H521L448 680L241 279ZM308 814Q318 869 350 890T416 912Q439 912 458 903T495 881T530 858T568 848Q595 848 615 865T641 914H671Q663 867 636 841T564
814Q543 814 524 824T488 846T451 868T412 878Q386 878 365 863T338 814H308Z" />
<glyph unicode="&#xc4;" horiz-adv-x="670" d="M39 0L419 734H494L631 0H571L528 227H217L99 0H39ZM241 279H521L448 680L241 279ZM535 818Q523 818 523 830Q523 831 524 834T527 852T535 904Q537 919 552 919H579Q591 919 591 908Q591 908 591 904T588 885T579
832Q577 818 562 818H535ZM330 818Q318 818 318 830Q318 831 318 834T321 852T329 904Q332 919 347 919H373Q385 919 385 908Q385 908 385 904T382 885T373 832Q372 818 356 818H330Z" />
<glyph unicode="&#xc5;" horiz-adv-x="670" d="M39 0L419 734H494L631 0H571L528 227H217L99 0H39ZM241 279H521L448 680L241 279ZM460 776Q420 776 392 795T364 863Q364 896 378 924T421 969T490 987Q529 987 556 968T583 901Q583 850 552 813T460 776ZM462 803Q509
803 530 831T552 899Q552 935 532 947T488 960Q440 960 417 932T394 864Q394 828 414 816T462 803Z" />
<glyph unicode="&#xc6;" horiz-adv-x="919" d="M629 -4Q601 -4 575 -1T528 16T499 53T494 117L511 225H263L87 0H25L474 582Q517 639 553 672T631 720T731 734Q795 733 864 731T1003 726L996 681H730Q692 681 671 674T641 654T628 620T620 573L591 391L908 386L900
343L583 338L552 144Q545 102 557 82T593 56T641 50H896L889 5Q862 4 834 3T779 1T724 -1T673 -2T629 -4ZM300 276H519L576 634L300 276Z" />
<glyph unicode="&#xc7;" horiz-adv-x="590" d="M311 -6Q205 -6 157 52T108 220Q108 258 113 301T124 381Q142 496 177 576T272 698T418 740Q493 740 546 731T639 713L631 669Q582 678 533 683T424 688Q372 688 333 670T265 613T216 513T181 366Q175 331 171 291T167
220Q167 128 203 87T326 46Q401 46 447 49T534 60L527 16Q478 4 421 -1T311 -6ZM215 -195L219 -171L243 -169Q267 -167 282 -157T304 -134T311 -112Q311 -97 298 -87T245 -75L274 -64Q313 -64 330 -77T348 -115Q348 -131 337 -149T302 -181T243 -195H215ZM245 -75L311
4H339L274 -75H245Z" />
<glyph unicode="&#xc8;" horiz-adv-x="573" d="M223 -6Q197 -6 172 -1T128 20T99 63T96 137L169 597Q178 650 202 680T259 722T330 734Q404 733 478 731T628 726L620 681H333Q290 681 262 659T225 583L195 392L531 385L524 342L186 338L156 144Q150 104 160 83T191
55T242 48H522L514 2Q443 0 370 -2T223 -6ZM428 791L321 926H373L462 791H428Z" />
<glyph unicode="&#xc9;" horiz-adv-x="573" d="M223 -6Q197 -6 172 -1T128 20T99 63T96 137L169 597Q178 650 202 680T259 722T330 734Q404 733 478 731T628 726L620 681H333Q290 681 262 659T225 583L195 392L531 385L524 342L186 338L156 144Q150 104 160 83T191
55T242 48H522L514 2Q443 0 370 -2T223 -6ZM396 791L526 926H579L432 791H396Z" />
<glyph unicode="&#xca;" horiz-adv-x="573" d="M223 -6Q197 -6 172 -1T128 20T99 63T96 137L169 597Q178 650 202 680T259 722T330 734Q404 733 478 731T628 726L620 681H333Q290 681 262 659T225 583L195 392L531 385L524 342L186 338L156 144Q150 104 160 83T191
55T242 48H522L514 2Q443 0 370 -2T223 -6ZM274 791L421 924H463L556 791H519L436 895L311 791H274Z" />
<glyph unicode="&#xcb;" horiz-adv-x="573" d="M223 -6Q197 -6 172 -1T128 20T99 63T96 137L169 597Q178 650 202 680T259 722T330 734Q404 733 478 731T628 726L620 681H333Q290 681 262 659T225 583L195 392L531 385L524 342L186 338L156 144Q150 104 160 83T191
55T242 48H522L514 2Q443 0 370 -2T223 -6ZM501 818Q489 818 489 830Q489 831 490 834T493 852T501 904Q503 919 518 919H545Q557 919 557 908Q557 908 557 904T554 885T545 832Q543 818 528 818H501ZM296 818Q284 818 284 830Q284 831 284 834T287 852T295 904Q298
919 313 919H339Q351 919 351 908Q351 908 351 904T348 885T339 832Q338 818 322 818H296Z" />
<glyph unicode="&#xcc;" horiz-adv-x="208" d="M75 0L191 734H249L133 0H75ZM231 791L124 926H176L265 791H231Z" />
<glyph unicode="&#xcd;" horiz-adv-x="208" d="M75 0L191 734H249L133 0H75ZM199 791L329 926H382L235 791H199Z" />
<glyph unicode="&#xce;" horiz-adv-x="208" d="M75 0L191 734H249L133 0H75ZM77 791L224 924H266L359 791H322L239 895L114 791H77Z" />
<glyph unicode="&#xcf;" horiz-adv-x="208" d="M75 0L191 734H249L133 0H75ZM303 818Q291 818 291 830Q291 831 292 834T295 852T303 904Q305 919 320 919H347Q359 919 359 908Q359 908 359 904T356 885T347 832Q345 818 330 818H303ZM98 818Q86 818 86 830Q86
831 86 834T89 852T97 904Q100 919 115 919H141Q153 919 153 908Q153 908 153 904T150 885T141 832Q140 818 124 818H98Z" />
<glyph unicode="&#xd0;" horiz-adv-x="670" d="M60 352L68 394H392L384 352H60ZM75 0L191 734H451Q536 734 584 705T653 619T674 479Q674 448 671 416T662 353Q650 276 626 212T563 100T469 26T339 0H75ZM141 52H343Q404 52 449 76T525 144T575 244T605 366Q610
399 613 428T616 480Q616 546 601 591T546 659T438 682H241L141 52Z" />
<glyph unicode="&#xd1;" horiz-adv-x="661" d="M75 0L191 734H240L545 99L646 734H704L588 0H540L234 636L133 0H75ZM297 814Q307 869 339 890T405 912Q428 912 447 903T484 881T519 858T557 848Q584 848 604 865T630 914H660Q652 867 625 841T553 814Q532 814
513 824T477 846T440 868T401 878Q375 878 354 863T327 814H297Z" />
<glyph unicode="&#xd2;" horiz-adv-x="683" d="M339 -6Q284 -6 241 3T168 34T122 99T106 207Q106 242 110 283T122 374Q140 485 167 557T235 668T331 724T460 740Q513 740 555 731T628 697T675 629T691 518Q691 484 687 442T676 350Q658 238 630 168T561 60T465
8T339 -6ZM350 47Q408 47 451 59T526 105T580 201T618 361Q625 409 629 448T633 518Q633 590 611 626T549 675T450 688Q393 688 349 675T274 628T219 529T180 363Q173 317 169 278T164 209Q164 141 184 106T245 59T350 47ZM472 791L365 926H417L506 791H472Z" />
<glyph unicode="&#xd3;" horiz-adv-x="683" d="M339 -6Q284 -6 241 3T168 34T122 99T106 207Q106 242 110 283T122 374Q140 485 167 557T235 668T331 724T460 740Q513 740 555 731T628 697T675 629T691 518Q691 484 687 442T676 350Q658 238 630 168T561 60T465
8T339 -6ZM350 47Q408 47 451 59T526 105T580 201T618 361Q625 409 629 448T633 518Q633 590 611 626T549 675T450 688Q393 688 349 675T274 628T219 529T180 363Q173 317 169 278T164 209Q164 141 184 106T245 59T350 47ZM440 791L570 926H623L476 791H440Z" />
<glyph unicode="&#xd4;" horiz-adv-x="683" d="M339 -6Q284 -6 241 3T168 34T122 99T106 207Q106 242 110 283T122 374Q140 485 167 557T235 668T331 724T460 740Q513 740 555 731T628 697T675 629T691 518Q691 484 687 442T676 350Q658 238 630 168T561 60T465
8T339 -6ZM350 47Q408 47 451 59T526 105T580 201T618 361Q625 409 629 448T633 518Q633 590 611 626T549 675T450 688Q393 688 349 675T274 628T219 529T180 363Q173 317 169 278T164 209Q164 141 184 106T245 59T350 47ZM318 791L465 924H507L600 791H563L480
895L355 791H318Z" />
<glyph unicode="&#xd5;" horiz-adv-x="683" d="M339 -6Q284 -6 241 3T168 34T122 99T106 207Q106 242 110 283T122 374Q140 485 167 557T235 668T331 724T460 740Q513 740 555 731T628 697T675 629T691 518Q691 484 687 442T676 350Q658 238 630 168T561 60T465
8T339 -6ZM350 47Q408 47 451 59T526 105T580 201T618 361Q625 409 629 448T633 518Q633 590 611 626T549 675T450 688Q393 688 349 675T274 628T219 529T180 363Q173 317 169 278T164 209Q164 141 184 106T245 59T350 47ZM318 814Q328 869 360 890T426 912Q449
912 468 903T505 881T540 858T578 848Q605 848 625 865T651 914H681Q673 867 646 841T574 814Q553 814 534 824T498 846T461 868T422 878Q396 878 375 863T348 814H318Z" />
<glyph unicode="&#xd6;" horiz-adv-x="683" d="M339 -6Q284 -6 241 3T168 34T122 99T106 207Q106 242 110 283T122 374Q140 485 167 557T235 668T331 724T460 740Q513 740 555 731T628 697T675 629T691 518Q691 484 687 442T676 350Q658 238 630 168T561 60T465
8T339 -6ZM350 47Q408 47 451 59T526 105T580 201T618 361Q625 409 629 448T633 518Q633 590 611 626T549 675T450 688Q393 688 349 675T274 628T219 529T180 363Q173 317 169 278T164 209Q164 141 184 106T245 59T350 47ZM544 818Q532 818 532 830Q532 831 533
834T536 852T544 904Q546 919 561 919H588Q600 919 600 908Q600 908 600 904T597 885T588 832Q586 818 571 818H544ZM339 818Q327 818 327 830Q327 831 327 834T330 852T338 904Q341 919 356 919H382Q394 919 394 908Q394 908 394 904T391 885T382 832Q381 818
365 818H339Z" />
<glyph unicode="&#xd7;" horiz-adv-x="609" d="M193 180L163 215L530 532L560 497L193 180ZM475 180L208 497L248 532L515 215L475 180Z" />
<glyph unicode="&#xd8;" horiz-adv-x="684" d="M59 0L700 734H741L100 0H59ZM339 -6Q284 -6 241 3T168 34T122 99T106 207Q106 242 110 283T122 374Q140 485 167 557T235 668T331 724T460 740Q513 740 555 731T628 697T675 629T691 518Q691 484 687 442T676 350Q658
238 630 168T561 60T465 8T339 -6ZM350 47Q408 47 451 59T526 105T580 201T618 361Q625 409 629 448T633 518Q633 590 611 626T549 675T450 688Q393 688 349 675T274 628T219 529T180 363Q173 317 169 278T164 209Q164 141 184 106T245 59T350 47Z" />
<glyph unicode="&#xd9;" horiz-adv-x="673" d="M336 -6Q229 -6 172 39T115 194Q115 220 118 255T127 326L191 734H249L184 320Q179 286 176 254T172 197Q172 112 215 79T340 46Q390 46 430 56T501 94T554 176T591 320L656 734H714L648 314Q631 210 603 147T536
50T447 6T336 -6ZM453 791L346 926H398L487 791H453Z" />
<glyph unicode="&#xda;" horiz-adv-x="673" d="M336 -6Q229 -6 172 39T115 194Q115 220 118 255T127 326L191 734H249L184 320Q179 286 176 254T172 197Q172 112 215 79T340 46Q390 46 430 56T501 94T554 176T591 320L656 734H714L648 314Q631 210 603 147T536
50T447 6T336 -6ZM421 791L551 926H604L457 791H421Z" />
<glyph unicode="&#xdb;" horiz-adv-x="673" d="M336 -6Q229 -6 172 39T115 194Q115 220 118 255T127 326L191 734H249L184 320Q179 286 176 254T172 197Q172 112 215 79T340 46Q390 46 430 56T501 94T554 176T591 320L656 734H714L648 314Q631 210 603 147T536
50T447 6T336 -6ZM299 791L446 924H488L581 791H544L461 895L336 791H299Z" />
<glyph unicode="&#xdc;" horiz-adv-x="673" d="M336 -6Q229 -6 172 39T115 194Q115 220 118 255T127 326L191 734H249L184 320Q179 286 176 254T172 197Q172 112 215 79T340 46Q390 46 430 56T501 94T554 176T591 320L656 734H714L648 314Q631 210 603 147T536
50T447 6T336 -6ZM525 818Q513 818 513 830Q513 831 514 834T517 852T525 904Q527 919 542 919H569Q581 919 581 908Q581 908 581 904T578 885T569 832Q567 818 552 818H525ZM320 818Q308 818 308 830Q308 831 308 834T311 852T319 904Q322 919 337 919H363Q375
919 375 908Q375 908 375 904T372 885T363 832Q362 818 346 818H320Z" />
<glyph unicode="&#xdd;" horiz-adv-x="604" d="M264 0L303 248L142 734H206L341 315L627 734H694L361 248L322 0H264ZM385 791L515 926H568L421 791H385Z" />
<glyph unicode="&#xde;" horiz-adv-x="544" d="M75 0L191 734H248L133 0H75ZM320 171Q277 171 234 174T146 181L154 224H316Q356 224 391 236T453 281T488 371Q490 385 492 402T494 430Q494 490 462 514T371 539H200L206 591H381Q430 591 468 577T530 528T553
435Q553 422 551 402T546 366Q537 307 514 269T459 209T391 180T320 171Z" />
<glyph unicode="&#xdf;" horiz-adv-x="577" d="M388 -6Q338 -6 293 -2T223 8L229 45Q258 44 299 42T385 40Q431 40 456 55T492 91T506 129Q509 144 510 154T511 173Q511 198 494 213T453 238T403 261T361 294T344 346Q344 377 361 403T404 455T455 504T497 556T514
615Q514 663 482 690T395 717Q319 717 275 678T216 545L130 0H72L161 563Q172 631 201 676T280 745T400 769Q460 769 497 749T551 696T569 622Q569 585 552 555T511 499T461 451T419 406T402 358Q402 333 419 319T460 293T510 270T551 237T568 182Q568 176 568
166T562 126Q555 91 540 66T501 25T448 2T388 -6Z" />
<glyph unicode="&#xe0;" horiz-adv-x="562" d="M248 -6Q203 -6 166 12T108 70T87 173Q87 198 90 225T97 274Q111 365 142 423T229 510T369 539Q402 539 439 533T509 515T566 481L490 0H442L441 58Q427 48 395 33T324 6T248 -6ZM267 43Q319 43 362 59T447 96L504
457Q487 467 451 478T365 490Q296 490 254 466T189 393T153 264Q149 237 147 218T145 181Q145 111 178 77T267 43ZM389 631L282 766H334L423 631H389Z" />
<glyph unicode="&#xe1;" horiz-adv-x="562" d="M248 -6Q203 -6 166 12T108 70T87 173Q87 198 90 225T97 274Q111 365 142 423T229 510T369 539Q402 539 439 533T509 515T566 481L490 0H442L441 58Q427 48 395 33T324 6T248 -6ZM267 43Q319 43 362 59T447 96L504
457Q487 467 451 478T365 490Q296 490 254 466T189 393T153 264Q149 237 147 218T145 181Q145 111 178 77T267 43ZM359 631L489 766H542L395 631H359Z" />
<glyph unicode="&#xe2;" horiz-adv-x="562" d="M248 -6Q203 -6 166 12T108 70T87 173Q87 198 90 225T97 274Q111 365 142 423T229 510T369 539Q402 539 439 533T509 515T566 481L490 0H442L441 58Q427 48 395 33T324 6T248 -6ZM267 43Q319 43 362 59T447 96L504
457Q487 467 451 478T365 490Q296 490 254 466T189 393T153 264Q149 237 147 218T145 181Q145 111 178 77T267 43ZM245 631L392 764H434L527 631H490L407 735L282 631H245Z" />
<glyph unicode="&#xe3;" horiz-adv-x="562" d="M248 -6Q203 -6 166 12T108 70T87 173Q87 198 90 225T97 274Q111 365 142 423T229 510T369 539Q402 539 439 533T509 515T566 481L490 0H442L441 58Q427 48 395 33T324 6T248 -6ZM267 43Q319 43 362 59T447 96L504
457Q487 467 451 478T365 490Q296 490 254 466T189 393T153 264Q149 237 147 218T145 181Q145 111 178 77T267 43ZM227 654Q237 709 269 730T335 752Q358 752 377 743T414 721T449 698T487 688Q514 688 534 705T560 754H590Q582 707 555 681T483 654Q462 654 443
664T407 686T370 708T331 718Q305 718 284 703T257 654H227Z" />
<glyph unicode="&#xe4;" horiz-adv-x="562" d="M248 -6Q203 -6 166 12T108 70T87 173Q87 198 90 225T97 274Q111 365 142 423T229 510T369 539Q402 539 439 533T509 515T566 481L490 0H442L441 58Q427 48 395 33T324 6T248 -6ZM267 43Q319 43 362 59T447 96L504
457Q487 467 451 478T365 490Q296 490 254 466T189 393T153 264Q149 237 147 218T145 181Q145 111 178 77T267 43ZM463 658Q451 658 451 670Q451 671 452 674T455 692T463 744Q465 759 480 759H507Q519 759 519 748Q519 748 519 744T516 725T507 672Q505 658 490
658H463ZM258 658Q246 658 246 670Q246 671 246 674T249 692T257 744Q260 759 275 759H301Q313 759 313 748Q313 748 313 744T310 725T301 672Q300 658 284 658H258Z" />
<glyph unicode="&#xe5;" horiz-adv-x="562" d="M248 -6Q203 -6 166 12T108 70T87 173Q87 198 90 225T97 274Q111 365 142 423T229 510T369 539Q402 539 439 533T509 515T566 481L490 0H442L441 58Q427 48 395 33T324 6T248 -6ZM267 43Q319 43 362 59T447 96L504
457Q487 467 451 478T365 490Q296 490 254 466T189 393T153 264Q149 237 147 218T145 181Q145 111 178 77T267 43ZM390 596Q350 596 322 615T294 683Q294 716 308 744T351 789T420 807Q459 807 486 788T513 721Q513 670 482 633T390 596ZM392 623Q439 623 460 651T482
719Q482 755 462 767T418 780Q370 780 347 752T324 684Q324 648 344 636T392 623Z" />
<glyph unicode="&#xe6;" horiz-adv-x="904" d="M244 -6Q198 -6 163 12T109 69T89 173Q89 247 104 313T152 429T238 509T368 539Q396 539 429 533T495 516T549 488Q565 501 584 511T627 528T674 538T723 542Q816 542 863 504T911 390Q911 342 883 305T801 248T673
227Q636 227 601 230T540 237T506 244Q503 220 503 208T502 177Q502 133 513 103T554 56T636 40H841L835 4Q804 1 769 -1T696 -5T621 -6Q578 -6 546 5T492 38T460 86Q438 67 403 46T327 9T244 -6ZM256 43Q293 43 329 56T397 88T450 128Q448 138 447 151T445 177Q445
220 452 269T474 366T517 451Q496 463 457 476T371 490Q303 490 260 463T192 390T157 290T147 182Q147 116 173 80T256 43ZM652 265Q746 265 800 294T855 384Q855 436 823 465T729 495Q670 495 631 481T569 438T533 369T510 275Q511 275 531 273T583 268T652 265Z"
/>
<glyph unicode="&#xe7;" horiz-adv-x="482" d="M274 -6Q219 -6 177 10T112 67T88 185Q88 203 91 227T98 278Q113 373 146 430T230 513T345 539Q382 539 430 535T517 527L510 492H353Q303 492 264 472T196 403T154 264Q150 241 148 222T146 189Q146 129 162 97T211
53T290 41H451L446 6Q414 1 372 -2T274 -6ZM147 61L151 85L175 87Q199 89 214 99T236 122T243 144Q243 159 230 169T177 181L206 192Q245 192 262 179T280 141Q280 125 269 107T234 75T175 61H147ZM177 181L243 260H271L206 181H177Z" />
<glyph unicode="&#xe8;" horiz-adv-x="548" d="M308 -6Q231 -6 183 14T112 76T90 177Q90 208 93 237T100 293Q112 372 143 427T230 512T369 542Q412 542 446 535T504 511T542 467T556 400Q556 348 535 314T477 261T395 235T301 227Q251 227 211 232T151 243Q149
226 148 209T147 174Q147 104 188 72T325 40H484L478 4Q449 1 403 -2T308 -6ZM277 265Q343 265 393 276T471 315T500 394Q500 449 467 472T365 495Q295 495 253 469T188 395T155 276Q179 272 211 269T277 265ZM388 631L281 766H333L422 631H388Z" />
<glyph unicode="&#xe9;" horiz-adv-x="548" d="M308 -6Q231 -6 183 14T112 76T90 177Q90 208 93 237T100 293Q112 372 143 427T230 512T369 542Q412 542 446 535T504 511T542 467T556 400Q556 348 535 314T477 261T395 235T301 227Q251 227 211 232T151 243Q149
226 148 209T147 174Q147 104 188 72T325 40H484L478 4Q449 1 403 -2T308 -6ZM277 265Q343 265 393 276T471 315T500 394Q500 449 467 472T365 495Q295 495 253 469T188 395T155 276Q179 272 211 269T277 265ZM358 631L488 766H541L394 631H358Z" />
<glyph unicode="&#xea;" horiz-adv-x="548" d="M308 -6Q231 -6 183 14T112 76T90 177Q90 208 93 237T100 293Q112 372 143 427T230 512T369 542Q412 542 446 535T504 511T542 467T556 400Q556 348 535 314T477 261T395 235T301 227Q251 227 211 232T151 243Q149
226 148 209T147 174Q147 104 188 72T325 40H484L478 4Q449 1 403 -2T308 -6ZM277 265Q343 265 393 276T471 315T500 394Q500 449 467 472T365 495Q295 495 253 469T188 395T155 276Q179 272 211 269T277 265ZM243 631L390 764H432L525 631H488L405 735L280 631H243Z"
/>
<glyph unicode="&#xeb;" horiz-adv-x="548" d="M308 -6Q231 -6 183 14T112 76T90 177Q90 208 93 237T100 293Q112 372 143 427T230 512T369 542Q412 542 446 535T504 511T542 467T556 400Q556 348 535 314T477 261T395 235T301 227Q251 227 211 232T151 243Q149
226 148 209T147 174Q147 104 188 72T325 40H484L478 4Q449 1 403 -2T308 -6ZM277 265Q343 265 393 276T471 315T500 394Q500 449 467 472T365 495Q295 495 253 469T188 395T155 276Q179 272 211 269T277 265ZM462 658Q450 658 450 670Q450 671 451 674T454 692T462
744Q464 759 479 759H506Q518 759 518 748Q518 748 518 744T515 725T506 672Q504 658 489 658H462ZM257 658Q245 658 245 670Q245 671 245 674T248 692T256 744Q259 759 274 759H300Q312 759 312 748Q312 748 312 744T309 725T300 672Q299 658 283 658H257Z" />
<glyph unicode="&#xec;" horiz-adv-x="203" d="M73 0L157 533H215L131 0H73ZM468 631L361 766H413L502 631H468Z" />
<glyph unicode="&#xed;" horiz-adv-x="203" d="M73 0L157 533H215L131 0H73ZM182 631L312 766H365L218 631H182Z" />
<glyph unicode="&#xee;" horiz-adv-x="203" d="M73 0L157 533H215L131 0H73ZM323 631L470 764H512L605 631H568L485 735L360 631H323Z" />
<glyph unicode="&#xef;" horiz-adv-x="203" d="M73 0L157 533H215L131 0H73ZM286 658Q274 658 274 670Q274 671 275 674T278 692T286 744Q288 759 303 759H330Q342 759 342 748Q342 748 342 744T339 725T330 672Q328 658 313 658H286ZM81 658Q69 658 69 670Q69
671 69 674T72 692T80 744Q83 759 98 759H124Q136 759 136 748Q136 748 136 744T133 725T124 672Q123 658 107 658H81Z" />
<glyph unicode="&#xf0;" horiz-adv-x="564" d="M96 266Q109 346 129 398T181 480T255 522T357 535Q416 535 455 515T515 455T535 360Q539 334 544 308T551 260Q535 156 503 99T418 18T281 -6Q224 -6 181 11T113 68T89 173Q89 196 90 218T96 266ZM153 255Q150 232
148 212T146 175Q146 120 164 92T215 53T289 43Q332 43 365 51T423 83T464 150T492 264Q496 288 498 310T500 353Q500 426 466 456T357 487Q312 487 278 477T221 442T181 372T153 255ZM250 763Q347 762 418 729T527 626T566 442Q566 403 563 357T551 260L505 280Q512
325 515 365T518 441Q518 544 485 605T390 693T243 721L250 763ZM615 756L620 733L281 604L275 627L615 756Z" />
<glyph unicode="&#xf1;" horiz-adv-x="571" d="M73 0L157 533H202L205 473Q251 502 306 521T422 541Q472 541 502 524T546 479T560 414Q560 402 559 386T551 326L499 0H441L492 324Q497 358 499 371T501 394Q501 434 478 461T396 489Q338 489 294 474T199 429L131
0H73ZM231 654Q241 709 273 730T339 752Q362 752 381 743T418 721T453 698T491 688Q518 688 538 705T564 754H594Q586 707 559 681T487 654Q466 654 447 664T411 686T374 708T335 718Q309 718 288 703T261 654H231Z" />
<glyph unicode="&#xf2;" horiz-adv-x="564" d="M281 -6Q224 -6 181 11T113 68T89 173Q89 197 91 220T97 270Q110 350 131 402T184 484T261 526T367 539Q438 539 480 518T540 456T559 354Q559 330 556 304T549 248Q534 151 503 95T418 17T281 -6ZM289 43Q332 43
365 51T423 82T464 148T491 259Q496 288 498 311T500 355Q500 429 468 460T358 491Q312 491 279 481T222 446T182 376T154 259Q150 235 148 214T146 175Q146 120 164 92T215 53T289 43ZM384 631L277 766H329L418 631H384Z" />
<glyph unicode="&#xf3;" horiz-adv-x="564" d="M281 -6Q224 -6 181 11T113 68T89 173Q89 197 91 220T97 270Q110 350 131 402T184 484T261 526T367 539Q438 539 480 518T540 456T559 354Q559 330 556 304T549 248Q534 151 503 95T418 17T281 -6ZM289 43Q332 43
365 51T423 82T464 148T491 259Q496 288 498 311T500 355Q500 429 468 460T358 491Q312 491 279 481T222 446T182 376T154 259Q150 235 148 214T146 175Q146 120 164 92T215 53T289 43ZM354 631L484 766H537L390 631H354Z" />
<glyph unicode="&#xf4;" horiz-adv-x="564" d="M281 -6Q224 -6 181 11T113 68T89 173Q89 197 91 220T97 270Q110 350 131 402T184 484T261 526T367 539Q438 539 480 518T540 456T559 354Q559 330 556 304T549 248Q534 151 503 95T418 17T281 -6ZM289 43Q332 43
365 51T423 82T464 148T491 259Q496 288 498 311T500 355Q500 429 468 460T358 491Q312 491 279 481T222 446T182 376T154 259Q150 235 148 214T146 175Q146 120 164 92T215 53T289 43ZM240 631L387 764H429L522 631H485L402 735L277 631H240Z" />
<glyph unicode="&#xf5;" horiz-adv-x="564" d="M281 -6Q224 -6 181 11T113 68T89 173Q89 197 91 220T97 270Q110 350 131 402T184 484T261 526T367 539Q438 539 480 518T540 456T559 354Q559 330 556 304T549 248Q534 151 503 95T418 17T281 -6ZM289 43Q332 43
365 51T423 82T464 148T491 259Q496 288 498 311T500 355Q500 429 468 460T358 491Q312 491 279 481T222 446T182 376T154 259Q150 235 148 214T146 175Q146 120 164 92T215 53T289 43ZM222 654Q232 709 264 730T330 752Q353 752 372 743T409 721T444 698T482 688Q509
688 529 705T555 754H585Q577 707 550 681T478 654Q457 654 438 664T402 686T365 708T326 718Q300 718 279 703T252 654H222Z" />
<glyph unicode="&#xf6;" horiz-adv-x="564" d="M281 -6Q224 -6 181 11T113 68T89 173Q89 197 91 220T97 270Q110 350 131 402T184 484T261 526T367 539Q438 539 480 518T540 456T559 354Q559 330 556 304T549 248Q534 151 503 95T418 17T281 -6ZM289 43Q332 43
365 51T423 82T464 148T491 259Q496 288 498 311T500 355Q500 429 468 460T358 491Q312 491 279 481T222 446T182 376T154 259Q150 235 148 214T146 175Q146 120 164 92T215 53T289 43ZM458 658Q446 658 446 670Q446 671 447 674T450 692T458 744Q460 759 475 759H502Q514
759 514 748Q514 748 514 744T511 725T502 672Q500 658 485 658H458ZM253 658Q241 658 241 670Q241 671 241 674T244 692T252 744Q255 759 270 759H296Q308 759 308 748Q308 748 308 744T305 725T296 672Q295 658 279 658H253Z" />
<glyph unicode="&#xf7;" horiz-adv-x="609" d="M306 114Q283 114 286 137L292 178Q297 203 320 203H352Q378 203 373 178L367 137Q365 124 357 119T338 114H306ZM369 509Q359 509 353 515T349 532L355 573Q358 598 383 598H415Q439 598 436 573L430 532Q428 519
420 514T401 509H369ZM133 331L141 381H589L581 331H133Z" />
<glyph unicode="&#xf8;" horiz-adv-x="563" d="M59 0L553 533H588L94 0H59ZM281 -6Q224 -6 181 11T113 68T89 173Q89 197 91 220T97 270Q110 350 131 402T184 484T261 526T367 539Q438 539 480 518T540 456T559 354Q559 330 556 304T549 248Q534 151 503 95T418
17T281 -6ZM289 43Q332 43 365 51T423 82T464 148T491 259Q496 288 498 311T500 355Q500 429 468 460T358 491Q312 491 279 481T222 446T182 376T154 259Q150 235 148 214T146 175Q146 120 164 92T215 53T289 43Z" />
<glyph unicode="&#xf9;" horiz-adv-x="571" d="M234 -6Q164 -6 130 27T95 117Q95 134 96 147T99 172L157 533H215L158 173Q157 165 156 156T155 137Q155 94 179 70T259 46Q316 46 360 61T456 103L525 533H583L498 0H451L450 60Q419 41 387 26T317 3T234 -6ZM394
631L287 766H339L428 631H394Z" />
<glyph unicode="&#xfa;" horiz-adv-x="571" d="M234 -6Q164 -6 130 27T95 117Q95 134 96 147T99 172L157 533H215L158 173Q157 165 156 156T155 137Q155 94 179 70T259 46Q316 46 360 61T456 103L525 533H583L498 0H451L450 60Q419 41 387 26T317 3T234 -6ZM364
631L494 766H547L400 631H364Z" />
<glyph unicode="&#xfb;" horiz-adv-x="571" d="M234 -6Q164 -6 130 27T95 117Q95 134 96 147T99 172L157 533H215L158 173Q157 165 156 156T155 137Q155 94 179 70T259 46Q316 46 360 61T456 103L525 533H583L498 0H451L450 60Q419 41 387 26T317 3T234 -6ZM250
631L397 764H439L532 631H495L412 735L287 631H250Z" />
<glyph unicode="&#xfc;" horiz-adv-x="571" d="M234 -6Q164 -6 130 27T95 117Q95 134 96 147T99 172L157 533H215L158 173Q157 165 156 156T155 137Q155 94 179 70T259 46Q316 46 360 61T456 103L525 533H583L498 0H451L450 60Q419 41 387 26T317 3T234 -6ZM468
658Q456 658 456 670Q456 671 457 674T460 692T468 744Q470 759 485 759H512Q524 759 524 748Q524 748 524 744T521 725T512 672Q510 658 495 658H468ZM263 658Q251 658 251 670Q251 671 251 674T254 692T262 744Q265 759 280 759H306Q318 759 318 748Q318 748
318 744T315 725T306 672Q305 658 289 658H263Z" />
<glyph unicode="&#xfd;" horiz-adv-x="552" d="M97 -237V-192Q142 -181 193 -138T289 0Q262 3 239 12T199 46T173 119L100 533H160L226 132Q232 99 244 82T274 59T310 51L491 442Q500 463 509 489T521 541H570Q570 510 564 478T539 408L345 3Q305 -81 266 -131T186
-205T97 -237ZM328 631L458 766H511L364 631H328Z" />
<glyph unicode="&#xfe;" horiz-adv-x="564" d="M35 -237L194 763H252L215 533Q247 536 291 537T391 539Q473 539 516 495T560 358Q560 333 557 306T550 256Q537 176 508 117T428 26T301 -6Q254 -6 214 1T135 28L93 -237H35ZM297 44Q359 44 398 70T459 146T493
269Q496 287 499 308T502 351Q502 419 473 455T378 490L208 488L142 72Q173 62 196 56T242 47T297 44Z" />
<glyph unicode="&#xff;" horiz-adv-x="552" d="M97 -237V-192Q142 -181 193 -138T289 0Q262 3 239 12T199 46T173 119L100 533H160L226 132Q232 99 244 82T274 59T310 51L491 442Q500 463 509 489T521 541H570Q570 510 564 478T539 408L345 3Q305 -81 266 -131T186
-205T97 -237ZM432 658Q420 658 420 670Q420 671 421 674T424 692T432 744Q434 759 449 759H476Q488 759 488 748Q488 748 488 744T485 725T476 672Q474 658 459 658H432ZM227 658Q215 658 215 670Q215 671 215 674T218 692T226 744Q229 759 244 759H270Q282 759
282 748Q282 748 282 744T279 725T270 672Q269 658 253 658H227Z" />
<glyph unicode="&#x2013;" horiz-adv-x="524" d="M68 264L76 315H549L541 264H68Z" />
<glyph unicode="&#x2014;" horiz-adv-x="747" d="M68 264L76 315H772L764 264H68Z" />
<glyph unicode="&#x2018;" horiz-adv-x="174" d="M152 535Q142 535 142 547Q142 549 142 550T143 553L165 693Q169 715 178 726T198 740T217 744Q222 744 225 744T232 742L229 722Q217 722 212 717T204 701L195 644H203Q217 644 217 631Q217 630 217 629T217 627L205
553Q202 535 186 535H152Z" />
<glyph unicode="&#x2019;" horiz-adv-x="174" d="M157 535Q153 535 150 535T142 537L146 557Q159 557 164 563T171 578L179 635H172Q158 635 158 648Q158 650 158 651T159 653L170 726Q172 744 189 744H223Q232 744 232 732Q232 731 232 730T232 726L210 587Q207
564 198 553T177 539T157 535Z" />
<glyph unicode="&#x201a;" horiz-adv-x="174" d="M56 -106Q51 -106 47 -106T41 -104L44 -84Q57 -84 62 -78T69 -63L78 -6H70Q56 -6 56 8Q56 9 56 10T57 12L69 85Q71 103 87 103H121Q131 103 131 91Q131 90 131 89T131 85L108 -54Q105 -76 96 -87T76 -102T56 -106Z" />
<glyph unicode="&#x201c;" horiz-adv-x="278" d="M152 535Q142 535 142 547Q142 549 142 550T143 553L165 693Q169 715 178 726T198 740T217 744Q222 744 225 744T232 742L229 722Q217 722 212 717T204 701L195 644H203Q217 644 217 631Q217 630 217 629T217 627L205
553Q202 535 186 535H152ZM256 535Q246 535 246 547Q246 549 246 550T247 553L269 693Q273 715 282 726T302 740T321 744Q326 744 329 744T336 742L333 722Q321 722 316 717T308 701L299 644H307Q321 644 321 631Q321 630 321 629T321 627L309 553Q306 535 290
535H256Z" />
<glyph unicode="&#x201d;" horiz-adv-x="278" d="M157 535Q153 535 150 535T142 537L146 557Q159 557 164 563T171 578L179 635H172Q158 635 158 648Q158 650 158 651T159 653L170 726Q172 744 189 744H223Q232 744 232 732Q232 731 232 730T232 726L210 587Q207
564 198 553T177 539T157 535ZM261 535Q257 535 254 535T246 537L250 557Q263 557 268 563T275 578L283 635H276Q262 635 262 648Q262 650 262 651T263 653L274 726Q276 744 293 744H327Q336 744 336 732Q336 731 336 730T336 726L314 587Q311 564 302 553T281
539T261 535Z" />
<glyph unicode="&#x201e;" horiz-adv-x="278" d="M56 -106Q51 -106 47 -106T41 -104L44 -84Q57 -84 62 -78T69 -63L78 -6H70Q56 -6 56 8Q56 9 56 10T57 12L69 85Q71 103 87 103H121Q131 103 131 91Q131 90 131 89T131 85L108 -54Q105 -76 96 -87T76 -102T56 -106ZM160
-106Q155 -106 151 -106T145 -104L148 -84Q161 -84 166 -78T173 -63L182 -6H174Q160 -6 160 8Q160 9 160 10T161 12L173 85Q175 103 191 103H225Q235 103 235 91Q235 90 235 89T235 85L212 -54Q209 -76 200 -87T180 -102T160 -106Z" />
<glyph unicode="&#x2022;" horiz-adv-x="331" d="M157 322Q125 322 130 354L139 408Q141 424 151 433T178 443H226Q261 443 255 408L246 354Q243 336 232 329T205 322H157Z" />
<glyph unicode="&#x2039;" horiz-adv-x="358" d="M274 67L94 279L336 486L364 454L156 278L310 99L274 67Z" />
<glyph unicode="&#x203a;" horiz-adv-x="358" d="M90 67L64 100L271 276L118 457L154 486L334 275L90 67Z" />
</font>
</defs>
</svg>
