<?xml version="1.0" standalone="no"?>
<!DOCTYPE svg PUBLIC "-//W3C//DTD SVG 1.1//EN" "http://www.w3.org/Graphics/SVG/1.1/DTD/svg11.dtd">
<svg xmlns="http://www.w3.org/2000/svg">
<defs >
<font id="Exo" horiz-adv-x="533" ><font-face
    font-family="Exo Thin"
    units-per-em="1000"
    panose-1="0 0 0 0 0 0 0 0 0 0"
    ascent="1002"
    descent="-327"
    alphabetic="0" />
<glyph unicode=" " horiz-adv-x="280" />
<glyph unicode="!" horiz-adv-x="260" d="M120 196L116 731H140L136 196H120ZM123 0Q111 0 111 12V74Q111 86 123 86H134Q146 86 146 74V12Q146 6 143 3T134 0H123Z" />
<glyph unicode="&quot;" horiz-adv-x="193" d="M51 515L44 673V740H69V673L63 515H51ZM131 515L124 673V740H149V673L143 515H131Z" />
<glyph unicode="#" horiz-adv-x="654" d="M166 0L205 249H28L30 261H208L240 467H61L64 479H242L283 732H295L254 479H440L480 732H492L452 479H630L628 467H449L417 261H595L593 249H415L376 0H364L403 249H217L178 0H166ZM220 261H405L437 467H252L220 261Z" />
<glyph unicode="$" horiz-adv-x="609" d="M301 732L283 733V824H301V732ZM283 -88V3L301 2V-88H283ZM285 -6Q268 -6 239 -5T176 -2T115 2T70 7V23Q90 21 124 20T201 17T285 16Q336 16 379 26T448 67T475 156V224Q475 288 444 322T337 357H245Q166 357 119 391T72
514V560Q72 661 123 699T265 738Q290 738 329 736T406 730T467 722V706Q424 709 370 712T265 716Q212 716 174 703T116 656T96 560V514Q96 436 135 409T243 381H337Q394 381 429 361T482 306T499 224V156Q499 92 468 57T389 8T285 -6Z" />
<glyph unicode="%" horiz-adv-x="954" d="M242 0L680 732H701L263 0H242ZM184 349Q111 349 84 379T57 474V607Q57 671 83 701T186 732H287Q361 732 387 702T414 607V474Q414 410 388 380T285 349H184ZM184 365H285Q343 365 370 386T398 474V607Q398 666 375 691T287
716H186Q127 716 100 695T73 607V474Q73 410 99 388T184 365ZM668 3Q595 3 568 33T541 128V261Q541 325 567 355T670 386H771Q845 386 871 356T898 261V128Q898 64 872 34T769 3H668ZM668 19H769Q827 19 854 40T882 128V261Q882 320 859 345T771 370H670Q611 370
584 349T557 261V128Q557 64 583 42T668 19Z" />
<glyph unicode="&amp;" horiz-adv-x="653" d="M239 -6Q184 -6 140 17T71 84T45 186Q45 236 67 284T143 377L214 437L191 469Q160 510 148 546T136 610Q136 656 158 682T216 720T294 732Q334 732 360 731T406 729T446 726V710H296Q238 710 199 689T160 612Q160
581 171 552T212 482L459 146L613 295L623 286L553 201L475 127L569 0H538L456 111L426 83Q373 34 330 14T239 -6ZM240 18Q280 18 318 34T403 95L440 130L227 418L163 365Q110 321 90 276T69 187Q69 109 115 64T240 18Z" />
<glyph unicode="&apos;" horiz-adv-x="113" d="M51 515L44 673V740H69V673L63 515H51Z" />
<glyph unicode="(" horiz-adv-x="315" d="M260 -210Q211 -122 176 -37T121 138T101 326Q101 423 121 512T176 687T260 860H287Q239 774 203 688T146 512T125 326Q125 228 145 139T203 -36T288 -210H260Z" />
<glyph unicode=")" horiz-adv-x="314" d="M27 -210Q81 -118 117 -32T171 141T189 326Q189 423 171 510T116 683T27 860H54Q107 769 142 683T195 510T213 326Q213 228 196 141T144 -32T54 -210H27Z" />
<glyph unicode="*" horiz-adv-x="469" d="M301 533L283 552L395 635L403 623L301 533ZM161 405L148 409L181 543L207 539L161 405ZM210 586L68 592V606L210 610V586ZM361 424L239 495L251 518L369 435L361 424ZM262 593L206 723L219 727L286 604L262 593Z" />
<glyph unicode="+" horiz-adv-x="609" d="M292 132V580H316V132H292ZM80 344V368H528V344H80Z" />
<glyph unicode="," horiz-adv-x="172" d="M78 -69Q75 -69 73 -69T71 -68V-62Q80 -62 83 -59T87 -47V0H81Q76 0 73 3T69 13V73Q69 86 81 86H91Q98 86 100 83T103 73V-37Q103 -51 99 -58T89 -67T78 -69Z" />
<glyph unicode="-" horiz-adv-x="338" d="M27 278V302H311V278H27Z" />
<glyph unicode="." horiz-adv-x="172" d="M81 0Q69 0 69 12V74Q69 86 81 86H92Q104 86 104 74V12Q104 6 101 3T92 0H81Z" />
<glyph unicode="/" horiz-adv-x="354" d="M27 -72L308 770H327L46 -72H27Z" />
<glyph unicode="0" horiz-adv-x="662" d="M266 0Q221 0 182 15T118 66T94 162V576Q94 630 117 666T179 720T266 738H400Q461 738 498 717T551 659T568 576V162Q568 73 521 37T400 0H266ZM266 22H400Q478 22 511 60T544 162V576Q544 644 508 680T400 716H266Q199
716 159 679T118 576V162Q118 93 158 58T266 22Z" />
<glyph unicode="1" horiz-adv-x="354" d="M222 0V713L54 652V668L222 740H246V0H222Z" />
<glyph unicode="2" horiz-adv-x="598" d="M61 0V22L353 295Q404 343 433 384T475 467T487 561Q487 604 471 639T412 695T287 716H94V732Q138 734 191 736T295 738Q377 738 424 715T491 651T511 559Q511 506 497 462T452 374T369 281L97 24H541V0H61Z" />
<glyph unicode="3" horiz-adv-x="590" d="M302 -6Q223 -6 158 -5T48 0V16H300Q345 16 384 27T449 70T474 161V224Q474 274 450 302T391 343T322 356L128 363V377L322 383Q383 385 423 412T463 504V573Q463 640 419 678T292 716H80V732Q116 735 170 736T298 738Q365
738 406 716T467 657T487 573V504Q487 465 474 440T440 399T401 378T370 370Q383 368 404 360T448 335T485 291T500 224V161Q500 79 449 37T302 -6Z" />
<glyph unicode="4" horiz-adv-x="575" d="M404 2V212H39L29 235L336 732H361L54 234H404V472L412 527H428V234H548V218L428 212V2H404Z" />
<glyph unicode="5" horiz-adv-x="649" d="M357 -4Q284 -4 217 -3T103 2V18H355Q406 18 449 34T519 84T546 168V273Q546 337 506 374T386 411H291Q235 411 201 386T155 304H133L154 732H549V710H176L159 364Q169 388 202 410T294 433H387Q445 433 485 413T548 357T570
275V166Q570 111 541 73T464 16T357 -4Z" />
<glyph unicode="6" horiz-adv-x="636" d="M276 -1Q235 -1 201 15T141 73T102 187T88 374Q88 466 104 534T152 647T229 715T333 738Q370 738 421 736T512 732V716H324Q230 716 171 635T112 385Q148 387 193 388T279 390T344 391Q405 391 453 380T528 339T556 249V148Q556
92 534 60T474 13T395 -1H276ZM276 21H395Q431 21 462 30T513 67T533 146V249Q533 300 510 326T445 360T345 369H112Q112 265 123 197T156 91T208 37T276 21Z" />
<glyph unicode="7" horiz-adv-x="535" d="M168 0L456 708H40V732H468L484 709L196 0H168Z" />
<glyph unicode="8" horiz-adv-x="655" d="M267 0Q227 0 197 8T145 34T112 76T101 134V243Q101 285 119 311T162 351T205 369Q173 382 153 402T124 448T115 499V584Q115 639 134 672T188 721T267 737H403Q449 737 479 722T525 673T541 584V499Q541 479 536 460T519
425T493 396T459 377Q490 372 511 355T543 311T555 252V134Q555 90 537 61T485 16T402 0H267ZM267 22H402Q465 22 498 49T531 131V246Q531 311 501 336T395 362H266Q249 362 225 357T178 338T140 303T125 246V131Q125 72 166 47T267 22ZM266 384H395Q439 384 465
402T504 445T517 494V582Q517 654 489 684T403 715H267Q198 715 169 683T139 582V494Q139 451 170 418T266 384Z" />
<glyph unicode="9" horiz-adv-x="636" d="M304 -4Q267 -4 216 -2T125 2V18H313Q408 18 466 99T525 349Q490 347 445 346T358 344T293 343Q232 343 184 354T109 395T81 485V586Q81 642 104 674T163 721T242 735H361Q402 735 436 719T496 661T535 547T549 360Q549
269 533 201T485 87T408 19T304 -4ZM292 365H525Q525 469 514 537T481 643T429 697T361 713H242Q206 713 175 704T124 667T104 588V485Q104 434 127 409T193 374T292 365Z" />
<glyph unicode=":" horiz-adv-x="172" d="M81 0Q69 0 69 12V74Q69 86 81 86H92Q104 86 104 74V12Q104 6 101 3T92 0H81ZM81 445Q69 445 69 457V519Q69 531 81 531H92Q104 531 104 519V457Q104 451 101 448T92 445H81Z" />
<glyph unicode=";" horiz-adv-x="172" d="M81 445Q69 445 69 457V519Q69 531 81 531H92Q104 531 104 519V457Q104 451 101 448T92 445H81ZM78 -69Q75 -69 73 -69T71 -68V-62Q80 -62 83 -59T87 -47V0H81Q76 0 73 3T69 13V73Q69 86 81 86H91Q98 86 100 83T103 73V-37Q103
-51 99 -58T89 -67T78 -69Z" />
<glyph unicode="&lt;" horiz-adv-x="609" d="M511 200L96 336V360L511 496V476L116 349L511 220V200Z" />
<glyph unicode="=" horiz-adv-x="609" d="M80 480V504H528V480H80ZM80 464V488H528V464H80Z" />
<glyph unicode="&gt;" horiz-adv-x="609" d="M98 200V220L493 347L98 476V496L513 360V336L98 200Z" />
<glyph unicode="?" horiz-adv-x="532" d="M187 195V321H222Q327 321 370 351T414 463V544Q414 639 378 678T258 717Q202 717 153 708T47 675V689Q98 718 151 728T259 739Q330 740 368 717T422 650T438 544V463Q438 378 386 338T209 297V195H187ZM192 0Q180 0 180
12V74Q180 86 192 86H203Q215 86 215 74V12Q215 6 212 3T203 0H192Z" />
<glyph unicode="@" horiz-adv-x="866" d="M256 -148Q218 -148 187 -137T134 -103T100 -47T88 30V378Q88 389 90 408T99 451T125 494T174 528T256 542H456Q483 542 510 536T559 514T595 471T609 402V30H593L586 94Q585 94 563 83T507 58T434 32T361 21Q324 21 295
36T250 77T233 138V191Q233 242 266 273T362 304H585V400Q585 462 549 490T453 518H256Q213 518 181 505T130 461T112 378V30Q112 -29 134 -62T189 -109T256 -123H575Q652 -123 690 -85T728 30V542Q728 613 691 659T575 706H186V720Q210 725 254 727T354 729T474
730H575Q615 730 647 718T703 683T739 624T752 542V30Q752 -19 737 -59T683 -124T575 -148H256ZM368 45Q398 45 439 56T520 81T585 108V290L367 280Q347 279 321 273T276 248T257 189V144Q257 99 287 72T368 45Z" />
<glyph unicode="A" horiz-adv-x="666" d="M48 0L316 732H350L618 0H592L498 255H167L74 0H48ZM174 277H489L333 708L174 277Z" />
<glyph unicode="B" horiz-adv-x="584" d="M88 0V732H334Q416 732 461 688T507 548Q507 501 492 466T452 410T402 380Q419 376 441 366T484 335T520 283T534 204Q534 123 510 79T442 18T341 0H88ZM112 22H341Q391 22 429 36T488 90T510 206Q510 258 487 294T426
349T341 368H112V22ZM112 390H341Q401 390 441 432T483 548Q486 638 444 674T334 710H112V390Z" />
<glyph unicode="C" horiz-adv-x="577" d="M323 -6Q255 -6 207 9T128 63T84 176T70 368Q70 478 84 550T129 663T210 721T331 738Q348 738 381 736T453 729T527 718V702Q511 705 479 708T407 713T329 716Q266 716 221 701T148 648T107 542T94 368Q94 255 107 185T147
79T218 29T324 16Q399 16 447 20T527 30V14Q494 8 456 4T383 -3T323 -6Z" />
<glyph unicode="D" horiz-adv-x="660" d="M88 0V732H361Q421 732 464 710T535 643T576 529T590 366Q590 258 564 176T487 47T361 0H88ZM112 22H361Q431 22 476 66T543 188T566 366Q566 456 555 521T519 628T455 690T361 710H112V22Z" />
<glyph unicode="E" horiz-adv-x="579" d="M225 -3Q200 -3 176 1T132 17T100 55T88 123V602Q88 639 98 664T127 704T167 725T214 732Q264 731 313 730T412 728T511 726V710H214Q168 710 140 685T112 602V374L471 371V355L112 352V123Q112 76 128 54T171 26T224
19H511V3Q464 2 416 1T321 -1T225 -3Z" />
<glyph unicode="F" horiz-adv-x="555" d="M88 0V602Q88 639 98 664T127 704T167 725T214 732Q264 731 313 730T412 728T511 726V710H214Q168 710 140 684T112 602V360L471 357V341L112 338V0H88Z" />
<glyph unicode="G" horiz-adv-x="642" d="M313 -5Q242 -6 195 13T121 75T82 191T70 370Q70 467 81 537T119 651T190 717T300 738Q329 738 370 736T453 729T527 718V702Q508 704 471 707T388 713T300 716Q221 716 176 680T113 568T94 368Q94 268 104 201T138 93T204
35T313 17Q366 17 425 33T530 69V344H316V358Q334 361 359 363T413 366T476 368Q498 368 518 367T554 363V0H538L532 53Q491 34 433 15T313 -5Z" />
<glyph unicode="H" horiz-adv-x="664" d="M88 0V732H112V365H552V732H576V0H552V343H112V0H88Z" />
<glyph unicode="I" horiz-adv-x="200" d="M88 0V732H112V0H88Z" />
<glyph unicode="J" horiz-adv-x="369" d="M134 -6Q109 -6 78 1T27 19V35Q49 28 80 22T134 16Q170 16 197 26T241 63T257 145V732H281V145Q281 86 264 53T214 7T134 -6Z" />
<glyph unicode="K" horiz-adv-x="573" d="M88 0V732H112V378H267L508 732H534L286 367L534 0H507L266 356H112V0H88Z" />
<glyph unicode="L" horiz-adv-x="529" d="M214 0Q183 0 154 10T107 47T88 126V732H112V126Q112 82 127 60T166 31T214 24H500V0H214Z" />
<glyph unicode="M" horiz-adv-x="797" d="M68 0L149 732H182L398 41L610 732H645L729 0H705L622 726L629 723L409 0H388L163 722L170 724L91 0H68Z" />
<glyph unicode="N" horiz-adv-x="665" d="M108 0V732H130L573 44V732H597V0H575L132 688V0H108Z" />
<glyph unicode="O" horiz-adv-x="676" d="M338 -6Q271 -6 221 6T137 56T87 166T70 361Q70 483 87 557T138 671T222 724T338 738Q407 738 457 724T541 671T590 558T606 361Q606 240 590 167T540 56T456 7T338 -6ZM338 16Q402 16 448 28T524 75T568 179T582 361Q582
480 568 551T524 657T448 704T338 716Q279 716 234 705T157 658T110 551T94 361Q94 248 107 180T149 76T224 28T338 16Z" />
<glyph unicode="P" horiz-adv-x="590" d="M88 0V732H364Q394 732 424 724T481 692T524 626T540 512Q540 441 523 397T477 328T416 294T354 285Q340 285 307 285T236 287T163 289T112 291V0H88ZM112 307H354Q396 307 433 324T492 385T515 512Q515 594 493 636T437
694T364 710H112V307Z" />
<glyph unicode="Q" horiz-adv-x="676" d="M500 -148Q472 -148 445 -135T397 -96T368 -33H384Q401 -80 434 -101T503 -123Q515 -123 526 -122T548 -116V-140Q537 -144 525 -146T500 -148ZM338 -6Q271 -6 221 6T137 56T87 166T70 361Q70 483 87 557T138 671T222
724T338 738Q407 738 457 724T541 671T590 558T606 361Q606 240 590 167T540 56T456 7T338 -6ZM338 16Q402 16 448 28T524 75T568 179T582 361Q582 480 568 551T524 657T448 704T338 716Q279 716 234 705T157 658T110 551T94 361Q94 248 107 180T149 76T224 28T338
16Z" />
<glyph unicode="R" horiz-adv-x="592" d="M88 0V732H364Q394 732 424 726T481 699T524 639T540 532Q540 465 525 424T485 362T433 332T381 323L542 0H518L356 323Q336 323 305 324T239 325T170 327T112 329V0H88ZM112 345H364Q394 345 421 351T469 377T503 434T516
532Q516 590 503 625T469 678T420 703T364 710H112V345Z" />
<glyph unicode="S" horiz-adv-x="569" d="M285 -6Q268 -6 239 -5T176 -2T115 2T70 7V23Q90 21 124 20T201 17T285 16Q336 16 379 26T448 67T475 156V224Q475 288 444 322T337 357H245Q166 357 119 391T72 514V560Q72 661 123 699T265 738Q290 738 329 736T406
730T467 722V706Q424 709 370 712T265 716Q212 716 174 703T116 656T96 560V514Q96 436 135 409T243 381H337Q394 381 429 361T482 306T499 224V156Q499 92 468 57T389 8T285 -6Z" />
<glyph unicode="T" horiz-adv-x="550" d="M263 0V710H16V732H534V710H287V0H263Z" />
<glyph unicode="U" horiz-adv-x="668" d="M334 -6Q272 -6 224 5T144 43T95 112T78 220V732H102V220Q102 139 129 95T209 34T334 16Q407 16 459 33T538 95T566 220V732H590V220Q590 156 574 113T525 43T444 6T334 -6Z" />
<glyph unicode="V" horiz-adv-x="666" d="M316 0L48 732H73L333 21L593 732H618L350 0H316Z" />
<glyph unicode="W" horiz-adv-x="991" d="M246 0L48 732H73L263 21L479 732H513L728 21L919 732H943L745 0H711L496 708L280 0H246Z" />
<glyph unicode="X" horiz-adv-x="591" d="M515 0L50 732H76L541 0H515ZM53 0L286 370L298 348L79 0H53ZM306 352L298 381L515 732H541L306 352Z" />
<glyph unicode="Y" horiz-adv-x="610" d="M293 0V260L50 732H76L305 283L534 732H560L317 260V0H293Z" />
<glyph unicode="Z" horiz-adv-x="549" d="M47 0V22L481 710H47V732H510V710L76 22H510V0H47Z" />
<glyph unicode="[" horiz-adv-x="327" d="M251 -210Q206 -210 179 -192T138 -147T120 -90T115 -38V670Q115 693 119 722T137 778T178 824T251 842H301V820H251Q202 820 171 785T139 670V-38Q139 -79 149 -113T185 -167T251 -188H301V-210H251Z" />
<glyph unicode="\" horiz-adv-x="354" d="M308 -72L27 770H46L327 -72H308Z" />
<glyph unicode="]" horiz-adv-x="327" d="M27 -210V-188H77Q119 -188 143 -168T178 -113T189 -38V670Q189 750 158 785T77 820H27V842H77Q122 842 149 824T190 779T208 722T213 670V-38Q213 -60 209 -89T191 -146T150 -192T77 -210H27Z" />
<glyph unicode="^" horiz-adv-x="407" d="M68 531L200 661H220L340 531H322L210 646L86 531H68Z" />
<glyph unicode="_" horiz-adv-x="609" d="M0 -141V-117H609V-141H0Z" />
<glyph unicode="`" horiz-adv-x="201" d="M160 631L27 764H53L174 631H160Z" />
<glyph unicode="a" horiz-adv-x="540" d="M187 -6Q130 -6 92 28T54 126V157Q54 221 94 259T213 298H429V387Q429 427 416 456T369 502T274 519H104V535Q135 536 178 538T276 541Q340 542 379 524T435 472T453 387V0H437L429 64Q428 64 405 54T344 29T266 5T187
-6ZM187 18Q211 17 242 23T306 39T367 57T412 73T429 80V282L207 275Q136 273 107 240T78 157V131Q78 89 95 64T137 29T187 18Z" />
<glyph unicode="b" horiz-adv-x="572" d="M310 -6Q271 -6 234 4T167 29T115 57L107 0H91V763H115V474Q159 500 213 518T310 537Q371 537 413 512T479 426T502 263Q502 186 484 125T423 29T310 -6ZM310 16Q368 16 405 45T460 130T478 263Q478 366 457 420T399 494T310
515Q252 515 209 500T115 458V73Q155 53 203 35T310 16Z" />
<glyph unicode="c" horiz-adv-x="490" d="M274 -6Q231 -6 194 5T129 46T86 128T70 266Q70 349 85 402T127 484T191 524T274 536Q307 536 355 535T442 530V514H274Q219 514 179 495T117 421T94 262Q94 163 118 110T182 36T274 16H450V0Q428 -1 401 -2T341 -5T274 -6Z" />
<glyph unicode="d" horiz-adv-x="568" d="M262 -6Q194 -6 152 24T90 114T70 263Q70 362 91 422T156 510T272 537Q323 537 372 526T457 501V763H481V0H465L457 57Q444 45 411 31T337 5T262 -6ZM262 16Q321 16 369 34T457 73V485Q408 498 367 506T272 515Q209 515
170 491T112 412T94 263Q94 179 111 124T165 43T262 16Z" />
<glyph unicode="e" horiz-adv-x="544" d="M278 -6Q198 -6 153 20T89 106T70 268Q70 372 90 430T158 513T283 537Q347 537 389 522T452 469T474 367Q474 326 458 300T411 263T338 251H94Q94 165 109 114T164 39T280 16H464V0Q413 -4 372 -5T278 -6ZM94 273H338Q395
273 422 293T450 367Q450 425 434 457T381 502T283 515Q209 515 168 495T111 422T94 273Z" />
<glyph unicode="f" horiz-adv-x="348" d="M114 0V509H27V525L114 531V613Q114 660 124 695T163 749T247 769Q282 769 302 767T343 763V747H248Q201 747 178 732T146 686T138 613V531H326V509H138V0H114Z" />
<glyph unicode="g" horiz-adv-x="571" d="M216 -243Q163 -243 124 -229T62 -184T40 -108V-78Q40 -29 66 2T131 48T209 63V43Q173 43 140 31T84 -7T62 -78V-108Q62 -172 104 -196T216 -221H356Q435 -221 479 -191T524 -98V-73Q524 -38 511 -12T465 28T371 43H177Q137
43 110 63T83 121Q83 160 107 180T175 208Q133 222 111 248T80 304T71 364Q71 428 97 465T167 517T263 533H545V517L394 511Q410 503 431 488T469 442T485 354Q485 317 469 280T413 218T300 193H223Q168 193 138 178T107 121Q107 91 128 78T171 65H371Q433 65 471
49T528 3T546 -70V-98Q546 -166 497 -204T356 -243H216ZM236 215H298Q365 215 400 235T448 287T461 354Q461 412 441 446T388 496T311 511H253Q181 511 138 478T95 364Q95 285 133 250T236 215Z" />
<glyph unicode="h" horiz-adv-x="582" d="M91 0V763H115V469Q159 498 214 519T331 540Q384 540 420 516T476 453T495 370V0H471V370Q471 410 455 443T407 497T331 518Q287 518 253 511T186 489T115 455V0H91Z" />
<glyph unicode="i" horiz-adv-x="206" d="M98 640Q86 640 86 652V714Q86 726 98 726H109Q115 726 117 723T120 714V652Q120 640 109 640H98ZM91 0V531H115V0H91Z" />
<glyph unicode="j" horiz-adv-x="206" d="M98 640Q86 640 86 652V714Q86 726 98 726H109Q115 726 117 723T120 714V652Q120 640 109 640H98ZM91 -237V531H115V27Q115 -52 112 -121T107 -237H91Z" />
<glyph unicode="k" horiz-adv-x="468" d="M91 0V763H115V298H202L401 531H431L219 286L440 0H409L198 276H115V0H91Z" />
<glyph unicode="l" horiz-adv-x="278" d="M209 0Q172 0 146 14T105 65T91 169V763H115V169Q115 108 126 78T157 37T205 23L269 16V0H209Z" />
<glyph unicode="m" horiz-adv-x="962" d="M91 0V531H105L115 469Q159 498 214 519T331 540Q382 540 418 517T474 458Q500 478 540 496T625 527T710 540Q763 540 800 516T856 453T875 370V0H851V370Q851 410 835 443T787 497T710 518Q653 518 593 497T479 446Q487
428 491 409T495 370V0H471V370Q471 410 455 443T407 497T331 518Q287 518 252 511T185 489T115 455V0H91Z" />
<glyph unicode="n" horiz-adv-x="582" d="M91 0V531H105L115 469Q159 498 214 519T331 540Q384 540 420 516T476 453T495 370V0H471V370Q471 410 455 443T407 497T331 518Q287 518 252 511T185 489T115 455V0H91Z" />
<glyph unicode="o" horiz-adv-x="578" d="M288 -6Q237 -6 197 4T128 43T85 126T70 266Q70 352 84 405T127 487T196 526T288 537Q339 537 380 527T449 488T493 406T508 266Q508 180 493 126T450 44T380 5T288 -6ZM288 16Q334 16 370 24T432 58T470 134T484 266Q484
349 471 398T432 473T371 506T288 515Q242 515 206 507T145 473T107 399T94 266Q94 184 107 134T145 59T206 25T288 16Z" />
<glyph unicode="p" horiz-adv-x="572" d="M91 -237V531H107L115 474Q132 485 165 500T237 526T310 537Q364 537 401 513T460 448T492 361T502 268Q502 175 480 114T415 24T310 -6Q261 -6 210 12T115 57V-237H91ZM310 16Q360 16 397 40T456 120T478 268Q478 355
454 409T391 489T310 515Q251 515 203 497T115 458V73Q162 48 211 32T310 16Z" />
<glyph unicode="q" horiz-adv-x="568" d="M457 -237V57Q411 28 358 11T254 -6Q187 -6 147 25T88 118T70 268Q70 352 90 412T154 505T265 537Q313 537 352 536T424 533T481 529V-237H457ZM254 16Q310 16 358 30T457 73V515H262Q198 515 162 482T110 393T94 268Q94
183 110 127T162 44T254 16Z" />
<glyph unicode="r" horiz-adv-x="404" d="M91 0V531H107L115 430Q157 477 207 507T323 537Q339 537 352 536T377 531V507Q366 509 353 511T323 513Q280 513 247 502T183 468T115 414V0H91Z" />
<glyph unicode="s" horiz-adv-x="496" d="M266 -6Q251 -6 222 -6T159 -4T100 -2T62 0V16H266Q308 16 341 22T393 52T412 123V152Q412 199 381 225T286 252H218Q169 252 134 262T79 299T60 373V399Q60 448 79 478T135 522T226 536Q250 536 285 536T357 534T417
529V513H226Q158 513 121 490T84 399V373Q84 331 101 310T148 283T218 276H286Q352 276 394 245T436 152V123Q436 69 413 42T351 4T266 -6Z" />
<glyph unicode="t" horiz-adv-x="350" d="M246 0Q203 0 173 16T127 68T111 158L113 509H27V525L111 531L119 680H135V531H310V509H135V158Q135 113 145 87T171 47T204 28T237 22L301 16V0H246Z" />
<glyph unicode="u" horiz-adv-x="582" d="M255 -6Q176 -6 134 31T91 159V531H115V159Q115 75 152 46T261 16Q323 16 369 31T471 76V531H495V0H481L471 62Q428 34 372 14T255 -6Z" />
<glyph unicode="v" horiz-adv-x="514" d="M242 0L24 531H48L255 23L466 531H490L268 0H242Z" />
<glyph unicode="w" horiz-adv-x="774" d="M202 0L24 531H48L215 23L374 531H400L559 23L726 531H750L572 0H546L387 508L228 0H202Z" />
<glyph unicode="x" horiz-adv-x="480" d="M421 0L32 531H59L448 0H421ZM32 0L228 268L240 251L57 0H32ZM251 261L239 276L422 530L448 531L251 261Z" />
<glyph unicode="y" horiz-adv-x="519" d="M215 -237L291 0Q281 1 260 7T215 37T174 110L24 531H50L198 116Q212 77 229 58T262 32T288 25T299 25L470 531H495L272 -138L227 -237H215Z" />
<glyph unicode="z" horiz-adv-x="486" d="M56 0V22L407 509H50V531H436V509L83 22H436V0H56Z" />
<glyph unicode="{" horiz-adv-x="304" d="M277 -210Q221 -210 189 -195T141 -154T121 -98T116 -38V247Q116 271 102 288T68 313T27 320V347Q44 349 65 355T101 376T117 420V656Q117 704 129 746T176 815T277 842V820Q233 820 203 805T157 754T141 656V420Q141
384 117 362T61 334Q93 330 116 307T140 251V-38Q140 -125 174 -156T277 -188V-210Z" />
<glyph unicode="|" horiz-adv-x="254" d="M115 -72V770H139V-72H115Z" />
<glyph unicode="}" horiz-adv-x="304" d="M27 -210V-188Q95 -188 129 -157T164 -38V251Q164 283 187 306T243 334Q211 339 187 361T163 420V656Q163 718 148 753T102 804T27 820V842Q94 842 128 816T174 747T187 656V420Q187 391 202 376T239 355T277 347V320Q257
322 237 314T202 288T188 247V-38Q188 -67 184 -97T164 -153T116 -194T27 -210Z" />
<glyph unicode="~" horiz-adv-x="473" d="M300 541Q283 541 266 552T232 577T201 603T174 614Q146 614 123 599T72 564L68 572Q94 595 119 612T174 630Q190 630 207 619T241 594T273 568T300 557Q329 557 356 576T400 610L406 603Q381 578 357 560T300 541Z" />
<glyph unicode="&#xa0;" horiz-adv-x="280" />
<glyph unicode="&#xa1;" horiz-adv-x="260" d="M140 335L144 -200H120L124 335H140ZM137 531Q149 531 149 519V457Q149 445 137 445H126Q114 445 114 457V519Q114 525 117 528T126 531H137Z" />
<glyph unicode="&#xa2;" horiz-adv-x="488" d="M252 -82V-5Q211 -5 175 4T112 42T70 124T54 266Q54 355 68 408T109 489T171 526T252 536V618H270V535Q306 533 349 526T427 510V496Q385 504 341 509T240 514Q202 514 172 505T121 469T89 393T78 262Q78 185 90
137T124 62T177 27T246 17Q285 17 314 20T371 28T434 40V24Q384 9 349 4T270 -4V-82H252Z" />
<glyph unicode="&#xa3;" horiz-adv-x="609" d="M68 0V16L190 22V348L68 351V367L190 370V535Q190 618 214 660T281 717T378 732Q413 732 451 730T514 726V710H380Q326 710 289 697T233 647T214 535V370L454 367V351L214 348V22H532V0H68Z" />
<glyph unicode="&#xa4;" horiz-adv-x="609" d="M304 201Q262 201 227 222T171 278T150 356Q150 399 171 434T227 490T304 511Q347 511 382 490T438 434T459 356Q459 314 438 279T382 222T304 201ZM104 139L87 156L195 264L212 247L104 139ZM191 452L87 556L104
573L208 469L191 452ZM504 139L398 245L415 262L521 156L504 139ZM304 225Q340 225 370 243T417 291T435 356Q435 392 418 422T370 469T304 487Q269 487 240 470T193 422T175 356Q175 321 192 291T239 243T304 225ZM415 450L398 467L504 573L521 556L415 450Z"
/>
<glyph unicode="&#xa5;" horiz-adv-x="609" d="M80 260V284H529V260H80ZM80 144V168H529V144H80ZM282 0V260L39 732H65L294 283L523 732H549L306 260V0H282Z" />
<glyph unicode="&#xa6;" horiz-adv-x="254" d="M115 429V770H139V429H115ZM115 -72V256H139V-72H115Z" />
<glyph unicode="&#xa7;" horiz-adv-x="559" d="M317 -6Q301 -6 272 -6T211 -4T151 -2T111 0V16H317Q378 16 408 28T450 62T461 110V183Q461 212 455 227T425 249T353 255H204Q152 255 122 264T78 295T64 353V415Q64 465 81 483T129 506Q97 512 86 537T74 590V660Q74
709 92 736T144 773T224 784Q241 784 272 784T339 783T405 781T448 778V762H224Q186 762 158 755T114 726T98 660V590Q98 543 125 531T204 518H353Q414 518 444 508T484 476T495 416V354Q495 308 482 290T434 267Q459 262 469 249T482 218T485 183V110Q485 67 466
42T409 5T317 -6ZM204 277H353Q407 277 432 281T464 302T471 354V416Q471 449 462 466T428 489T353 496H204Q137 496 113 480T88 414V353Q88 329 97 312T131 286T204 277Z" />
<glyph unicode="&#xa8;" horiz-adv-x="424" d="M304 666Q292 666 292 678V740Q292 752 304 752H315Q321 752 324 749T327 740V678Q327 666 315 666H304ZM110 666Q98 666 98 678V740Q98 752 110 752H121Q127 752 130 749T133 740V678Q133 666 121 666H110Z" />
<glyph unicode="&#xa9;" horiz-adv-x="864" d="M315 0Q260 0 220 25T151 91T106 181T82 279T74 368Q74 429 85 493T122 611T196 698T315 732H571Q630 732 669 707T733 640T769 550T786 453T790 368Q790 296 777 230T737 112T669 30T571 0H315ZM394 147Q355 147
322 164T270 229T250 365Q250 446 269 493T321 562T394 583Q415 583 446 581T510 575T572 566V557Q541 562 506 564T441 568T394 569Q355 569 326 549T281 483T264 362Q264 267 293 214T394 161Q448 161 495 165T578 177V168Q530 155 487 151T394 147ZM315 14H571Q628
14 674 54T748 174T776 368Q776 440 765 503T730 614T667 690T571 718H315Q273 718 233 701T161 645T109 538T88 368Q87 309 100 247T142 132T213 47T315 14Z" />
<glyph unicode="&#xaa;" horiz-adv-x="406" d="M40 271V291H352V271H40ZM62 458Q62 427 74 410T105 385T143 376Q165 376 195 382T253 398T301 414T320 421V567L157 561Q105 560 84 536T62 476V458ZM40 477Q40 524 70 552T160 580H320V644Q320 687 297 713T205
739H77V754Q101 756 133 757T208 759Q256 760 285 747T328 709T342 645V360H327L320 407Q319 407 302 399T257 381T199 364T140 356Q97 356 69 381T40 453V477Z" />
<glyph unicode="&#xab;" horiz-adv-x="604" d="M278 70L68 278L274 481L290 465L100 278L296 87L278 70ZM528 70L318 278L524 481L540 465L350 278L546 87L528 70Z" />
<glyph unicode="&#xac;" horiz-adv-x="609" d="M504 224V467H528V224H504ZM80 464V488H528V464H80Z" />
<glyph unicode="&#xad;" horiz-adv-x="338" d="M27 278V302H311V278H27Z" />
<glyph unicode="&#xae;" horiz-adv-x="864" d="M315 0Q260 0 220 25T151 91T106 181T82 279T74 368Q74 429 85 493T122 611T196 698T315 732H571Q630 732 669 707T733 640T769 550T786 453T790 368Q790 296 777 230T737 112T669 30T571 0H315ZM315 14H571Q628
14 674 54T748 174T776 368Q776 440 765 503T730 614T667 690T571 718H315Q273 718 233 701T161 645T109 538T88 368Q87 309 100 247T142 132T213 47T315 14ZM285 153V580H462Q495 580 523 571T568 534T586 454Q586 411 574 389T543 358T506 349T475 346L586 153H569L458
345L299 350V153H285ZM299 359H468Q519 359 545 376T572 453Q572 518 544 542T468 566H299V359Z" />
<glyph unicode="&#xaf;" horiz-adv-x="387" d="M68 691V706H320V691H68Z" />
<glyph unicode="&#xb0;" horiz-adv-x="338" d="M170 510Q118 510 83 544T48 632Q48 668 64 695T107 739T170 755Q223 755 256 720T290 632Q290 579 257 545T170 510ZM170 524Q217 524 246 555T276 632Q276 679 247 710T170 741Q124 741 93 710T62 632Q62 586 93
555T170 524Z" />
<glyph unicode="&#xb1;" horiz-adv-x="609" d="M80 144V168H528V144H80ZM292 282V730H316V282H292ZM80 494V518H528V494H80Z" />
<glyph unicode="&#xb2;" horiz-adv-x="458" d="M53 280V300L271 500Q327 552 348 594T370 692Q370 723 359 748T315 789T223 804H77V819Q110 821 150 822T229 824Q291 824 326 807T377 760T392 692Q392 653 382 620T349 556T286 487L85 302H415V280H53Z" />
<glyph unicode="&#xb3;" horiz-adv-x="458" d="M235 276Q176 276 127 277T43 281V296H232Q266 296 295 304T342 335T361 400V446Q361 482 344 502T300 531T249 541L103 546V560L249 564Q294 566 323 586T353 652V701Q353 749 321 776T226 804H67V819Q95 822 136
823T233 824Q307 824 341 789T375 702V652Q375 614 358 593T321 563T288 553Q302 551 325 540T366 507T385 445V399Q385 339 346 308T235 276Z" />
<glyph unicode="&#xb4;" horiz-adv-x="201" d="M27 631L148 764H174L41 631H27Z" />
<glyph unicode="&#xb5;" horiz-adv-x="582" d="M255 -6Q211 -6 180 7T129 46T100 105T91 179V532H115V159Q115 103 133 72T185 29T261 16Q323 16 369 31T471 76V532H495V0H481L471 62Q428 34 372 14T255 -6ZM91 -268V219H115V-268H91Z" />
<glyph unicode="&#xb6;" horiz-adv-x="572" d="M294 -270V325Q287 320 266 317T210 315Q155 315 118 336T63 392T44 469V592Q44 640 68 671T131 717T210 732H545V706H456V0H432V708H318V-270H294ZM210 339H294V708H210Q141 708 105 674T68 590V471Q68 427 85 401T128
361T176 343T210 339Z" />
<glyph unicode="&#xb7;" horiz-adv-x="264" d="M127 364Q115 364 115 376V388Q115 400 127 400H138Q150 400 150 388V376Q150 370 147 367T138 364H127Z" />
<glyph unicode="&#xb8;" horiz-adv-x="267" d="M68 -183V-173L94 -171Q126 -169 143 -157T161 -117Q161 -97 146 -83T78 -68L92 -58Q140 -58 158 -74T176 -119Q176 -150 153 -166T88 -183H68ZM78 -68L131 10H145L92 -68H78Z" />
<glyph unicode="&#xb9;" horiz-adv-x="458" d="M225 280V802L85 758V773L226 826H247V280H225ZM77 280V300H396V280H77Z" />
<glyph unicode="&#xba;" horiz-adv-x="435" d="M61 271V291H374V271H61ZM74 556Q74 477 91 438T140 387T217 375Q262 375 294 387T343 438T361 556Q361 636 344 674T294 725T217 737Q172 737 140 725T91 675T74 556ZM52 556Q52 641 71 683T128 741T217 756Q269
756 306 741T363 684T383 556Q383 472 363 429T306 371T217 356Q165 356 128 371T72 429T52 556Z" />
<glyph unicode="&#xbb;" horiz-adv-x="604" d="M80 70L64 86L254 273L58 464L76 481L286 273L80 70ZM330 70L314 86L504 273L308 464L326 481L536 273L330 70Z" />
<glyph unicode="&#xbc;" horiz-adv-x="1275" d="M435 0L815 770H839L459 0H435ZM1119 1V154H846L838 173L1067 540H1090L862 174H1119V346L1126 388H1141V174H1230V159L1141 154V1H1119ZM235 280V802L95 758V773L236 826H257V280H235ZM87 280V300H406V280H87Z" />
<glyph unicode="&#xbd;" horiz-adv-x="1275" d="M435 0L815 770H839L459 0H435ZM848 0V20L1066 220Q1122 272 1143 314T1165 412Q1165 443 1154 468T1110 509T1018 524H872V539Q905 541 945 542T1024 544Q1086 544 1121 527T1172 480T1187 412Q1187 373 1177 340T1144
276T1081 207L880 22H1210V0H848ZM235 280V802L95 758V773L236 826H257V280H235ZM87 280V300H406V280H87Z" />
<glyph unicode="&#xbe;" horiz-adv-x="1275" d="M435 0L815 770H839L459 0H435ZM1119 1V154H846L838 173L1067 540H1090L862 174H1119V346L1126 388H1141V174H1230V159L1141 154V1H1119ZM245 276Q186 276 137 277T53 281V296H242Q276 296 305 304T352 335T371
400V446Q371 482 354 502T310 531T259 541L113 546V560L259 564Q304 566 333 586T363 652V701Q363 749 331 776T236 804H77V819Q105 822 146 823T243 824Q317 824 351 789T385 702V652Q385 614 368 593T331 563T298 553Q312 551 335 540T376 507T395 445V399Q395
339 356 308T245 276Z" />
<glyph unicode="&#xbf;" horiz-adv-x="532" d="M345 336V210H310Q205 210 162 180T118 68V-13Q118 -108 154 -147T274 -186Q330 -186 379 -176T485 -144V-158Q434 -187 381 -197T273 -208Q203 -209 164 -186T110 -119T94 -13V68Q94 153 146 193T323 234V336H345ZM340
531Q352 531 352 519V457Q352 445 340 445H329Q317 445 317 457V519Q317 525 320 528T329 531H340Z" />
<glyph unicode="&#xc0;" horiz-adv-x="666" d="M48 0L316 732H350L618 0H592L498 255H167L74 0H48ZM174 277H489L333 708L174 277ZM322 791L189 924H215L336 791H322Z" />
<glyph unicode="&#xc1;" horiz-adv-x="666" d="M48 0L316 732H350L618 0H592L498 255H167L74 0H48ZM174 277H489L333 708L174 277ZM329 791L450 924H476L343 791H329Z" />
<glyph unicode="&#xc2;" horiz-adv-x="666" d="M48 0L316 732H350L618 0H592L498 255H167L74 0H48ZM174 277H489L333 708L174 277ZM193 791L325 921H345L465 791H447L335 906L211 791H193Z" />
<glyph unicode="&#xc3;" horiz-adv-x="666" d="M48 0L316 732H350L618 0H592L498 255H167L74 0H48ZM174 277H489L333 708L174 277ZM174 821Q174 855 187 874T221 901T262 910Q285 910 306 899T347 874T386 848T425 837Q456 837 478 855T500 910H514Q514 871 490
846T423 821Q401 821 381 832T341 857T301 883T260 894Q232 894 210 878T188 821H174Z" />
<glyph unicode="&#xc4;" horiz-adv-x="666" d="M48 0L316 732H350L618 0H592L498 255H167L74 0H48ZM174 277H489L333 708L174 277ZM446 826Q434 826 434 838V900Q434 912 446 912H457Q463 912 466 909T469 900V838Q469 826 457 826H446ZM192 826Q180 826 180 838V900Q180
912 192 912H203Q209 912 212 909T215 900V838Q215 826 203 826H192Z" />
<glyph unicode="&#xc5;" horiz-adv-x="666" d="M48 0L316 732H350L618 0H592L498 255H167L74 0H48ZM174 277H489L333 708L174 277ZM333 760Q284 760 258 782T231 862Q231 920 257 942T333 965Q383 965 408 943T433 862Q433 804 408 782T333 760ZM333 776Q377 776
397 793T417 862Q417 913 397 931T333 949Q290 949 269 931T247 862Q247 811 268 794T333 776Z" />
<glyph unicode="&#xc6;" horiz-adv-x="950" d="M624 -3Q561 -4 525 23T488 121V253H233L74 0H48L449 643Q466 669 486 689T534 721T600 732Q671 731 741 730T882 726V710H594Q548 710 530 692T512 635V374L842 371V355L512 352V123Q512 87 524 64T562 30T624 19H882V3Q818
2 754 1T624 -3ZM246 275H488V657L246 275Z" />
<glyph unicode="&#xc7;" horiz-adv-x="577" d="M323 -6Q255 -6 207 9T128 63T84 176T70 368Q70 478 84 550T129 663T210 721T331 738Q348 738 381 736T453 729T527 718V702Q511 705 479 708T407 713T329 716Q266 716 221 701T148 648T107 542T94 368Q94 255 107
185T147 79T218 29T324 16Q399 16 447 20T527 30V14Q494 8 456 4T383 -3T323 -6ZM265 -183V-173L291 -171Q323 -169 340 -157T358 -117Q358 -97 343 -83T275 -68L289 -58Q337 -58 355 -74T373 -119Q373 -150 350 -166T285 -183H265ZM275 -68L328 10H342L289 -68H275Z"
/>
<glyph unicode="&#xc8;" horiz-adv-x="579" d="M225 -3Q200 -3 176 1T132 17T100 55T88 123V602Q88 639 98 664T127 704T167 725T214 732Q264 731 313 730T412 728T511 726V710H214Q168 710 140 685T112 602V374L471 371V355L112 352V123Q112 76 128 54T171 26T224
19H511V3Q464 2 416 1T321 -1T225 -3ZM299 791L166 924H192L313 791H299Z" />
<glyph unicode="&#xc9;" horiz-adv-x="579" d="M225 -3Q200 -3 176 1T132 17T100 55T88 123V602Q88 639 98 664T127 704T167 725T214 732Q264 731 313 730T412 728T511 726V710H214Q168 710 140 685T112 602V374L471 371V355L112 352V123Q112 76 128 54T171 26T224
19H511V3Q464 2 416 1T321 -1T225 -3ZM306 791L427 924H453L320 791H306Z" />
<glyph unicode="&#xca;" horiz-adv-x="579" d="M225 -3Q200 -3 176 1T132 17T100 55T88 123V602Q88 639 98 664T127 704T167 725T214 732Q264 731 313 730T412 728T511 726V710H214Q168 710 140 685T112 602V374L471 371V355L112 352V123Q112 76 128 54T171 26T224
19H511V3Q464 2 416 1T321 -1T225 -3ZM170 791L302 921H322L442 791H424L312 906L188 791H170Z" />
<glyph unicode="&#xcb;" horiz-adv-x="579" d="M225 -3Q200 -3 176 1T132 17T100 55T88 123V602Q88 639 98 664T127 704T167 725T214 732Q264 731 313 730T412 728T511 726V710H214Q168 710 140 685T112 602V374L471 371V355L112 352V123Q112 76 128 54T171 26T224
19H511V3Q464 2 416 1T321 -1T225 -3ZM423 826Q411 826 411 838V900Q411 912 423 912H434Q440 912 443 909T446 900V838Q446 826 434 826H423ZM169 826Q157 826 157 838V900Q157 912 169 912H180Q186 912 189 909T192 900V838Q192 826 180 826H169Z" />
<glyph unicode="&#xcc;" horiz-adv-x="200" d="M88 0V732H112V0H88ZM89 791L-44 924H-18L103 791H89Z" />
<glyph unicode="&#xcd;" horiz-adv-x="200" d="M88 0V732H112V0H88ZM96 791L217 924H243L110 791H96Z" />
<glyph unicode="&#xce;" horiz-adv-x="200" d="M88 0V732H112V0H88ZM-40 791L92 921H112L232 791H214L102 906L-22 791H-40Z" />
<glyph unicode="&#xcf;" horiz-adv-x="200" d="M88 0V732H112V0H88ZM213 826Q201 826 201 838V900Q201 912 213 912H224Q230 912 233 909T236 900V838Q236 826 224 826H213ZM-41 826Q-53 826 -53 838V900Q-53 912 -41 912H-30Q-24 912 -21 909T-18 900V838Q-18
826 -30 826H-41Z" />
<glyph unicode="&#xd0;" horiz-adv-x="660" d="M17 361V383H321V361H17ZM88 0V732H361Q421 732 464 710T535 643T576 529T590 366Q590 258 564 176T487 47T361 0H88ZM112 22H361Q431 22 476 66T543 188T566 366Q566 456 555 521T519 628T455 690T361 710H112V22Z" />
<glyph unicode="&#xd1;" horiz-adv-x="665" d="M108 0V732H130L573 44V732H597V0H575L132 688V0H108ZM178 821Q178 855 191 874T225 901T266 910Q289 910 310 899T351 874T390 848T429 837Q460 837 482 855T504 910H518Q518 871 494 846T427 821Q405 821 385 832T345
857T305 883T264 894Q236 894 214 878T192 821H178Z" />
<glyph unicode="&#xd2;" horiz-adv-x="676" d="M338 -6Q271 -6 221 6T137 56T87 166T70 361Q70 483 87 557T138 671T222 724T338 738Q407 738 457 724T541 671T590 558T606 361Q606 240 590 167T540 56T456 7T338 -6ZM338 16Q402 16 448 28T524 75T568 179T582
361Q582 480 568 551T524 657T448 704T338 716Q279 716 234 705T157 658T110 551T94 361Q94 248 107 180T149 76T224 28T338 16ZM327 791L194 924H220L341 791H327Z" />
<glyph unicode="&#xd3;" horiz-adv-x="676" d="M338 -6Q271 -6 221 6T137 56T87 166T70 361Q70 483 87 557T138 671T222 724T338 738Q407 738 457 724T541 671T590 558T606 361Q606 240 590 167T540 56T456 7T338 -6ZM338 16Q402 16 448 28T524 75T568 179T582
361Q582 480 568 551T524 657T448 704T338 716Q279 716 234 705T157 658T110 551T94 361Q94 248 107 180T149 76T224 28T338 16ZM334 791L455 924H481L348 791H334Z" />
<glyph unicode="&#xd4;" horiz-adv-x="676" d="M338 -6Q271 -6 221 6T137 56T87 166T70 361Q70 483 87 557T138 671T222 724T338 738Q407 738 457 724T541 671T590 558T606 361Q606 240 590 167T540 56T456 7T338 -6ZM338 16Q402 16 448 28T524 75T568 179T582
361Q582 480 568 551T524 657T448 704T338 716Q279 716 234 705T157 658T110 551T94 361Q94 248 107 180T149 76T224 28T338 16ZM198 791L330 921H350L470 791H452L340 906L216 791H198Z" />
<glyph unicode="&#xd5;" horiz-adv-x="676" d="M338 -6Q271 -6 221 6T137 56T87 166T70 361Q70 483 87 557T138 671T222 724T338 738Q407 738 457 724T541 671T590 558T606 361Q606 240 590 167T540 56T456 7T338 -6ZM338 16Q402 16 448 28T524 75T568 179T582
361Q582 480 568 551T524 657T448 704T338 716Q279 716 234 705T157 658T110 551T94 361Q94 248 107 180T149 76T224 28T338 16ZM179 821Q179 855 192 874T226 901T267 910Q290 910 311 899T352 874T391 848T430 837Q461 837 483 855T505 910H519Q519 871 495 846T428
821Q406 821 386 832T346 857T306 883T265 894Q237 894 215 878T193 821H179Z" />
<glyph unicode="&#xd6;" horiz-adv-x="676" d="M338 -6Q271 -6 221 6T137 56T87 166T70 361Q70 483 87 557T138 671T222 724T338 738Q407 738 457 724T541 671T590 558T606 361Q606 240 590 167T540 56T456 7T338 -6ZM338 16Q402 16 448 28T524 75T568 179T582
361Q582 480 568 551T524 657T448 704T338 716Q279 716 234 705T157 658T110 551T94 361Q94 248 107 180T149 76T224 28T338 16ZM451 826Q439 826 439 838V900Q439 912 451 912H462Q468 912 471 909T474 900V838Q474 826 462 826H451ZM197 826Q185 826 185 838V900Q185
912 197 912H208Q214 912 217 909T220 900V838Q220 826 208 826H197Z" />
<glyph unicode="&#xd7;" horiz-adv-x="609" d="M454 189L137 506L154 523L471 206L454 189ZM154 189L137 206L454 523L471 506L154 189Z" />
<glyph unicode="&#xd8;" horiz-adv-x="676" d="M85 0L566 732H591L110 0H85ZM338 -6Q271 -6 221 6T137 56T87 166T70 361Q70 483 87 557T138 671T222 724T338 738Q407 738 457 724T541 671T590 558T606 361Q606 240 590 167T540 56T456 7T338 -6ZM338 16Q402 16
448 28T524 75T568 179T582 361Q582 480 568 551T524 657T448 704T338 716Q279 716 234 705T157 658T110 551T94 361Q94 248 107 180T149 76T224 28T338 16Z" />
<glyph unicode="&#xd9;" horiz-adv-x="668" d="M334 -6Q272 -6 224 5T144 43T95 112T78 220V732H102V220Q102 139 129 95T209 34T334 16Q407 16 459 33T538 95T566 220V732H590V220Q590 156 574 113T525 43T444 6T334 -6ZM323 791L190 924H216L337 791H323Z" />
<glyph unicode="&#xda;" horiz-adv-x="668" d="M334 -6Q272 -6 224 5T144 43T95 112T78 220V732H102V220Q102 139 129 95T209 34T334 16Q407 16 459 33T538 95T566 220V732H590V220Q590 156 574 113T525 43T444 6T334 -6ZM330 791L451 924H477L344 791H330Z" />
<glyph unicode="&#xdb;" horiz-adv-x="668" d="M334 -6Q272 -6 224 5T144 43T95 112T78 220V732H102V220Q102 139 129 95T209 34T334 16Q407 16 459 33T538 95T566 220V732H590V220Q590 156 574 113T525 43T444 6T334 -6ZM194 791L326 921H346L466 791H448L336
906L212 791H194Z" />
<glyph unicode="&#xdc;" horiz-adv-x="668" d="M334 -6Q272 -6 224 5T144 43T95 112T78 220V732H102V220Q102 139 129 95T209 34T334 16Q407 16 459 33T538 95T566 220V732H590V220Q590 156 574 113T525 43T444 6T334 -6ZM447 826Q435 826 435 838V900Q435 912
447 912H458Q464 912 467 909T470 900V838Q470 826 458 826H447ZM193 826Q181 826 181 838V900Q181 912 193 912H204Q210 912 213 909T216 900V838Q216 826 204 826H193Z" />
<glyph unicode="&#xdd;" horiz-adv-x="610" d="M293 0V260L50 732H76L305 283L534 732H560L317 260V0H293ZM301 791L422 924H448L315 791H301Z" />
<glyph unicode="&#xde;" horiz-adv-x="540" d="M88 0V732H112V585H314Q344 585 374 577T431 548T474 488T490 385Q490 321 473 280T427 217T366 187T304 178Q293 178 267 178T210 180T152 182T112 184V0H88ZM112 200H304Q346 200 383 215T442 270T465 385Q465
459 443 497T387 549T314 563H112V200Z" />
<glyph unicode="&#xdf;" horiz-adv-x="566" d="M383 -8Q332 -8 284 -3T210 7V21Q239 20 285 18T383 16Q440 16 469 36T507 83T517 132V163Q517 194 500 210T455 234T398 249T340 265T296 294T278 348Q278 384 297 411T344 460T399 506T446 557T465 622Q465 682
420 713T289 745Q203 745 154 697T105 558V0H81V558Q81 616 103 664T172 740T289 769Q363 769 406 749T469 695T488 623Q488 580 469 550T423 497T368 452T321 406T302 348Q302 320 319 305T364 282T421 268T479 251T523 220T541 163V132Q541 98 530 72T498 28T448
1T383 -8Z" />
<glyph unicode="&#xe0;" horiz-adv-x="540" d="M187 -6Q130 -6 92 28T54 126V157Q54 221 94 259T213 298H429V387Q429 427 416 456T369 502T274 519H104V535Q135 536 178 538T276 541Q340 542 379 524T435 472T453 387V0H437L429 64Q428 64 405 54T344 29T266
5T187 -6ZM187 18Q211 17 242 23T306 39T367 57T412 73T429 80V282L207 275Q136 273 107 240T78 157V131Q78 89 95 64T137 29T187 18ZM279 631L146 764H172L293 631H279Z" />
<glyph unicode="&#xe1;" horiz-adv-x="540" d="M187 -6Q130 -6 92 28T54 126V157Q54 221 94 259T213 298H429V387Q429 427 416 456T369 502T274 519H104V535Q135 536 178 538T276 541Q340 542 379 524T435 472T453 387V0H437L429 64Q428 64 405 54T344 29T266
5T187 -6ZM187 18Q211 17 242 23T306 39T367 57T412 73T429 80V282L207 275Q136 273 107 240T78 157V131Q78 89 95 64T137 29T187 18ZM246 631L367 764H393L260 631H246Z" />
<glyph unicode="&#xe2;" horiz-adv-x="540" d="M187 -6Q130 -6 92 28T54 126V157Q54 221 94 259T213 298H429V387Q429 427 416 456T369 502T274 519H104V535Q135 536 178 538T276 541Q340 542 379 524T435 472T453 387V0H437L429 64Q428 64 405 54T344 29T266
5T187 -6ZM187 18Q211 17 242 23T306 39T367 57T412 73T429 80V282L207 275Q136 273 107 240T78 157V131Q78 89 95 64T137 29T187 18ZM130 631L262 761H282L402 631H384L272 746L148 631H130Z" />
<glyph unicode="&#xe3;" horiz-adv-x="540" d="M187 -6Q130 -6 92 28T54 126V157Q54 221 94 259T213 298H429V387Q429 427 416 456T369 502T274 519H104V535Q135 536 178 538T276 541Q340 542 379 524T435 472T453 387V0H437L429 64Q428 64 405 54T344 29T266
5T187 -6ZM187 18Q211 17 242 23T306 39T367 57T412 73T429 80V282L207 275Q136 273 107 240T78 157V131Q78 89 95 64T137 29T187 18ZM117 661Q117 695 130 714T164 741T205 750Q228 750 249 739T290 714T329 688T368 677Q399 677 421 695T443 750H457Q457 711
433 686T366 661Q344 661 324 672T284 697T244 723T203 734Q175 734 153 718T131 661H117Z" />
<glyph unicode="&#xe4;" horiz-adv-x="540" d="M187 -6Q130 -6 92 28T54 126V157Q54 221 94 259T213 298H429V387Q429 427 416 456T369 502T274 519H104V535Q135 536 178 538T276 541Q340 542 379 524T435 472T453 387V0H437L429 64Q428 64 405 54T344 29T266
5T187 -6ZM187 18Q211 17 242 23T306 39T367 57T412 73T429 80V282L207 275Q136 273 107 240T78 157V131Q78 89 95 64T137 29T187 18ZM362 666Q350 666 350 678V740Q350 752 362 752H373Q379 752 382 749T385 740V678Q385 666 373 666H362ZM168 666Q156 666 156
678V740Q156 752 168 752H179Q185 752 188 749T191 740V678Q191 666 179 666H168Z" />
<glyph unicode="&#xe5;" horiz-adv-x="540" d="M187 -6Q130 -6 92 28T54 126V157Q54 221 94 259T213 298H429V387Q429 427 416 456T369 502T274 519H104V535Q135 536 178 538T276 541Q340 542 379 524T435 472T453 387V0H437L429 64Q428 64 405 54T344 29T266
5T187 -6ZM187 18Q211 17 242 23T306 39T367 57T412 73T429 80V282L207 275Q136 273 107 240T78 157V131Q78 89 95 64T137 29T187 18ZM270 600Q221 600 195 622T168 702Q168 760 194 782T270 805Q320 805 345 783T370 702Q370 644 345 622T270 600ZM270 616Q314
616 334 633T354 702Q354 753 334 771T270 789Q227 789 206 771T184 702Q184 651 205 634T270 616Z" />
<glyph unicode="&#xe6;" horiz-adv-x="905" d="M187 -6Q146 -6 116 9T70 55T54 130V155Q54 198 72 228T125 274T207 290H429V387Q429 422 416 452T371 500T279 519H104V535Q137 537 175 538T280 541Q339 542 386 515T448 427Q465 493 514 515T632 537Q699 537
744 522T812 470T835 369Q835 308 799 288T698 268H453Q452 191 467 142T509 65T571 27T646 16H823V0Q780 -3 732 -4T646 -6Q582 -6 544 13T485 60T450 118Q421 85 380 57T290 12T187 -6ZM187 18Q255 18 323 49T444 139Q440 157 435 189T429 268H207Q135 268 107
235T78 155V131Q78 89 93 64T134 29T187 18ZM453 290H698Q730 290 755 294T796 315T811 369Q811 421 795 453T741 500T633 515Q564 515 525 498T470 432T453 290Z" />
<glyph unicode="&#xe7;" horiz-adv-x="490" d="M274 -6Q231 -6 194 5T129 46T86 128T70 266Q70 349 85 402T127 484T191 524T274 536Q307 536 355 535T442 530V514H274Q219 514 179 495T117 421T94 262Q94 163 118 110T182 36T274 16H450V0Q428 -1 401 -2T341
-5T274 -6ZM205 -183V-173L231 -171Q263 -169 280 -157T298 -117Q298 -97 283 -83T215 -68L229 -58Q277 -58 295 -74T313 -119Q313 -150 290 -166T225 -183H205ZM215 -68L268 10H282L229 -68H215Z" />
<glyph unicode="&#xe8;" horiz-adv-x="544" d="M278 -6Q198 -6 153 20T89 106T70 268Q70 372 90 430T158 513T283 537Q347 537 389 522T452 469T474 367Q474 326 458 300T411 263T338 251H94Q94 165 109 114T164 39T280 16H464V0Q413 -4 372 -5T278 -6ZM94 273H338Q395
273 422 293T450 367Q450 425 434 457T381 502T283 515Q209 515 168 495T111 422T94 273ZM279 631L146 764H172L293 631H279Z" />
<glyph unicode="&#xe9;" horiz-adv-x="544" d="M278 -6Q198 -6 153 20T89 106T70 268Q70 372 90 430T158 513T283 537Q347 537 389 522T452 469T474 367Q474 326 458 300T411 263T338 251H94Q94 165 109 114T164 39T280 16H464V0Q413 -4 372 -5T278 -6ZM94 273H338Q395
273 422 293T450 367Q450 425 434 457T381 502T283 515Q209 515 168 495T111 422T94 273ZM246 631L367 764H393L260 631H246Z" />
<glyph unicode="&#xea;" horiz-adv-x="544" d="M278 -6Q198 -6 153 20T89 106T70 268Q70 372 90 430T158 513T283 537Q347 537 389 522T452 469T474 367Q474 326 458 300T411 263T338 251H94Q94 165 109 114T164 39T280 16H464V0Q413 -4 372 -5T278 -6ZM94 273H338Q395
273 422 293T450 367Q450 425 434 457T381 502T283 515Q209 515 168 495T111 422T94 273ZM130 631L262 761H282L402 631H384L272 746L148 631H130Z" />
<glyph unicode="&#xeb;" horiz-adv-x="544" d="M278 -6Q198 -6 153 20T89 106T70 268Q70 372 90 430T158 513T283 537Q347 537 389 522T452 469T474 367Q474 326 458 300T411 263T338 251H94Q94 165 109 114T164 39T280 16H464V0Q413 -4 372 -5T278 -6ZM94 273H338Q395
273 422 293T450 367Q450 425 434 457T381 502T283 515Q209 515 168 495T111 422T94 273ZM362 666Q350 666 350 678V740Q350 752 362 752H373Q379 752 382 749T385 740V678Q385 666 373 666H362ZM168 666Q156 666 156 678V740Q156 752 168 752H179Q185 752 188
749T191 740V678Q191 666 179 666H168Z" />
<glyph unicode="&#xec;" horiz-adv-x="202" d="M91 0V531H115V0H91ZM368 631L235 764H261L382 631H368Z" />
<glyph unicode="&#xed;" horiz-adv-x="202" d="M91 0V531H115V0H91ZM79 631L200 764H226L93 631H79Z" />
<glyph unicode="&#xee;" horiz-adv-x="202" d="M91 0V531H115V0H91ZM219 631L351 761H371L491 631H473L361 746L237 631H219Z" />
<glyph unicode="&#xef;" horiz-adv-x="202" d="M91 0V531H115V0H91ZM195 666Q183 666 183 678V740Q183 752 195 752H206Q212 752 215 749T218 740V678Q218 666 206 666H195ZM1 666Q-11 666 -11 678V740Q-11 752 1 752H12Q18 752 21 749T24 740V678Q24 666 12 666H1Z" />
<glyph unicode="&#xf0;" horiz-adv-x="578" d="M288 -6Q237 -6 197 4T128 43T85 126T70 266Q70 352 84 405T127 487T196 526T288 537Q337 537 374 528T437 492T479 417Q486 398 492 376T503 327T508 266Q508 180 493 126T450 44T380 5T288 -6ZM288 16Q334 16 370
24T432 58T470 134T484 266Q484 349 471 398T432 473T371 506T288 515Q242 515 206 507T145 473T107 399T94 266Q94 184 107 134T145 59T206 25T288 16ZM508 264H486Q486 399 463 488T396 632T294 713T164 749V769Q237 760 299 732T409 647T482 497T508 264ZM205
605L200 620L506 741L512 726L205 605Z" />
<glyph unicode="&#xf1;" horiz-adv-x="582" d="M91 0V531H105L115 469Q159 498 214 519T331 540Q384 540 420 516T476 453T495 370V0H471V370Q471 410 455 443T407 497T331 518Q287 518 252 511T185 489T115 455V0H91ZM137 661Q137 695 150 714T184 741T225 750Q248
750 269 739T310 714T349 688T388 677Q419 677 441 695T463 750H477Q477 711 453 686T386 661Q364 661 344 672T304 697T264 723T223 734Q195 734 173 718T151 661H137Z" />
<glyph unicode="&#xf2;" horiz-adv-x="578" d="M288 -6Q237 -6 197 4T128 43T85 126T70 266Q70 352 84 405T127 487T196 526T288 537Q339 537 380 527T449 488T493 406T508 266Q508 180 493 126T450 44T380 5T288 -6ZM288 16Q334 16 370 24T432 58T470 134T484
266Q484 349 471 398T432 473T371 506T288 515Q242 515 206 507T145 473T107 399T94 266Q94 184 107 134T145 59T206 25T288 16ZM297 631L164 764H190L311 631H297Z" />
<glyph unicode="&#xf3;" horiz-adv-x="578" d="M288 -6Q237 -6 197 4T128 43T85 126T70 266Q70 352 84 405T127 487T196 526T288 537Q339 537 380 527T449 488T493 406T508 266Q508 180 493 126T450 44T380 5T288 -6ZM288 16Q334 16 370 24T432 58T470 134T484
266Q484 349 471 398T432 473T371 506T288 515Q242 515 206 507T145 473T107 399T94 266Q94 184 107 134T145 59T206 25T288 16ZM264 631L385 764H411L278 631H264Z" />
<glyph unicode="&#xf4;" horiz-adv-x="578" d="M288 -6Q237 -6 197 4T128 43T85 126T70 266Q70 352 84 405T127 487T196 526T288 537Q339 537 380 527T449 488T493 406T508 266Q508 180 493 126T450 44T380 5T288 -6ZM288 16Q334 16 370 24T432 58T470 134T484
266Q484 349 471 398T432 473T371 506T288 515Q242 515 206 507T145 473T107 399T94 266Q94 184 107 134T145 59T206 25T288 16ZM148 631L280 761H300L420 631H402L290 746L166 631H148Z" />
<glyph unicode="&#xf5;" horiz-adv-x="578" d="M288 -6Q237 -6 197 4T128 43T85 126T70 266Q70 352 84 405T127 487T196 526T288 537Q339 537 380 527T449 488T493 406T508 266Q508 180 493 126T450 44T380 5T288 -6ZM288 16Q334 16 370 24T432 58T470 134T484
266Q484 349 471 398T432 473T371 506T288 515Q242 515 206 507T145 473T107 399T94 266Q94 184 107 134T145 59T206 25T288 16ZM135 661Q135 695 148 714T182 741T223 750Q246 750 267 739T308 714T347 688T386 677Q417 677 439 695T461 750H475Q475 711 451 686T384
661Q362 661 342 672T302 697T262 723T221 734Q193 734 171 718T149 661H135Z" />
<glyph unicode="&#xf6;" horiz-adv-x="578" d="M288 -6Q237 -6 197 4T128 43T85 126T70 266Q70 352 84 405T127 487T196 526T288 537Q339 537 380 527T449 488T493 406T508 266Q508 180 493 126T450 44T380 5T288 -6ZM288 16Q334 16 370 24T432 58T470 134T484
266Q484 349 471 398T432 473T371 506T288 515Q242 515 206 507T145 473T107 399T94 266Q94 184 107 134T145 59T206 25T288 16ZM380 666Q368 666 368 678V740Q368 752 380 752H391Q397 752 400 749T403 740V678Q403 666 391 666H380ZM186 666Q174 666 174 678V740Q174
752 186 752H197Q203 752 206 749T209 740V678Q209 666 197 666H186Z" />
<glyph unicode="&#xf7;" horiz-adv-x="609" d="M298 513Q274 513 274 536V563Q274 588 298 588H310Q335 588 335 563V536Q335 523 328 518T310 513H298ZM298 124Q274 124 274 147V174Q274 199 298 199H310Q335 199 335 174V147Q335 134 328 129T310 124H298ZM80
344V368H528V344H80Z" />
<glyph unicode="&#xf8;" horiz-adv-x="578" d="M70 0L486 531H508L92 0H70ZM288 -6Q237 -6 197 4T128 43T85 126T70 266Q70 352 84 405T127 487T196 526T288 537Q339 537 380 527T449 488T493 406T508 266Q508 180 493 126T450 44T380 5T288 -6ZM288 16Q334 16
370 24T432 58T470 134T484 266Q484 349 471 398T432 473T371 506T288 515Q242 515 206 507T145 473T107 399T94 266Q94 184 107 134T145 59T206 25T288 16Z" />
<glyph unicode="&#xf9;" horiz-adv-x="582" d="M255 -6Q176 -6 134 31T91 159V531H115V159Q115 75 152 46T261 16Q323 16 369 31T471 76V531H495V0H481L471 62Q428 34 372 14T255 -6ZM289 631L156 764H182L303 631H289Z" />
<glyph unicode="&#xfa;" horiz-adv-x="582" d="M255 -6Q176 -6 134 31T91 159V531H115V159Q115 75 152 46T261 16Q323 16 369 31T471 76V531H495V0H481L471 62Q428 34 372 14T255 -6ZM256 631L377 764H403L270 631H256Z" />
<glyph unicode="&#xfb;" horiz-adv-x="582" d="M255 -6Q176 -6 134 31T91 159V531H115V159Q115 75 152 46T261 16Q323 16 369 31T471 76V531H495V0H481L471 62Q428 34 372 14T255 -6ZM140 631L272 761H292L412 631H394L282 746L158 631H140Z" />
<glyph unicode="&#xfc;" horiz-adv-x="582" d="M255 -6Q176 -6 134 31T91 159V531H115V159Q115 75 152 46T261 16Q323 16 369 31T471 76V531H495V0H481L471 62Q428 34 372 14T255 -6ZM372 666Q360 666 360 678V740Q360 752 372 752H383Q389 752 392 749T395 740V678Q395
666 383 666H372ZM178 666Q166 666 166 678V740Q166 752 178 752H189Q195 752 198 749T201 740V678Q201 666 189 666H178Z" />
<glyph unicode="&#xfd;" horiz-adv-x="519" d="M215 -237L291 0Q281 1 260 7T215 37T174 110L24 531H50L198 116Q212 77 229 58T262 32T288 25T299 25L470 531H495L272 -138L227 -237H215ZM236 631L357 764H383L250 631H236Z" />
<glyph unicode="&#xfe;" horiz-adv-x="572" d="M91 -237V763H115V474Q132 485 165 500T237 526T310 537Q364 537 401 513T460 448T492 361T502 268Q502 175 480 114T415 24T310 -6Q261 -6 210 12T115 57V-237H91ZM310 16Q360 16 397 40T456 120T478 268Q478 355
454 409T391 489T310 515Q251 515 203 497T115 458V73Q162 48 211 32T310 16Z" />
<glyph unicode="&#xff;" horiz-adv-x="519" d="M215 -237L291 0Q281 1 260 7T215 37T174 110L24 531H50L198 116Q212 77 229 58T262 32T288 25T299 25L470 531H495L272 -138L227 -237H215ZM352 666Q340 666 340 678V740Q340 752 352 752H363Q369 752 372 749T375
740V678Q375 666 363 666H352ZM158 666Q146 666 146 678V740Q146 752 158 752H169Q175 752 178 749T181 740V678Q181 666 169 666H158Z" />
<glyph unicode="&#x2013;" horiz-adv-x="527" d="M27 277V302H500V277H27Z" />
<glyph unicode="&#x2014;" horiz-adv-x="750" d="M27 277V302H723V277H27Z" />
<glyph unicode="&#x2018;" horiz-adv-x="155" d="M69 551Q64 551 62 555T60 567V701Q60 718 64 726T75 737T85 740Q87 740 88 740T93 739V732Q83 732 79 728T74 713V646H81Q87 646 91 642T95 630V567Q95 551 81 551H69Z" />
<glyph unicode="&#x2019;" horiz-adv-x="155" d="M70 551Q69 551 67 551T62 552V559Q72 559 76 563T81 578V645H74Q68 645 64 649T60 661V724Q60 740 74 740H86Q91 740 93 736T95 724V590Q95 573 91 565T81 554T70 551Z" />
<glyph unicode="&#x201a;" horiz-adv-x="155" d="M70 -100Q69 -100 67 -100T62 -99V-92Q72 -92 76 -88T81 -73V-6H74Q68 -6 64 -2T60 10V73Q60 89 74 89H86Q91 89 93 85T95 73V-61Q95 -78 91 -86T81 -97T70 -100Z" />
<glyph unicode="&#x201c;" horiz-adv-x="235" d="M69 551Q64 551 62 555T60 567V701Q60 718 64 726T75 737T85 740Q87 740 88 740T93 739V732Q83 732 79 728T74 713V646H81Q87 646 91 642T95 630V567Q95 551 81 551H69ZM149 551Q144 551 142 555T140 567V701Q140
718 144 726T155 737T165 740Q167 740 168 740T173 739V732Q163 732 159 728T154 713V646H161Q167 646 171 642T175 630V567Q175 551 161 551H149Z" />
<glyph unicode="&#x201d;" horiz-adv-x="235" d="M70 551Q69 551 67 551T62 552V559Q72 559 76 563T81 578V645H74Q68 645 64 649T60 661V724Q60 740 74 740H86Q91 740 93 736T95 724V590Q95 573 91 565T81 554T70 551ZM150 551Q149 551 147 551T142 552V559Q152
559 156 563T161 578V645H154Q148 645 144 649T140 661V724Q140 740 154 740H166Q171 740 173 736T175 724V590Q175 573 171 565T161 554T150 551Z" />
<glyph unicode="&#x201e;" horiz-adv-x="235" d="M70 -100Q69 -100 67 -100T62 -99V-92Q72 -92 76 -88T81 -73V-6H74Q68 -6 64 -2T60 10V73Q60 89 74 89H86Q91 89 93 85T95 73V-61Q95 -78 91 -86T81 -97T70 -100ZM150 -100Q149 -100 147 -100T142 -99V-92Q152
-92 156 -88T161 -73V-6H154Q148 -6 144 -2T140 10V73Q140 89 154 89H166Q171 89 173 85T175 73V-61Q175 -78 171 -86T161 -97T150 -100Z" />
<glyph unicode="&#x2022;" horiz-adv-x="321" d="M148 334Q115 334 115 366V396Q115 412 123 421T148 431H172Q207 431 207 396V366Q207 348 197 341T172 334H148Z" />
<glyph unicode="&#x2039;" horiz-adv-x="354" d="M278 70L68 278L274 481L290 465L100 278L296 87L278 70Z" />
<glyph unicode="&#x203a;" horiz-adv-x="354" d="M80 70L64 86L254 273L58 464L76 481L286 273L80 70Z" />
</font>
</defs>
</svg>
