<?xml version="1.0" standalone="no"?>
<!DOCTYPE svg PUBLIC "-//W3C//DTD SVG 1.1//EN" "http://www.w3.org/Graphics/SVG/1.1/DTD/svg11.dtd">
<svg xmlns="http://www.w3.org/2000/svg">
<defs >
<font id="CrimsonText" horiz-adv-x="547" ><font-face
    font-family="Crimson Text"
    units-per-em="1024"
    panose-1="0 0 0 0 0 0 0 0 0 0"
    ascent="972"
    descent="-359"
    alphabetic="0" />
<glyph unicode=" " glyph-name="space" horiz-adv-x="229" />
<glyph unicode="!" glyph-name="exclam" horiz-adv-x="280" d="M139 152Q128 147 124 153T119 170L103 396Q98 466 94 512T90 579Q90 604 104 623T142 642Q164 642 175 624T187 579Q187 558 182 498T169 355T156 181Q155 166 152 161T139 152ZM140 -15Q116 -15
99 2T81 43Q81 67 98 84T140 102Q166 102 182 85T198 43Q198 19 181 2T140 -15Z" />
<glyph unicode="&quot;" glyph-name="quotedbl" horiz-adv-x="348" d="M92 434Q78 434 77 447Q75 470 70 497T58 555Q43 617 43 635Q43 646 50 660T72 686T105 698H110Q128 698 135 686Q142 673 142 633Q142 604 127 542Q119 511 115 488T108 449Q107 434 92 434ZM255
434Q241 434 240 447Q238 470 233 497T221 555Q206 617 206 635Q206 646 213 660T235 686T268 698H273Q291 698 298 686Q305 673 305 633Q305 604 290 542Q282 511 278 488T271 449Q270 434 255 434Z" />
<glyph unicode="#" glyph-name="numbersign" horiz-adv-x="476" d="M107 15Q95 15 93 24L116 175H30Q24 175 24 185Q24 197 32 226Q33 231 38 231H125L137 317H30Q24 319 24 328Q24 340 32 369Q33 374 38 374H146L170 530Q179 539 217 539Q229 539 227 530L204
374H298L322 530Q331 539 369 539Q381 539 379 530L355 374H437Q444 374 444 367Q444 353 435 324L429 317H346L333 231H437Q444 231 444 224Q444 210 435 181Q433 177 433 177Q431 175 430 175H325L301 24Q300 17 291 16T271 15H258Q245 15 245 22V24L267 175H173L151
24Q149 17 138 16T120 15H107ZM182 231H277L289 317H195L182 231Z" />
<glyph unicode="$" glyph-name="dollar" horiz-adv-x="491" d="M199 -52Q164 -52 164 -43L171 -1Q132 5 73 15Q50 78 45 166Q45 174 63 174Q77 174 85 166Q110 71 178 43L219 287Q135 333 95 373T55 473Q55 522 81 560T151 621T245 644Q261 644 277 642L284 683Q319
683 319 676L313 637Q330 633 349 629T390 621Q395 576 398 542T401 484Q401 476 394 476Q370 477 368 487Q364 511 348 538T304 583L266 357Q288 345 301 338T320 328Q325 325 338 317T364 300T382 285Q393 275 407 262T428 234Q434 221 439 205T445 170Q445 118
417 78T342 15T241 -8Q228 -8 207 -6L199 -52ZM131 505Q131 463 156 436T233 377L270 598Q255 602 240 602Q131 602 131 505ZM253 269L252 270L213 33Q227 31 243 31Q292 31 327 60T362 141Q362 162 355 180T341 208Q335 219 316 232Q303 242 298 245T285 252T262
264L253 269Z" />
<glyph unicode="%" glyph-name="percent" horiz-adv-x="680" d="M199 325Q158 325 124 346T69 404T49 484Q49 530 68 566T121 623T199 645Q242 645 275 624T327 566T346 484Q346 442 328 406T276 348T199 325ZM91 -12Q78 -12 73 -1L555 624Q566 636 575 636Q597
636 598 634T607 624L124 0Q114 -12 91 -12ZM205 350Q245 350 262 387T280 476Q280 513 270 546T240 600T195 621Q154 621 134 584T113 496Q113 460 126 427T160 372T205 350ZM487 -7Q446 -7 412 14T357 72T337 152Q337 198 356 234T410 291T488 313Q531 313 563
292T615 234T634 152Q634 110 616 74T564 15T487 -7ZM494 18Q534 18 551 55T568 144Q568 181 557 214T528 268T484 289Q443 289 422 252T401 164Q401 129 414 95T448 40T494 18Z" />
<glyph unicode="&amp;" glyph-name="ampersand" horiz-adv-x="671" d="M248 -3Q159 -3 107 40T54 158Q54 223 98 266T220 350Q199 385 181 430T162 519Q162 557 181 588T234 637T309 656Q376 656 415 627T454 544Q454 483 415 440T305 353Q334 304 371 254T453
154Q466 173 476 191T494 227Q510 260 510 271Q510 285 494 286T465 289Q463 295 463 301Q463 309 466 312H545Q580 312 607 314T655 317Q660 314 660 304Q660 289 654 289Q646 289 632 286T604 280T585 272Q581 268 567 245T531 188T481 123Q513 90 530 74T558
51T579 45Q593 45 609 62T631 91Q639 91 646 85T654 73Q648 61 636 44T603 14T545 0Q519 0 491 18T446 54L430 72Q345 -3 248 -3ZM287 385Q339 415 362 445T386 530Q386 566 366 593T314 620Q281 620 258 599T235 543Q235 479 287 385ZM282 40Q313 40 348 55T407
95Q388 115 363 147T313 213T270 274L243 314Q215 294 192 276T154 233T140 172Q140 106 181 73T282 40Z" />
<glyph unicode="&apos;" glyph-name="quotesingle" horiz-adv-x="186" d="M91 434Q77 434 76 447Q74 470 69 497T57 555Q42 617 42 635Q42 646 49 660T71 686T104 698H109Q127 698 134 686Q141 673 141 633Q141 604 126 542Q118 511 114 488T107 449Q106 434 91 434Z" />
<glyph unicode="(" glyph-name="parenleft" horiz-adv-x="323" d="M263 -121Q242 -121 211 -87T147 2Q126 38 109 87T82 193T71 305Q71 388 89 467T137 609T199 710T263 748Q268 748 272 739T276 724Q276 721 275 721Q250 709 226 670T181 574T148 447T136 305Q136
235 150 168T186 44T232 -49T275 -95Q277 -97 277 -100Q277 -106 273 -113T263 -121Z" />
<glyph unicode=")" glyph-name="parenright" horiz-adv-x="322" d="M59 -121Q54 -121 50 -114T45 -100Q45 -97 47 -95Q66 -86 90 -49T136 44T172 167T186 305Q186 377 174 446T142 573T97 670T47 721Q46 721 46 724Q46 730 50 739T59 748Q89 748 122 711T185 610T232
467T251 305Q251 249 241 193T214 88T176 2Q145 -53 113 -87T59 -121Z" />
<glyph unicode="*" glyph-name="asterisk" horiz-adv-x="444" d="M205 299Q190 299 181 309T172 336Q172 353 181 375T201 420T214 457Q215 463 212 469T198 473Q185 470 164 460T120 442T79 433Q63 433 52 440T40 463Q40 485 59 492T98 500Q117 500 145 496T192
494Q203 495 206 502T204 516Q195 532 176 552T141 594T125 635Q125 649 136 657T158 665Q175 665 185 649T201 612T209 578Q211 566 214 551T223 525T235 514Q243 514 254 531T274 564Q280 575 290 591T314 620T343 633Q356 633 364 624T373 601Q373 587 362 575T335
553T307 536Q291 527 279 520T260 505Q250 495 255 489T265 481Q290 470 318 467T372 451Q386 444 395 435T404 414Q404 403 395 393T370 383Q352 383 332 398T293 433T259 460Q247 467 242 467T235 452Q234 431 237 410T240 365Q240 343 234 321T205 299Z" />
<glyph unicode="+" glyph-name="plus" horiz-adv-x="582" d="M268 6Q263 6 263 14V213Q263 218 257 218H58Q52 218 52 228Q52 240 60 269Q61 274 66 274H258Q263 274 263 280V470Q261 475 268 477Q297 485 309 485L319 479V279Q319 274 323 274H523Q531 274 531
269Q531 260 521 224Q519 220 519 220Q517 218 516 218H323Q319 218 319 215V23Q319 13 274 7H271Q270 6 268 6Z" />
<glyph unicode="," glyph-name="comma" horiz-adv-x="239" d="M67 -163Q63 -163 54 -155T44 -141Q44 -138 55 -128T81 -103T107 -65T118 -14Q118 4 103 35Q88 67 88 76Q88 98 110 113T160 129Q175 129 184 125Q197 106 197 61Q197 -3 162 -59T68 -163H67Z" />
<glyph unicode="-" glyph-name="hyphen" horiz-adv-x="375" d="M65 199Q58 199 58 210Q58 261 70 261L313 273Q319 273 319 264Q319 256 317 237T309 212L306 210L65 199Z" />
<glyph unicode="." glyph-name="period" horiz-adv-x="233" d="M117 -15Q93 -15 76 2T58 43Q58 67 75 84T117 102Q143 102 159 85T175 43Q175 19 158 2T117 -15Z" />
<glyph unicode="/" glyph-name="slash" horiz-adv-x="424" d="M43 -35Q38 -35 34 -34T25 -28L321 739Q331 761 370 761Q379 761 391 755L95 -12Q93 -24 74 -29T43 -35Z" />
<glyph unicode="0" glyph-name="zero" horiz-adv-x="516" d="M258 -3Q192 -3 143 40T67 156T40 319Q40 410 67 482T143 598T258 641Q326 641 374 599T449 484T476 319Q476 229 449 156T374 40T258 -3ZM253 35Q296 35 326 73T372 177T388 325Q388 405 372 467T328
566T263 603Q223 603 193 566T145 465T128 320Q128 240 144 176T188 73T253 35Z" />
<glyph unicode="1" glyph-name="one" horiz-adv-x="378" d="M80 -3Q76 1 76 14Q76 26 80 26Q89 26 105 29T135 37T150 46Q156 70 156 103V463Q156 494 154 511T142 529Q135 529 116 518T78 496Q72 499 66 507T60 521Q60 525 62 527Q231 642 235 642H237Q245 642
249 623Q239 592 239 529V135Q239 106 241 84T247 46Q249 42 262 37T292 29T314 26Q318 26 318 8Q318 -2 317 -3Q267 -1 237 0T196 2Q188 2 159 1T80 -3Z" />
<glyph unicode="2" glyph-name="two" horiz-adv-x="484" d="M60 0Q56 0 53 11T49 30Q122 104 182 182T278 332T314 459Q314 513 287 542T216 572Q133 572 83 489Q77 489 71 495T64 505Q67 517 81 539T120 585T179 625T256 642Q301 642 333 619T382 559T400 479Q400
432 381 385T332 292T266 207T198 134T142 79Q139 74 144 72H337Q365 72 377 88T403 149Q408 160 417 160Q431 160 435 156Q411 38 408 16Q407 0 388 0H60Z" />
<glyph unicode="3" glyph-name="three" horiz-adv-x="459" d="M170 -5Q85 -5 40 25Q30 32 30 54Q30 101 67 101Q82 101 94 87T126 56Q155 35 202 35Q246 35 281 69T317 180Q317 220 300 251T253 302T190 321Q152 321 125 314Q118 322 118 340Q118 346 120 350Q189
362 230 398T271 496Q271 530 245 556T184 583Q155 583 135 572T103 548T87 532Q83 532 79 541T75 558Q102 598 136 620T224 642Q253 642 281 626T327 581T346 514Q346 470 325 440T263 379Q299 367 331 343T383 285T403 206Q403 143 373 96T289 22T170 -5Z" />
<glyph unicode="4" glyph-name="four" horiz-adv-x="484" d="M330 -6Q293 -6 293 2V174H40Q33 182 33 205L336 633Q345 645 359 645Q372 645 372 635V232H434Q450 232 450 184Q450 179 444 174H372V-1Q369 -6 330 -6ZM111 232H293V498Q293 507 288 507L287 505L105
244Q104 243 104 241Q104 232 111 232Z" />
<glyph unicode="5" glyph-name="five" horiz-adv-x="485" d="M201 -5Q112 -5 67 25Q57 32 57 54Q57 101 94 101Q109 101 121 87T153 56Q182 35 233 35Q275 35 308 70T342 180Q342 242 307 282T196 323Q145 323 109 312Q105 314 101 317T91 326L139 623Q237 626
296 629T374 637Q376 633 377 628T379 611Q379 591 373 561Q346 553 260 550L173 546Q167 544 166 538Q161 510 154 471T137 378Q169 391 231 391Q285 391 329 366T401 298T428 206Q428 145 399 97T318 22T201 -5Z" />
<glyph unicode="6" glyph-name="six" horiz-adv-x="484" d="M235 -6Q180 -6 137 24T69 103T44 208Q44 286 73 353T152 477T266 577T400 647Q406 647 414 636T423 620Q322 576 252 514T154 352Q153 342 155 342L158 344Q168 352 188 360T231 375T275 381Q322 381
359 354T418 284T440 195Q440 140 412 94T336 21T235 -6ZM247 33Q291 33 324 71T357 174Q357 242 325 286T229 330Q202 330 177 316T145 285Q132 254 130 210Q130 164 145 124T187 58T247 33Z" />
<glyph unicode="7" glyph-name="seven" horiz-adv-x="483" d="M143 -6Q132 -6 120 4T108 22L374 553H133Q111 553 96 531T70 474Q69 470 56 469T36 471Q37 476 41 494T50 537T60 585T67 621Q69 633 83 633H372Q380 633 390 633T413 635L439 636Q446 636 446 627Q446
614 437 597T417 560L154 -3Q151 -6 143 -6Z" />
<glyph unicode="8" glyph-name="eight" horiz-adv-x="484" d="M239 -9Q156 -9 105 36T53 154Q53 201 88 242T183 318Q188 321 183 324Q144 347 113 388T81 480Q81 523 104 560T165 620T247 643Q293 643 330 624T389 571T411 491Q411 414 299 344Q295 341 299 338Q332
319 362 293T411 235T430 167Q430 118 404 78T334 15T239 -9ZM265 362Q267 362 271 364Q339 409 339 486Q339 518 327 545T292 590T241 608Q204 608 180 576T155 492Q155 424 259 364Q262 362 265 362ZM241 27Q291 27 320 57T349 138Q349 173 330 201T286 250T248
279Q229 292 223 294T214 297Q212 297 208 295T199 288Q163 262 148 233T132 157Q132 99 165 63T241 27Z" />
<glyph unicode="9" glyph-name="nine" horiz-adv-x="484" d="M105 -6Q99 -6 91 6T83 23Q135 43 184 80T272 170T329 289Q332 299 328 299Q320 289 300 281T258 267T217 262Q169 262 130 287T68 353T45 445Q45 501 73 546T148 619T249 647Q304 647 346 617T414
539T439 433Q439 355 407 281T325 151Q274 96 218 55T105 -6ZM255 311Q302 311 326 343T352 428Q353 477 338 518T296 583T233 608Q190 608 159 568T128 463Q128 398 161 355T255 311Z" />
<glyph unicode=":" glyph-name="colon" horiz-adv-x="233" d="M120 -15Q96 -15 79 2T61 43Q61 67 78 84T120 102Q146 102 162 85T178 43Q178 19 161 2T120 -15ZM120 311Q96 311 79 328T61 369Q61 393 78 410T120 428Q146 428 162 411T178 369Q178 345 161 328T120 311Z" />
<glyph unicode=";" glyph-name="semicolon" horiz-adv-x="244" d="M322 85Q318 85 309 93T299 107Q299 110 310 120T336 145T362 183T373 234Q373 252 358 283Q343 315 343 324Q343 346 365 361T415 377Q430 377 439 373Q452 354 452 309Q452 245 417 189T323
85H322ZM142 311Q118 311 101 328T83 369Q83 393 100 410T142 428Q168 428 184 411T200 369Q200 345 183 328T142 311Z" />
<glyph unicode="&lt;" glyph-name="less" horiz-adv-x="535" d="M459 -15L454 -13L79 177Q61 188 61 217Q61 232 79 241L448 428L453 430Q461 430 470 383L467 374L141 209L472 41Q475 40 475 35Q475 31 472 19T466 -4T459 -15Z" />
<glyph unicode="=" glyph-name="equal" horiz-adv-x="571" d="M59 259Q52 259 52 269Q56 315 67 315H516Q520 315 520 310Q520 301 510 265Q508 261 508 261Q506 259 505 259H59ZM59 117Q52 117 52 127Q52 137 61 168Q62 170 64 172Q65 173 66 173H512Q520 173
520 168Q520 159 510 123Q508 119 508 119Q506 117 505 117H59Z" />
<glyph unicode="&gt;" glyph-name="greater" horiz-adv-x="535" d="M78 -15Q76 -15 72 -5T64 18T61 35L64 41L395 209L70 374Q67 376 67 382Q67 395 73 412T83 430L88 428L458 241Q475 232 475 217Q475 186 458 177L83 -13Q77 -15 78 -15Z" />
<glyph unicode="?" glyph-name="question" horiz-adv-x="366" d="M110 160Q97 160 97 168V215Q96 232 96 243T96 262Q96 289 102 308T138 350L182 383Q208 403 227 416T258 444T269 482Q269 520 245 542T188 565Q178 565 162 564T131 560T112 558Q96 558 81 567T65
598Q65 622 72 632Q91 642 122 642Q152 642 186 628T250 589T300 530T319 457Q319 405 297 371T218 304Q204 296 187 284T156 260T140 242Q130 225 130 173Q130 160 110 160ZM118 -15Q94 -15 77 2T59 43Q59 67 76 84T118 102Q144 102 160 85T176 43Q176 19 159
2T118 -15Z" />
<glyph unicode="@" glyph-name="at" horiz-adv-x="819" d="M414 -171Q334 -171 268 -139T153 -55T79 60T52 185Q52 275 82 347T168 471T296 549T457 577Q531 577 590 547T691 466T756 355T779 233Q779 169 760 113T701 22T597 -13Q565 -13 540 3T500 44T485 92Q485
93 484 93T480 90Q470 72 444 50T389 10T335 -7Q301 -7 277 14T239 69T226 141Q226 213 259 274T355 372T501 410L590 401L583 348L558 125Q557 115 557 108T556 97Q556 27 606 27Q639 27 663 45T701 91T723 152T730 214Q730 300 694 371T594 485T446 528Q377 528
317 505T210 441T137 344T111 223Q111 119 150 40T269 -82T469 -126Q486 -126 505 -119T534 -106L540 -104L542 -114Q538 -136 516 -148T465 -166T414 -171ZM363 53Q383 53 404 66T445 99T476 138T490 170L505 322Q506 326 506 334Q506 349 495 354T455 359Q391
359 348 302T304 143Q304 96 322 75T363 53Z" />
<glyph unicode="A" glyph-name="A" horiz-adv-x="684" d="M24 -3Q20 1 20 12Q20 26 24 26Q36 26 55 31T81 45Q92 59 103 82T128 139L302 586Q308 601 309 607T312 617T319 633Q326 647 333 655T356 663L365 660L565 132Q574 109 581 91T594 60Q598 50 611 43T639
31T662 26Q666 26 666 7Q666 5 666 3T664 -3Q614 -1 587 0T554 2L438 -3Q434 1 434 13T439 26Q451 26 469 31T490 44Q491 48 491 52T492 60Q492 73 489 90T482 118L437 242Q434 246 431 246Q392 249 355 249Q329 249 298 248T228 244L223 241L180 131Q170 106 167
89T163 62Q163 48 171 42Q180 35 200 31T229 26Q232 26 232 14T231 -3L128 2Q100 4 74 2T24 -3ZM320 297Q365 297 411 300L414 305L333 526L247 303Q247 299 249 299Q275 298 292 298T320 297Z" />
<glyph unicode="B" glyph-name="B" horiz-adv-x="592" d="M40 -3Q37 0 37 13Q37 26 40 26Q49 26 64 29T92 38T109 49Q116 60 116 143V521Q116 550 115 572T109 607Q107 613 94 618T65 626T40 629Q36 629 36 641Q36 654 40 658Q66 657 95 657T159 656L243 657H300Q313
657 326 656T353 653Q393 646 428 627T486 574T509 493Q509 458 486 426Q463 395 444 383T410 366Q402 363 405 360Q425 357 450 342T498 304T536 250T552 187Q552 130 521 88T432 23T298 0H161L40 -3ZM269 373Q301 373 325 376Q366 380 393 404T421 470Q421 539
387 577T284 616Q237 616 213 609Q207 608 207 600L203 499V380Q203 373 269 373ZM273 45Q298 45 322 49T381 65Q415 76 436 104T457 176Q457 219 438 254T380 310T279 331Q268 331 250 330T207 327Q203 316 203 294V148Q203 72 219 59Q235 45 273 45Z" />
<glyph unicode="C" glyph-name="C" horiz-adv-x="656" d="M361 -6Q295 -6 238 20T137 91T69 195T44 322Q44 393 69 455T139 565T243 640T372 667Q431 667 492 661T615 642L613 498Q613 483 592 483Q582 483 579 488Q576 501 572 514T553 550Q529 585 485 605T375
625Q326 625 283 602T208 538T157 448T139 343Q139 260 167 194Q195 126 255 82T399 37Q498 37 552 95Q568 112 577 135T591 175T601 192Q607 192 615 191T629 186L634 183Q634 177 630 155T620 107T609 60T600 38Q526 -6 361 -6Z" />
<glyph unicode="D" glyph-name="D" horiz-adv-x="722" d="M38 -3Q35 0 35 12Q35 26 38 26Q47 26 62 29T90 38T107 49Q114 60 114 143V521Q114 550 113 572T107 607Q105 613 92 618T63 626T38 629Q34 629 34 641Q34 654 38 658Q64 657 93 657T157 656L254 657Q283
657 302 657T331 658Q440 658 517 614T635 496T676 336Q676 240 635 162T516 39T330 -3L259 -1Q229 0 204 0T159 0L38 -3ZM346 43Q576 43 576 340Q576 416 549 478T470 577T339 614H334Q226 614 214 598Q201 581 201 535V139Q201 98 216 63Q218 58 233 55T269 49T312
45T346 43Z" />
<glyph unicode="E" glyph-name="E" horiz-adv-x="571" d="M495 -4Q470 -4 430 -4T334 -2Q279 -1 234 -1T154 0L33 -3Q30 0 30 13Q30 26 33 26Q42 26 57 29T85 38T102 49Q109 60 109 143V521Q109 550 108 572T102 607Q100 613 87 618T58 626T33 629Q29 629 29 641Q29
654 33 658Q59 657 88 657T152 656Q175 656 214 657T308 660Q364 662 405 663T475 664Q477 650 481 631T491 588Q496 564 499 549T504 528Q499 523 486 523Q473 523 472 530Q457 585 430 600T356 616H289Q202 616 201 603Q199 591 198 570T196 519V359Q196 353
239 353H292Q326 353 338 353T355 356T377 362Q387 364 392 385T402 421Q403 428 417 428Q429 428 434 423V234Q430 230 418 230Q405 230 402 238Q398 252 395 262T390 279Q385 293 383 295T374 301Q360 309 268 309Q196 309 196 300V145Q196 80 205 54Q208 44
273 44H321Q413 44 447 61Q462 69 480 96T510 162Q512 168 524 168Q543 168 549 162Q546 154 540 138T527 104T517 75Q511 57 504 34T495 -4Z" />
<glyph unicode="F" glyph-name="F" horiz-adv-x="551" d="M46 -3Q42 1 42 12Q42 26 46 26Q55 26 70 28T98 36T113 46Q120 71 120 136V521Q120 550 119 572T113 607Q111 613 98 618T69 626T44 629Q40 629 40 641Q40 654 44 658Q70 657 99 657T163 656Q186 656 225
657T319 660Q375 662 416 663T486 664Q488 650 492 631T502 588Q507 564 510 549T515 528Q510 523 497 523Q484 523 483 530Q468 585 441 600T367 616H300Q213 616 212 603Q210 591 209 570T207 519V356Q207 350 249 350H302Q347 350 367 353T395 370T410 414L412
423Q413 430 427 430Q439 430 444 425V231Q440 227 428 227Q415 227 412 235Q408 249 405 259T400 276Q395 290 393 292T384 298Q370 306 278 306Q207 306 207 297V139Q207 81 216 46Q218 42 231 37T259 29T280 26Q284 26 284 11Q284 5 282 -3Q232 -1 203 0T166
2L46 -3Z" />
<glyph unicode="G" glyph-name="G" horiz-adv-x="715" d="M361 -6Q295 -6 238 20T137 91T69 195T44 322Q44 393 69 455T139 565T243 640T372 667Q443 667 609 622L613 498Q613 483 592 483Q582 483 579 488Q552 625 375 625Q309 625 256 586T172 481T141 335Q141
280 160 227T214 131T296 63T399 37Q488 37 529 59Q536 62 536 74L535 156V163Q535 227 527 249Q525 256 510 260T478 268T450 271Q446 271 446 284Q446 296 450 300L581 295L689 300Q691 292 691 286Q691 271 687 271Q683 271 672 268T648 261T629 253Q619 246
619 186Q619 176 619 165T621 141L622 114Q622 94 629 79Q636 64 636 59Q636 51 611 41Q595 33 584 30T569 25Q564 23 547 18T519 10Q492 5 469 2T421 -4T361 -6Z" />
<glyph unicode="H" glyph-name="H" horiz-adv-x="707" d="M42 -3Q38 1 38 12Q38 26 42 26Q51 26 66 28T94 36T109 46Q113 60 114 82T116 135V523Q116 554 115 576T109 612Q107 618 94 622T66 630T42 633Q38 633 38 646Q38 658 42 662Q51 662 72 661T119 658T162
656Q194 656 226 658T278 662Q280 658 280 646T276 633Q270 633 255 630T227 622T212 612Q203 578 203 519V370L205 367Q254 366 292 366T357 365Q386 365 423 365T505 367Q507 369 507 371V523Q507 554 506 576T500 612Q498 618 485 622T457 630T433 633Q429 633
429 646Q429 658 433 662Q441 662 463 661T510 658T554 656Q586 656 617 658T668 662Q670 654 670 647Q670 633 666 633Q660 633 645 630T617 622T602 612Q598 596 596 573T594 519V139Q594 108 596 85T602 46Q604 42 617 37T645 29T666 26Q670 26 670 11Q670 5
668 -3Q618 -1 590 0T554 2L433 -3Q429 1 429 14Q429 26 433 26Q442 26 457 28T485 36T500 46Q504 60 505 82T507 135V311L505 315Q458 316 421 316T357 317Q203 317 203 312V139Q203 81 212 46Q214 42 227 37T255 29T276 26Q279 26 279 14T278 -3Q228 -1 199 0T162
2L42 -3Z" />
<glyph unicode="I" glyph-name="I" horiz-adv-x="318" d="M42 -3Q38 1 38 12Q38 26 42 26Q51 26 66 28T94 36T109 46Q113 60 114 82T116 135V523Q116 554 115 576T109 612Q107 618 94 622T66 630T42 633Q38 633 38 646Q38 658 42 662L162 657Q170 657 199 658T278
662Q280 654 280 647Q280 633 276 633Q270 633 255 630T227 622T212 612Q203 578 203 519V139Q203 81 212 46Q214 42 227 37T255 29T276 26Q280 26 280 11Q280 5 278 -3Q228 -1 199 0T162 2L42 -3Z" />
<glyph unicode="J" glyph-name="J" horiz-adv-x="322" d="M-31 -227Q-42 -227 -55 -223T-76 -215L-83 -211Q-95 -197 -95 -174Q-95 -152 -77 -138T-33 -124Q-15 -124 8 -146Q31 -167 43 -167Q71 -167 100 -112Q114 -85 123 -36T132 77V523Q132 554 131 576T125
612Q123 618 110 622T82 630T58 633Q54 633 54 646Q54 658 58 662Q67 662 88 661T135 658T178 656Q210 656 242 658T294 662Q296 654 296 647Q296 633 292 633Q286 633 271 630T243 622T228 612Q219 578 219 519V85Q219 22 201 -34T149 -134T69 -202T-31 -227Z"
/>
<glyph unicode="K" glyph-name="K" horiz-adv-x="693" d="M45 -3Q41 1 41 12Q41 26 45 26Q54 26 69 28T97 36T112 46Q116 60 117 82T119 135V523Q119 554 118 576T112 612Q110 618 97 622T69 630T45 633Q41 633 41 646Q41 658 45 662Q54 662 75 661T122 658T165
656Q197 656 229 658T281 662Q283 658 283 646T279 633Q273 633 258 630T230 622T215 612Q206 578 206 519V356L213 350H220Q252 350 278 379Q337 444 379 495T450 582Q474 611 474 620Q474 637 417 637Q413 637 413 646Q413 651 413 654T415 662Q444 660 473 658T522
656Q539 656 559 657T597 660T623 662Q625 658 625 648T621 637Q561 630 529 595L328 361Q320 352 335 334L576 69Q596 48 627 37T682 26Q687 26 687 8Q687 3 685 -3Q635 -1 604 0T561 2Q519 2 486 1T426 -3Q422 1 422 14Q422 26 426 26Q438 26 453 30T469 42Q469
74 242 307Q238 311 213 311Q206 311 206 303V139Q206 81 215 46Q217 42 230 37T258 29T279 26Q282 26 282 14T281 -3Q231 -1 202 0T165 2L45 -3Z" />
<glyph unicode="L" glyph-name="L" horiz-adv-x="568" d="M501 -4Q449 -4 339 -1Q284 1 239 2T160 2L39 -1Q36 2 36 15Q36 28 39 28Q49 28 63 31T91 38T108 49Q115 60 115 143V521Q115 587 108 612Q106 618 93 622T65 630T41 633Q37 633 37 646Q37 658 41 662Q50
662 71 661T118 658T161 656Q193 656 225 658T277 662Q279 654 279 647Q279 633 275 633Q269 633 254 630T226 622T211 612Q202 578 202 519V142Q202 89 211 54Q214 44 279 44H327Q419 44 453 61Q468 69 486 96T516 162Q518 168 530 168Q549 168 555 162Q552 154
546 138T533 104T523 75Q517 57 510 34T501 -4Z" />
<glyph unicode="M" glyph-name="M" horiz-adv-x="910" d="M31 -3Q26 2 26 12Q26 26 31 26Q41 26 57 29T88 37T109 48Q126 66 127 135Q129 251 131 343T136 495T138 572Q138 599 134 612Q132 618 117 622T83 630T55 633Q51 633 51 647Q51 658 55 662Q79 661 108
659T167 657Q186 657 208 658T259 662Q267 640 457 161Q459 159 461 159Q465 159 466 163Q515 278 554 373T622 542L662 662Q694 660 714 659T745 658Q776 658 804 659T857 662Q860 653 860 647Q860 633 855 633H853Q842 633 824 627T797 613Q785 604 785 546L794
140Q796 82 809 48Q812 42 825 37T853 29T876 26Q880 26 880 12Q880 5 878 -3Q828 -1 799 0T759 2L639 -3Q635 1 635 13Q635 26 639 26Q649 26 669 31T699 41Q711 49 711 84V137L699 489Q699 500 697 513T691 537T684 548Q682 548 679 541L470 41Q451 -2 433 -2Q432
-2 424 0L195 582Q192 441 188 331T182 153T179 75Q179 57 185 49Q189 44 205 39T238 30T262 26Q266 26 266 11Q266 5 264 -3Q214 -1 185 0T148 2L31 -3Z" />
<glyph unicode="N" glyph-name="N" horiz-adv-x="721" d="M590 -5Q574 -5 557 18L169 568V141Q169 73 176 48Q178 44 193 39T227 30T251 26Q254 26 254 14T253 -3Q203 -1 175 0T138 2L23 -3Q20 0 20 12Q20 26 23 26Q33 26 51 29T85 38T103 50Q113 74 113 144V537Q113
588 106 612Q104 618 89 622T55 630T27 633Q23 633 23 646Q23 658 27 662Q66 661 91 661T129 660Q155 660 175 660T209 662Q228 628 312 506T548 172Q551 189 551 213V524Q551 587 544 612Q542 618 526 623T492 631T465 635Q461 635 461 647Q461 658 465 662Q474
662 495 661T540 658T583 656Q609 656 649 659Q688 662 695 662Q697 654 697 647Q697 635 693 635Q687 635 668 631T633 622T614 612Q610 596 608 573T606 519V139Q606 77 609 -1Q605 -5 590 -5Z" />
<glyph unicode="O" glyph-name="O" horiz-adv-x="728" d="M138 89Q44 187 44 328Q44 398 69 459T137 567T239 640T363 667Q429 667 487 641T589 568T658 460T683 328Q683 187 589 89Q525 21 444 -1T283 -2T138 89ZM379 33Q443 33 491 75Q539 116 561 177T584 309Q584
388 558 460Q532 531 477 578T348 625Q285 625 239 587T168 486T143 350Q143 271 169 199Q195 128 250 81T379 33Z" />
<glyph unicode="P" glyph-name="P" horiz-adv-x="545" d="M44 -3Q41 0 41 15Q41 28 44 28Q54 28 68 31T96 38T113 49Q120 60 120 143V521Q120 550 119 572T113 607Q111 613 98 618T69 626T44 629Q40 629 40 641Q40 654 44 658L164 656Q179 656 197 656T235 658Q255
659 273 659T305 660Q338 660 372 650T437 620Q469 600 488 563T508 477Q508 446 495 411T457 346T393 296T304 277Q248 277 227 305Q221 312 224 328Q226 333 227 331Q258 320 294 320Q328 320 355 339T399 391T416 462Q416 533 385 574T289 616Q243 616 219 609Q210
608 209 578T207 499V142Q207 76 215 55Q219 47 234 40T268 30T294 26Q298 26 298 12Q298 5 296 -3Q246 -1 214 0T166 2L44 -3Z" />
<glyph unicode="Q" glyph-name="Q" horiz-adv-x="724" d="M604 -136Q557 -136 500 -110Q439 -82 383 -49T277 0Q241 11 203 37T128 103Q91 143 68 202T44 328Q44 398 69 459T137 567T239 640T363 667Q429 667 487 641T589 568T658 460T683 328Q683 264 663 209T610
110T538 40T459 5Q473 -2 491 -12T534 -36Q566 -54 589 -64T637 -79T692 -84Q721 -84 738 -80T760 -76Q772 -76 772 -96V-101Q705 -136 604 -136ZM379 33Q443 33 490 72T562 174T588 309Q588 372 572 428T524 529T448 599T348 625Q285 625 238 587T165 485T139
350Q139 287 155 230T203 129T279 59T379 33Z" />
<glyph unicode="R" glyph-name="R" horiz-adv-x="660" d="M640 -5Q501 -5 397 139Q389 150 377 169T331 236Q315 259 303 274T274 298T229 306Q218 306 212 303T205 289V142Q205 76 213 55Q217 47 232 40T266 30T292 26Q296 26 296 12Q296 5 294 -3Q244 -1 212
1T164 2L42 -3Q39 0 39 15Q39 28 42 28Q52 28 66 31T94 38T111 49Q118 60 118 143V521Q118 550 117 572T111 607Q109 613 96 618T67 626T42 629Q38 629 38 641Q38 654 42 658L162 656Q191 655 233 657T303 660Q357 660 406 639T487 577T519 477Q519 435 488 389T402
318Q392 314 396 308Q445 204 511 132Q607 27 667 27Q670 21 670 13Q670 4 667 -2Q657 -5 640 -5ZM292 349H317Q341 349 366 365T409 410T427 477Q427 616 287 616Q241 616 217 609Q208 607 207 577T205 499V378Q205 349 292 349Z" />
<glyph unicode="S" glyph-name="S" horiz-adv-x="491" d="M246 -10Q222 -10 195 -7T150 1Q113 8 97 12T66 19Q53 81 47 120T41 178Q41 184 57 184Q75 184 82 175Q117 31 248 31Q298 31 333 61T368 146Q368 164 361 190T327 235Q307 250 294 257T268 271T235 290L195
314Q164 333 133 357T82 415T61 490Q61 543 88 582T160 644T257 666Q279 666 298 664T331 658Q361 651 373 647T408 638Q420 586 420 495Q420 488 410 488Q385 488 384 498Q379 528 362 557T316 605T247 625Q206 625 183 610T151 571T141 521Q141 496 153 471T188
429Q219 406 250 386T316 345Q348 325 380 301T433 245T455 173Q455 120 426 79T350 14T246 -10Z" />
<glyph unicode="T" glyph-name="T" horiz-adv-x="669" d="M217 -3Q213 1 213 12Q213 26 217 26Q226 26 241 28T269 36T284 46Q288 60 289 82T291 135V497Q291 584 282 600Q275 615 174 615Q136 615 115 609T83 583T62 526Q60 521 52 521Q35 521 28 528L47 671Q69
666 86 663T116 660Q188 660 243 658T335 656Q412 656 467 658T555 660Q568 660 585 663T624 671L643 528Q636 521 619 521Q611 521 609 526Q600 564 589 583T556 608T497 615Q392 615 387 600Q378 569 378 500V139Q378 81 387 46Q389 42 402 37T430 29T451 26Q455
26 455 11Q455 5 453 -3Q403 -1 374 0T337 2L217 -3Z" />
<glyph unicode="U" glyph-name="U" horiz-adv-x="719" d="M358 0Q239 0 175 70T111 296V523Q111 554 110 576T104 612Q102 618 89 622T61 630T37 633Q33 633 33 646Q33 658 37 662L157 657Q165 657 194 658T273 662Q275 654 275 648Q275 633 271 633Q265 633 250
630T222 622T207 612Q198 578 198 519V296Q198 183 246 116T382 49Q553 49 553 274V524Q553 587 546 612Q544 618 528 623T494 631T467 635Q463 635 463 647Q463 658 467 662Q476 662 497 661T542 658T585 656Q611 656 651 659Q690 662 697 662Q699 654 699 647Q699
635 695 635Q689 635 670 631T635 622T616 612Q612 596 610 573T608 519V276Q608 173 579 113T494 26T358 0Z" />
<glyph unicode="V" glyph-name="V" horiz-adv-x="709" d="M345 -9Q338 -9 335 -3L130 514Q105 580 85 610Q78 621 56 627T21 633Q17 633 17 646Q17 658 21 662Q45 661 75 659T136 657Q148 657 179 658T260 662Q262 658 262 646T258 633Q239 633 219 625T199 600Q199
571 325 263Q339 229 349 203T368 157Q371 152 376 154T384 162L534 524Q553 572 553 594Q553 609 540 617T511 629T483 633Q479 633 479 646Q479 658 483 662Q530 660 556 659T590 657L691 662Q693 654 693 647Q693 633 689 633Q644 633 629 605Q618 584 606 559T580
502L380 24Q367 -9 345 -9Z" />
<glyph unicode="W" glyph-name="W" horiz-adv-x="1076" d="M405 -8Q399 -8 396 -3L136 514Q122 543 107 567T78 610Q70 620 51 626T20 633Q16 633 16 646Q16 658 20 662L146 657L251 662Q253 658 253 646T249 633Q233 633 216 626T199 604Q199 574 222 530L429
120Q432 115 437 117T444 125L527 298L422 514Q408 543 393 567T364 610Q356 620 337 626T306 633Q302 633 302 648Q302 658 306 662L432 657L536 662Q538 658 538 646T534 633Q518 633 502 626T485 604Q485 591 490 573T508 530L574 395L644 542Q658 571 658 600Q658
617 637 625T599 633Q595 633 595 646Q595 658 599 662Q639 660 664 658T700 657L804 662Q806 658 806 646T802 633Q796 633 782 630T754 620T733 605Q724 594 710 569T675 502L598 344L707 120Q712 111 719 125L898 536Q907 556 911 572T915 599Q915 616 895 624T858
633Q854 633 854 646Q854 658 858 662Q898 660 923 659T960 657Q989 657 1014 659T1059 662Q1061 654 1061 647Q1061 633 1057 633Q1047 633 1025 626T992 605Q964 571 934 504L722 24Q708 -8 683 -8Q677 -8 674 -3L552 247L444 24Q429 -8 405 -8Z" />
<glyph unicode="X" glyph-name="X" horiz-adv-x="688" d="M9 -3Q8 0 8 3T7 10Q7 26 11 26Q32 26 58 32T99 54L313 334L173 548Q142 598 107 617Q81 633 51 633Q47 633 47 646Q47 658 51 662L176 657Q190 656 222 658T304 662Q306 658 306 646T302 633Q284 633
263 626T242 601Q242 589 254 571L369 396L393 427Q406 444 413 453T427 471T447 496Q475 533 493 555T511 602Q511 613 491 623T441 633Q437 633 437 646Q437 658 441 662Q488 660 519 659T568 657Q574 657 602 658T680 662Q682 658 682 646T678 633Q669 633 649
630T609 620T582 604L394 358L586 66Q600 46 628 36T684 26Q689 26 689 10Q689 3 687 -3L582 2L436 -3Q432 1 432 14Q432 26 436 26Q446 26 459 29T483 39T494 54Q494 58 489 66L339 295Q175 74 175 55Q175 45 193 36T243 26Q247 26 247 10Q247 1 245 -3Q199 -1
171 0T132 2Q121 2 90 1T9 -3Z" />
<glyph unicode="Y" glyph-name="Y" horiz-adv-x="649" d="M207 -3Q203 1 203 11Q203 24 207 24Q215 24 229 27T256 35T271 46Q275 62 277 86T279 142V267Q279 281 258 323Q247 343 216 400T133 549Q117 579 109 590T84 613Q73 621 51 628T19 635Q15 635 15 646Q15
658 19 662L73 659Q92 658 108 657T139 656Q151 656 271 662Q273 658 273 647T269 635Q252 635 231 627T209 601Q209 591 220 571L332 359Q338 354 342 361Q478 566 478 602Q478 613 458 624T409 635Q405 635 405 647Q405 658 409 662L527 656Q543 655 559 656T591
659Q624 662 633 662Q635 654 635 647Q635 635 631 635Q623 635 606 631T573 620T549 604Q534 580 511 544T463 466T416 387T380 323T366 291V139Q366 108 368 85T374 46Q376 42 388 37T415 28T435 24Q439 24 439 11Q439 5 437 -3Q387 -1 359 0T325 2L207 -3Z"
/>
<glyph unicode="Z" glyph-name="Z" horiz-adv-x="600" d="M46 0Q38 10 38 26Q38 39 42 43L425 608H213Q169 608 143 596T100 557T71 484Q70 480 61 480Q38 480 29 489Q56 615 62 665Q67 664 87 662T134 659T182 657T214 656H323Q358 656 410 658T533 666Q536 665
539 653T543 633L169 76Q162 66 162 61Q162 51 176 51H402Q474 51 507 94Q524 116 531 130T548 172Q550 175 562 175Q577 175 586 166Q570 114 559 73T542 0H46Z" />
<glyph unicode="[" glyph-name="bracketleft" horiz-adv-x="361" d="M295 -114Q222 -102 140 -102Q121 -102 121 -79V717Q121 740 140 740Q176 740 209 742T267 746T300 749Q306 749 306 737Q306 715 288 706Q239 695 187 695Q182 695 180 689V-49Q182 -57 187
-57Q238 -57 289 -74Q301 -78 301 -96Q301 -107 296 -112L295 -114Z" />
<glyph unicode="\" glyph-name="backslash" horiz-adv-x="430" d="M373 -39L349 -37L36 755Q44 761 57 761Q96 761 106 739L393 13Q396 7 396 -7Q396 -34 373 -39Z" />
<glyph unicode="]" glyph-name="bracketright" horiz-adv-x="361" d="M67 -114Q61 -112 61 -102Q61 -92 67 -82L76 -74Q124 -57 176 -57Q182 -57 182 -51L183 -49V687Q181 695 176 695Q152 695 127 697T88 703L75 706L74 707Q70 708 66 714Q57 722 57 737Q57 749
62 749H63Q141 740 223 740Q241 740 241 717V-79Q241 -102 223 -102Q187 -102 148 -105T88 -111L67 -114Z" />
<glyph unicode="^" glyph-name="asciicircum" horiz-adv-x="445" d="M84 475Q80 475 77 481T72 493L71 499Q76 513 101 538T157 598T208 677Q214 690 218 690Q229 690 239 674T263 635T293 588Q322 551 347 528T375 500Q375 495 371 485T362 475Q354 475 330 494T276
541T222 597Q201 570 172 542T118 494T84 475Z" />
<glyph unicode="_" glyph-name="underscore" horiz-adv-x="468" d="M6 -43Q0 -38 0 -34Q0 -24 3 -6T14 13H461Q467 13 467 4Q467 -9 458 -36Q457 -41 452 -43H6Z" />
<glyph unicode="`" glyph-name="grave" horiz-adv-x="188" d="M166 527Q161 527 144 537T104 565T60 601T24 636T10 663Q10 672 21 679T51 687Q76 687 85 678Q128 628 153 588T178 540Q178 527 166 527Z" />
<glyph unicode="a" glyph-name="a" horiz-adv-x="423" d="M145 -7Q99 -7 69 17T39 91Q39 151 117 191Q151 208 184 218T252 241Q261 244 261 256V331Q261 363 241 380T193 398Q163 398 143 378T123 324Q123 289 82 289Q53 289 43 308Q43 329 60 351T106 393T167
424T234 436Q289 436 313 410T337 324V93Q337 72 348 58T378 44Q391 44 413 58Q417 58 417 50Q417 37 412 29Q371 -6 342 -6Q319 -6 298 13T269 53Q264 49 257 43T244 32Q223 16 199 5T145 -7ZM183 50Q211 50 236 66T261 100V203Q235 193 212 185T174 172Q156 165
140 147T123 106Q123 76 141 63T183 50Z" />
<glyph unicode="b" glyph-name="b" horiz-adv-x="499" d="M235 -6Q201 -6 169 0T126 7Q117 7 104 2T88 -4Q84 -4 76 -1T67 6Q67 12 73 44T79 135V549Q79 583 73 613Q69 629 22 629H13Q7 629 7 640Q7 656 13 656Q69 661 101 671T148 691L152 694H154Q158 694 162
689T167 678Q156 645 156 591V416Q156 405 159 405Q160 405 160 405T162 406Q176 416 205 427T256 438Q320 438 366 408T436 330T461 233Q461 185 442 142T391 66T318 13T235 -6ZM254 36Q292 36 319 61T360 126T375 212Q375 291 334 340T224 389Q196 389 176 374T156
329V96Q156 65 185 51T254 36Z" />
<glyph unicode="c" glyph-name="c" horiz-adv-x="405" d="M239 -6Q184 -6 138 23T65 100T37 209Q37 271 59 322T125 405T231 436Q341 436 383 385Q383 318 346 318Q329 318 320 325T297 353Q266 399 223 399Q182 399 149 360T115 244Q115 164 154 111T264 58Q306
58 334 70T376 93L383 98Q389 98 389 85Q389 78 383 67Q363 39 324 17T239 -6Z" />
<glyph unicode="d" glyph-name="d" horiz-adv-x="497" d="M349 -6Q343 -6 343 11V23Q343 28 339 27Q284 -4 233 -4Q178 -4 134 23T64 96T38 196Q38 244 56 288T106 366T178 420T261 440Q304 440 336 423Q343 423 343 441V549Q343 583 337 613Q333 629 286 629H277Q271
629 271 640Q271 656 277 656Q333 661 365 671T412 691L416 694H418Q422 694 426 689T431 678Q420 645 420 591V141Q420 94 426 65Q429 55 443 53T474 48L483 47Q486 46 486 35Q486 20 480 20Q447 18 412 10T358 -4L349 -6ZM271 45Q305 45 324 60T343 102V340Q343
361 321 379T248 398Q210 398 182 374T139 311T124 225Q124 177 141 136T192 70T271 45Z" />
<glyph unicode="e" glyph-name="e" horiz-adv-x="430" d="M239 -6Q184 -6 138 23T65 100T37 209Q37 279 63 330T134 408T235 436Q281 436 316 419T370 374Q388 346 396 318T405 261Q405 241 399 237T376 232H124Q116 232 116 227Q116 185 133 147T183 83T264 58Q306
58 334 70T376 93L383 98Q389 98 389 85Q389 78 383 67Q363 39 324 17T239 -6ZM124 274H319Q324 274 324 284Q324 306 313 332T278 379T220 399Q188 399 165 378T130 329T118 281Q118 274 124 274Z" />
<glyph unicode="f" glyph-name="f" horiz-adv-x="301" d="M30 -3Q27 0 27 13T30 26Q38 26 51 29T75 37T88 46Q93 66 95 88T98 135V365Q98 372 93 372H40Q37 372 37 378Q37 387 52 403T87 419H93Q98 419 98 425V438Q98 491 115 537T160 619T224 675T297 695Q370
695 392 656Q392 593 356 593Q345 593 336 602T318 624T296 646T266 656Q237 656 216 631T185 565T174 475V424Q174 419 179 419H290Q295 419 295 412Q295 396 283 372H180Q174 372 174 366V135Q174 81 183 46Q185 42 196 37T220 29T239 26Q242 26 243 14T242 -3L135
2L30 -3Z" />
<glyph unicode="g" glyph-name="g" horiz-adv-x="474" d="M213 -227Q166 -227 124 -215T55 -178T29 -116Q29 -54 127 -10Q100 -6 77 15T54 66Q54 92 76 120T127 166Q107 174 89 193T58 238T46 292Q46 332 69 363T130 413T217 432Q256 432 302 419Q348 406 381
406H439Q445 405 445 381Q445 367 439 367H368Q364 367 364 364L374 340Q385 315 385 292Q385 256 363 224T304 172T219 152Q203 152 189 153T163 156Q144 142 133 127T121 97Q121 72 149 65T221 58Q283 57 326 51T395 33Q445 9 445 -38Q445 -89 416 -132T334 -200T213
-227ZM218 186Q257 186 282 216T308 288Q308 334 280 366T213 398Q174 398 149 368T123 296Q123 250 151 218T218 186ZM242 -190Q282 -190 313 -175T361 -136T379 -85Q379 -43 338 -29Q298 -14 179 -14Q171 -14 152 -23T116 -49T99 -94Q99 -122 120 -144T173 -178T242
-190Z" />
<glyph unicode="h" glyph-name="h" horiz-adv-x="530" d="M22 -3Q18 1 18 14Q18 26 22 26Q30 26 44 29T70 37T83 46Q90 73 90 115V549Q90 583 84 613Q80 629 33 629H24Q18 629 18 640Q18 656 24 656Q75 661 110 672T158 691L163 694H165Q169 694 173 689T178 678Q167
645 167 591V372Q167 368 169 368Q170 368 172 370Q187 386 210 401T261 427T312 438Q379 438 408 390T437 242V134Q437 106 439 84T445 46Q447 42 459 37T485 29T505 26Q508 26 509 14T508 -3L401 2L296 -3Q292 1 292 14Q292 26 296 26Q304 26 317 29T341 37T353
46Q357 60 358 78T360 116V222Q360 284 349 317T315 364T256 377Q236 377 216 366T181 339T167 312V135Q167 106 169 84T175 46Q177 42 189 37T215 29T235 26Q238 26 239 14T238 -3L131 2L22 -3Z" />
<glyph unicode="i" glyph-name="i" horiz-adv-x="282" d="M36 -3Q32 1 32 14Q32 26 36 26Q44 26 58 29T84 37T97 46Q101 60 102 78T104 116V305Q104 343 90 359Q80 372 66 375T42 379T32 382Q32 406 38 407Q91 415 119 420T169 431L181 434Q185 435 186 426T186
413Q184 393 183 375T181 341V135Q181 106 183 84T189 46Q191 42 203 37T229 29T249 26Q252 26 253 14T252 -3L145 2L36 -3ZM135 543Q115 543 100 558T85 593Q85 614 100 628T135 643Q156 643 170 629T185 593Q185 573 171 558T135 543Z" />
<glyph unicode="j" glyph-name="j" horiz-adv-x="264" d="M15 -231Q8 -226 3 -216Q0 -211 2 -209L14 -203Q26 -197 41 -182T73 -142Q89 -117 100 -68T111 45V305Q111 343 97 359Q87 371 74 375T50 380T39 382Q39 406 45 407Q98 415 132 421T173 430L185 434H188Q192
434 193 426T193 413Q191 393 190 375T188 341V68Q188 -58 149 -120Q124 -159 86 -189T15 -231ZM142 543Q122 543 107 558T92 593Q92 614 107 628T142 643Q163 643 177 629T192 593Q192 573 178 558T142 543Z" />
<glyph unicode="k" glyph-name="k" horiz-adv-x="496" d="M18 -3Q14 1 14 14Q14 26 18 26Q26 26 40 29T66 37T79 46Q83 60 84 78T86 116V549Q86 583 80 613Q76 629 29 629H20Q14 629 14 640Q14 656 20 656Q71 661 106 672T154 691L159 694H161Q165 694 169 689T174
678Q163 645 163 591V241Q183 245 188 250L234 289L270 319Q287 333 299 345T312 367Q312 380 290 381Q270 382 267 385Q259 405 268 408H347Q382 408 404 410T457 413Q463 412 462 399T456 385Q448 385 434 382T406 376T387 368Q376 362 350 342T293 297T239 247Q316
165 359 115T416 53Q433 39 459 32T496 24Q500 24 500 8Q500 -2 499 -3L390 2L286 -3Q282 1 282 13Q282 24 286 24Q296 24 309 28T322 37Q322 39 321 40L175 198L163 195V135Q163 102 165 80T171 46Q173 42 185 37T211 29T231 26Q234 26 235 14T234 -3L127 2L18
-3Z" />
<glyph unicode="l" glyph-name="l" horiz-adv-x="251" d="M19 -3Q15 1 15 14Q15 26 19 26Q27 26 41 29T67 37T80 46Q84 60 85 78T87 116V549Q87 583 81 613Q77 629 30 629H21Q15 629 15 640Q15 656 21 656Q81 663 110 672T150 688L160 694H162Q166 694 170 689T175
678Q164 645 164 591V135Q164 106 166 84T172 46Q174 42 186 37T212 29T232 26Q235 26 236 14T235 -3L128 2L19 -3Z" />
<glyph unicode="m" glyph-name="m" horiz-adv-x="800" d="M31 -3Q27 1 27 14Q27 26 31 26Q39 26 53 29T79 37T92 46Q96 60 97 78T99 116V305Q99 343 85 359Q75 371 62 375T38 379T27 382Q27 406 33 407Q86 415 116 421T163 431L176 434Q180 435 181 427T181 413Q179
399 178 389T177 373Q177 369 179 369Q180 369 182 371Q205 395 244 416T320 438Q360 438 386 417T423 367Q499 438 578 438Q704 438 704 246V135Q704 106 706 84T712 46Q714 42 726 37T752 29T772 26Q775 26 776 14T775 -3L668 2L559 -3Q555 1 555 14Q555 26 559
26Q567 26 581 29T607 37T620 46Q624 60 625 76T627 110V223Q627 377 526 377Q502 377 481 367T448 343T435 320Q438 301 439 282T440 239V126Q440 101 442 82T448 46Q450 42 462 37T488 29T508 26Q511 26 512 14T511 -3L404 2L295 -3Q291 1 291 14Q291 26 295
26Q303 26 317 29T343 37T356 46Q360 60 361 78T363 116V218Q363 377 267 377Q247 377 226 367T191 341T176 311V135Q176 106 178 84T184 46Q186 42 198 37T224 29T244 26Q247 26 248 14T247 -3L140 2L31 -3Z" />
<glyph unicode="n" glyph-name="n" horiz-adv-x="543" d="M33 -3Q29 1 29 14Q29 26 33 26Q41 26 55 29T81 37T94 46Q98 60 99 78T101 116V305Q101 343 87 359Q77 371 64 375T40 379T29 382Q29 406 35 407Q88 415 121 421T162 430L178 434Q182 435 183 426T183
413Q181 399 180 389T179 373Q179 369 181 369Q182 369 184 371Q207 395 246 416T322 438Q392 438 420 388T448 226V135Q448 106 450 84T456 46Q458 42 470 37T496 29T516 26Q519 26 520 14T519 -3L412 2L307 -3Q303 1 303 14Q303 26 307 26Q315 26 328 29T352
37T364 46Q368 60 369 78T371 116V216Q371 309 347 343T269 377Q248 377 227 366T192 339T178 311V135Q178 106 180 84T186 46Q188 42 200 37T226 29T246 26Q249 26 250 14T249 -3L142 2L33 -3Z" />
<glyph unicode="o" glyph-name="o" horiz-adv-x="510" d="M256 -7Q196 -7 146 23T67 104T37 216Q37 278 65 328T143 407T254 437Q314 437 363 407T442 327T472 216Q472 155 443 104T366 23T256 -7ZM265 32Q301 32 328 55T370 117T386 202Q386 256 366 300T314
371T243 398Q208 398 181 376T138 316T123 231Q123 177 142 132T194 59T265 32Z" />
<glyph unicode="p" glyph-name="p" horiz-adv-x="511" d="M21 -226Q17 -222 17 -210Q17 -197 21 -197Q29 -197 43 -194T69 -186T82 -177Q86 -163 87 -145T89 -107V306Q89 344 75 360Q65 372 52 376T28 380T17 383Q17 407 23 408Q129 424 159 433L166 435Q171 435
170 425T168 407L167 401Q177 408 195 416T233 430T269 436Q337 436 382 406T450 329T473 234Q473 186 455 143T406 65T336 12T254 -8Q223 -8 207 -4T170 11Q166 7 166 -2V-88Q166 -117 168 -139T174 -177Q176 -181 188 -186T214 -194T234 -197Q237 -197 238 -209T237
-226L130 -221L21 -226ZM258 34Q298 34 326 58T371 122T387 206Q387 262 367 302T312 365T237 387Q206 387 186 371T166 323V98Q166 71 195 53T258 34Z" />
<glyph unicode="q" glyph-name="q" horiz-adv-x="489" d="M275 -227Q271 -223 271 -211Q271 -198 275 -198Q283 -198 297 -195T323 -187T336 -178Q340 -164 341 -146T343 -108V16Q343 21 342 24T336 26Q276 -4 240 -4Q182 -4 137 25T65 101T38 203Q38 247 56 289T105
365T178 419T265 440Q308 440 337 435T377 429Q386 429 399 433T415 437Q418 437 427 434T436 427Q436 420 428 382T420 293V-101Q420 -124 422 -143T428 -178Q430 -182 442 -187T468 -195T488 -198Q491 -198 492 -210T491 -227L384 -222L275 -227ZM275 45Q298
45 320 58T343 105V337Q343 364 318 381T248 398Q209 398 181 373T139 309T124 226Q124 137 168 91T275 45Z" />
<glyph unicode="r" glyph-name="r" horiz-adv-x="380" d="M37 -3Q33 1 33 14Q33 26 37 26Q45 26 59 29T85 37T98 46Q102 60 103 78T105 116V305Q105 343 91 359Q81 371 68 375T44 379T33 382Q33 406 39 407Q148 424 165 429L182 434Q186 435 187 426T187 413L181
363Q199 390 230 413T293 437Q351 437 371 408Q371 373 360 357T333 341Q315 341 300 358Q285 375 259 375Q239 375 221 362T193 328T182 285V135Q182 106 184 84T190 46Q192 42 204 37T230 29T251 26Q254 26 255 14T254 -3L146 2L37 -3Z" />
<glyph unicode="s" glyph-name="s" horiz-adv-x="359" d="M175 -11Q144 -11 119 -4T58 8Q54 19 50 38T44 78T41 112Q49 118 53 118Q68 118 69 112Q73 92 89 72T128 39T175 25Q207 25 227 42T248 93Q248 128 221 151Q200 168 186 175T158 189T124 208Q46 253 46
315Q46 351 66 378T119 421T191 437Q202 437 216 436T247 432Q264 429 275 427T293 424Q304 378 305 322Q305 317 292 317Q278 317 277 324Q272 352 249 377T195 402Q123 402 123 343Q123 328 126 317T143 295Q174 271 216 247T287 202Q329 170 329 127Q329 88
308 57T252 7T175 -11Z" />
<glyph unicode="t" glyph-name="t" horiz-adv-x="314" d="M197 -7Q147 -7 114 26T80 120V374H22Q17 374 17 395Q17 401 18 402Q48 416 81 455Q104 482 115 502T127 526Q157 526 157 521V422L236 421H292Q300 421 300 412Q300 393 290 374H157V129Q157 89 177 65T231
41Q262 41 293 60Q296 62 302 52T307 40Q292 24 261 9T197 -7Z" />
<glyph unicode="u" glyph-name="u" horiz-adv-x="517" d="M367 -8Q359 -8 359 8V59Q359 64 357 64Q291 -7 226 -7Q179 -7 152 20T113 90T101 179V305Q101 343 87 359Q77 371 64 375T40 379T29 382Q29 406 35 407Q88 415 120 421T158 429L178 434Q182 435 183 426T183
413Q177 365 177 339V204Q177 127 200 91T275 54Q295 54 314 65T346 91T359 118V305Q359 343 345 359Q335 371 322 375T298 380T287 382Q287 406 293 407Q346 415 372 420T415 429L436 434Q440 435 441 426T441 413Q435 365 435 341V141Q435 96 442 65Q445 55 458
53T488 48L501 47Q504 46 504 36Q504 33 502 27T496 20Q466 18 430 10T376 -6L367 -8Z" />
<glyph unicode="v" glyph-name="v" horiz-adv-x="493" d="M236 -7Q228 12 210 55T162 165Q133 233 108 287T61 385Q50 405 2 405Q-2 405 -2 418Q-2 430 2 434Q28 433 54 431T106 429Q131 429 156 431T206 434Q208 430 207 418T202 405Q153 405 153 388Q153 387
154 385T156 380L274 113L375 343Q380 353 381 360T383 373Q383 405 311 405Q307 405 307 418Q307 430 311 434Q322 433 352 431T406 429L506 434Q508 426 508 419Q508 405 501 405Q487 405 464 397T433 371L274 12Q267 -4 253 -8T236 -7Z" />
<glyph unicode="w" glyph-name="w" horiz-adv-x="734" d="M254 -11Q243 -11 242 -7Q230 20 217 52T188 123Q157 198 130 258T67 383Q54 405 13 405Q9 405 9 418Q9 430 13 434Q34 433 60 431T112 429L212 434Q214 430 214 418T210 405Q160 405 160 382Q160 375
193 308T279 120Q314 219 334 276T355 341Q355 346 350 358T336 385Q328 397 314 401T285 405Q281 405 281 418Q281 430 285 434Q306 433 331 431T382 429Q414 429 438 431T480 434Q482 426 482 417Q482 407 479 405Q431 405 431 366Q431 346 541 120Q561 182 580
234T611 322T623 370Q623 405 557 405H553Q549 405 549 418Q549 430 553 434Q575 433 601 431T654 429Q678 429 700 431T743 434Q745 426 745 419Q745 405 740 405Q727 405 705 397T676 369L545 11Q538 -11 517 -11Q506 -11 505 -7L382 287L281 11Q278 4 271 -3T254
-11Z" />
<glyph unicode="x" glyph-name="x" horiz-adv-x="467" d="M6 -3Q5 1 5 4T4 11Q4 26 8 26Q76 37 98 68L199 203Q203 210 203 212Q203 216 200 220L98 370Q92 379 77 387T45 400T16 405Q13 413 13 419Q13 428 17 434L117 429L222 434Q223 431 223 422Q223 405 220
405Q180 405 180 388Q180 384 185 376L250 275Q264 298 275 314T294 340Q302 352 309 366T316 387Q316 397 305 400T281 403T262 405Q259 407 259 421Q259 430 262 434L367 429L458 434Q459 429 459 426T460 420Q460 405 457 405Q390 397 370 371L278 251Q272 244
272 238Q272 232 276 227L382 70Q408 31 466 26Q469 26 469 12Q469 1 465 -3L371 2L260 -3Q259 2 259 5T258 10Q258 26 261 26Q303 29 303 44Q303 47 301 50L225 170L156 67Q149 57 149 48Q149 39 164 33T199 26H204Q207 26 207 11Q207 1 203 -3L103 2L6 -3Z" />
<glyph unicode="y" glyph-name="y" horiz-adv-x="454" d="M120 -227Q99 -227 89 -214T79 -188Q79 -167 93 -156Q176 -156 203 -70Q208 -55 215 -34T226 0L83 350Q78 362 73 370T63 384Q54 393 36 399T6 405Q2 405 2 418Q2 430 6 434Q33 433 59 432T114 430Q146
430 169 431T211 434Q213 426 213 419Q213 405 209 405Q205 405 195 402T174 395T162 384V382Q162 365 269 121L345 340Q352 360 352 371Q352 386 337 395T295 405Q291 405 291 418Q291 430 295 434Q308 433 334 431T384 429Q406 429 432 431T471 434Q473 426 473
419Q473 405 469 405Q456 405 434 396T404 367L225 -116Q202 -178 173 -202T120 -227Z" />
<glyph unicode="z" glyph-name="z" horiz-adv-x="414" d="M49 0Q29 12 29 23Q29 26 30 27L287 384L138 385Q110 385 97 370T80 337T73 312Q70 306 49 306Q38 306 38 309Q38 311 39 323T45 357Q53 401 54 430Q113 424 149 424H271Q299 424 329 426T393 432Q396
428 396 408L142 61Q135 51 135 47Q135 40 147 40H278Q320 40 339 61T370 120Q372 131 378 131Q400 131 407 119L386 0H49Z" />
<glyph unicode="{" glyph-name="braceleft" horiz-adv-x="324" d="M266 -125Q223 -125 187 -102T130 -37T109 55Q109 85 133 140Q157 194 157 219Q157 238 149 251T127 271Q105 281 94 282T66 292Q63 298 63 310Q63 322 67 329Q81 333 92 336T112 342Q127 348
142 364T157 406Q157 433 132 487Q107 541 107 575Q107 630 128 669T185 729T266 750Q270 750 270 742Q270 723 259 721Q240 720 217 705T177 667T160 613Q160 576 185 522Q210 468 210 423Q210 393 197 367T165 325T126 308Q146 308 165 293T198 253T211 197Q211
153 186 104Q160 52 160 18Q160 -11 177 -36T217 -78T259 -96Q270 -98 270 -118Q270 -125 266 -125Z" />
<glyph unicode="|" glyph-name="bar" horiz-adv-x="264" d="M105 -123Q100 -123 100 -115V757Q98 763 105 765Q127 772 155 772Q160 772 161 771Q163 769 163 768V766L164 -106Q164 -109 151 -113T124 -120T105 -123Z" />
<glyph unicode="}" glyph-name="braceright" horiz-adv-x="325" d="M58 -125Q54 -125 54 -118Q54 -98 65 -96Q84 -94 107 -78T147 -37T164 18Q164 54 139 104Q113 154 113 197Q113 228 126 253T158 293T198 308Q179 309 160 325T127 367T114 423Q114 468 139 522Q164
576 164 613Q164 643 148 666T108 705T65 721Q54 723 54 742Q54 750 58 750Q103 750 139 729T196 669T217 575Q217 541 192 487Q167 433 167 406Q167 382 182 365Q197 349 212 343T257 329Q261 322 261 310Q261 298 258 292Q242 288 229 284T205 275Q186 267 177
255T167 219Q167 194 191 140Q215 85 215 55Q215 4 194 -37T138 -101T58 -125Z" />
<glyph unicode="~" glyph-name="asciitilde" horiz-adv-x="576" d="M393 250Q346 250 275 277Q203 303 156 303Q139 303 120 295Q108 290 102 286T88 277T65 259Q56 264 56 276Q56 297 80 315Q111 338 132 346T186 354Q232 354 304 328Q375 301 422 301Q443 301
454 307T471 315Q474 316 483 323T501 337T512 345Q521 341 521 328Q521 306 498 289Q467 266 447 258T393 250Z" />
<glyph unicode="&#xa0;" glyph-name="uni00A0" horiz-adv-x="229" />
<glyph unicode="&#xa1;" glyph-name="exclamdown" horiz-adv-x="165" d="M82 432Q106 432 123 415T141 374Q141 350 125 333T82 315Q57 315 41 332T24 374Q24 398 41 415T82 432ZM83 265Q94 270 98 264T103 247L119 21Q124 -49 128 -95T132 -162Q132 -187 118
-206T80 -225Q58 -225 47 -207T35 -162Q35 -141 40 -81T53 62T66 236Q67 251 70 256T83 265Z" />
<glyph unicode="&#xa2;" glyph-name="cent" horiz-adv-x="464" d="M231 -45Q196 -45 196 -36L202 -1Q138 16 99 70T60 211Q60 270 85 321T154 403T254 435Q263 435 273 435L279 474Q314 474 314 466L308 431Q342 425 368 413T406 381Q406 318 370 318Q363 318
359 320T352 327Q351 328 342 338T331 350Q321 362 315 369T300 382L248 57Q267 52 289 52Q330 52 360 68T400 94Q412 106 412 85Q412 73 406 67Q337 -8 258 -8Q247 -8 237 -7L231 -45ZM136 245Q136 187 155 141T214 72L267 397Q255 400 244 400Q202 400 169 363T136
245Z" />
<glyph unicode="&#xa3;" glyph-name="sterling" horiz-adv-x="473" d="M65 -9Q56 -9 51 -3T46 10Q51 18 57 28T71 50L93 82Q95 86 97 91T100 101Q103 112 105 132T108 173T109 201V249Q109 256 108 279H50Q45 279 45 292Q45 310 51 319H106Q105 325 105 332Q103
369 102 392T100 423Q100 486 123 533T187 608T282 635Q334 635 359 598Q359 539 329 539Q309 539 286 566Q264 593 243 593Q194 593 181 543Q174 519 172 497T170 444Q170 434 171 409T174 343L175 319H318Q323 319 323 309Q323 290 308 279H177L178 258Q178 161
133 84Q156 93 205 93Q235 93 289 77Q343 61 362 61Q385 61 399 78T420 113T430 135Q441 135 446 125T448 108Q404 -8 331 -8Q296 -8 230 11Q163 29 140 29Q106 29 65 -9Z" />
<glyph unicode="&#xa4;" glyph-name="currency" horiz-adv-x="468" d="M390 100L338 155Q289 120 232 120Q167 120 118 160L65 110Q58 103 44 118T24 154L78 205Q48 252 48 307Q48 371 86 423L34 479Q27 486 42 500T78 520L130 465Q174 496 232 496Q294 496 344
455L403 510Q410 517 424 502T444 466L384 410Q413 361 413 307Q413 249 380 199L434 141Q441 134 426 120T390 100ZM240 152Q270 152 292 171T328 223T341 294Q341 340 325 378T282 440T223 463Q194 463 171 443T134 391T121 319Q121 274 137 236T181 175T240
152Z" />
<glyph unicode="&#xa5;" glyph-name="yen" horiz-adv-x="621" d="M188 -3Q184 1 184 10Q184 24 188 24Q196 24 210 27T236 35T250 46Q254 62 256 84T258 138H166Q161 138 161 151Q161 167 167 176H258V216H166Q161 216 161 229Q161 245 167 254H258Q258 269 257
270Q253 287 116 532Q107 549 97 565T73 594Q64 603 43 609T9 615Q5 615 5 626Q5 638 9 642L62 639Q98 636 125 636L250 642Q252 638 252 627T248 615Q231 615 211 607T190 583Q190 571 200 554L309 348Q315 343 319 350Q451 550 451 584Q451 595 432 605T384 615Q380
615 380 627Q380 638 384 642Q392 642 408 641T443 638T476 636Q497 636 614 642Q616 634 616 627Q616 615 612 615Q604 615 584 611T545 601T519 586Q502 560 480 523T433 447T389 372T355 312T342 282V254H434Q439 254 439 241Q439 225 433 216H342V176H434Q439
176 439 163Q439 147 433 138H342Q342 106 343 83T349 46Q351 42 363 37T388 28T408 24Q412 24 412 12Q412 5 410 -3Q361 -1 334 0T302 2L188 -3Z" />
<glyph unicode="&#xa6;" glyph-name="brokenbar" horiz-adv-x="137" d="M48 382Q40 381 39 382T37 387V753Q35 759 42 761Q64 768 91 768Q96 768 97 767Q99 765 99 764V762L100 397Q100 397 98 395L95 392Q91 391 80 388T48 382ZM42 -123Q37 -123 37 -115V249Q35
255 42 257Q64 264 91 264Q96 264 97 263Q99 261 99 260V258L100 -106L98 -108Q89 -117 48 -122L45 -123H42Z" />
<glyph unicode="&#xa7;" glyph-name="section" horiz-adv-x="382" d="M163 -41Q96 -41 74 -7Q73 -6 73 -2T72 7Q72 52 105 52Q117 52 145 26Q172 -1 196 -1Q224 -1 240 15T257 62Q257 99 233 123T176 163Q159 171 142 179T108 196Q74 214 50 251T26 345Q26 427
85 469Q71 494 71 518Q71 582 113 616T217 651Q281 651 305 615Q307 593 302 575T279 557Q262 557 249 570T222 597T183 611Q156 611 140 594T123 547Q123 511 147 487T205 448L272 414Q306 395 330 357T354 263Q354 181 295 140Q309 107 309 90Q309 52 295 25T257
-16Q234 -29 211 -35T163 -41ZM282 173Q296 187 302 196T308 225Q308 264 283 292T224 337Q191 352 154 378T98 435Q72 414 72 383Q72 344 97 316T156 272Q188 257 226 231T282 173Z" />
<glyph unicode="&#xa8;" glyph-name="dieresis" horiz-adv-x="299" d="M496 504Q477 504 463 518T448 552Q448 572 462 586T496 600Q516 600 530 586T545 552Q545 533 531 519T496 504ZM315 504Q296 504 281 518T266 552Q266 572 281 586T315 600Q335 600 349
586T363 552Q363 533 349 519T315 504Z" />
<glyph unicode="&#xa9;" glyph-name="copyright" horiz-adv-x="603" d="M301 68Q249 68 200 88T113 145T51 232T28 342Q28 399 49 448T107 535T194 594T301 615Q358 615 407 594T494 536T553 449T575 342Q575 282 553 232T491 146T403 89T301 68ZM302 100Q369
100 423 133T511 221T544 342Q544 410 511 465T422 552T302 584Q257 584 214 567T137 517T82 440T61 342Q61 276 93 221T181 133T302 100ZM302 195Q262 195 230 214T178 265T159 336Q159 377 177 410T228 463T300 483Q364 483 412 464Q428 409 428 403Q428 394
412 394Q411 394 405 396Q401 416 377 432T312 449Q272 449 244 418T216 345Q216 289 249 258T321 227Q373 227 393 246Q400 253 402 266T408 279Q427 279 428 276Q428 273 424 258T416 230T408 214Q363 195 302 195Z" />
<glyph unicode="&#xaa;" glyph-name="ordfeminine" horiz-adv-x="316" d="M102 249Q70 249 49 266T28 317Q28 340 43 357T83 387Q92 392 99 395T113 400Q139 408 154 414T175 421Q181 423 181 431V489Q181 507 168 518T134 529Q113 529 100 515T86 478Q86 456
52 456Q31 456 31 467Q31 487 51 507T101 542T160 556Q202 556 219 539T236 484V318Q236 304 243 294T262 283Q268 283 274 286T284 291L287 293Q290 292 290 290L286 273Q254 250 238 250Q222 250 208 263T188 291L180 284Q163 269 144 259T102 249ZM128 289Q146
289 163 301T181 324V392Q162 386 147 381T122 372Q110 367 99 356T88 328Q88 309 99 299T128 289Z" />
<glyph unicode="&#xab;" glyph-name="guillemotleft" horiz-adv-x="469" d="M420 73Q411 83 382 107T309 163T214 227Q207 230 207 241Q207 258 215 268Q343 345 421 423Q444 417 444 404Q444 397 418 372T336 290L295 247L382 157L428 112Q438 102 440 99T443
91Q443 80 433 78T420 73ZM240 73Q231 83 202 107T129 163T34 227Q27 230 27 241Q27 258 35 268Q163 345 241 423Q264 417 264 404Q264 397 238 372T156 290L115 247L202 157L248 112Q258 102 260 99T263 91Q263 80 253 78T240 73Z" />
<glyph unicode="&#xac;" glyph-name="logicalnot" horiz-adv-x="538" d="M447 154Q438 154 440 160V354Q440 364 429 364H35Q29 364 29 374Q33 420 44 420H488Q500 420 500 409V169Q489 158 451 154H447Z" />
<glyph unicode="&#xae;" glyph-name="registered" horiz-adv-x="604" d="M302 132Q249 132 200 152T113 210T52 298T29 407Q29 464 50 513T108 600T195 659T302 680Q359 680 408 659T495 601T554 514T576 407Q576 351 555 301T495 213T407 154T302 132ZM303 165Q370
165 424 198T512 286T545 407Q545 477 511 531T422 617T303 649Q240 649 185 618T96 531T62 407Q62 341 94 286T182 198T303 165ZM441 272Q410 272 390 280T348 316T293 398Q288 406 279 406Q272 408 261 406Q259 406 259 399V335Q259 320 260 310T263 294Q264
291 274 288T289 285Q290 285 290 280T290 273Q282 274 266 274T227 274Q212 274 200 274T177 273Q175 275 175 280Q175 285 177 285Q182 285 193 288T205 294Q207 299 208 305T208 319L207 335V490Q208 494 208 498T208 506Q208 522 205 531Q204 534 194 537T178
541Q177 541 177 546Q177 552 178 553Q198 550 226 550Q233 550 242 550T263 552Q275 553 284 553T300 554Q322 554 343 546T379 520T394 477Q394 435 346 414Q345 414 345 412Q345 399 415 307Q432 286 455 286Q456 285 456 280Q456 272 441 272ZM306 428Q320
428 332 441T344 474Q344 529 294 529Q272 529 263 526Q260 526 260 523L259 486V441Q259 428 306 428Z" />
<glyph unicode="&#xaf;" glyph-name="overscore" horiz-adv-x="245" d="M16 550L12 552Q10 556 10 559Q10 596 22 596H230Q235 596 235 589Q235 580 229 557Q227 553 227 553L224 550H16Z" />
<glyph unicode="&#xb0;" glyph-name="degree" horiz-adv-x="233" d="M117 437Q76 437 47 466T18 536Q18 576 47 605T117 634Q158 634 186 605T215 536Q215 495 186 466T117 437ZM117 474Q142 474 160 492T178 536Q178 562 160 579T117 597Q91 597 73 579T55 536Q55
510 73 492T117 474Z" />
<glyph unicode="&#xb1;" glyph-name="plusminus" horiz-adv-x="533" d="M244 92Q239 92 239 100V299Q239 304 233 304H34Q28 304 28 314Q28 326 36 355Q37 360 42 360H234Q239 360 239 366V556Q237 561 244 563Q273 571 285 571L295 565V365Q295 360 299 360H499Q507
360 507 355Q507 346 497 310Q495 306 495 306Q493 304 492 304H299Q295 304 295 301V109Q295 99 250 93H247Q246 92 244 92ZM35 6Q27 6 29 19Q31 30 33 39T37 57Q38 59 40 61Q41 62 42 62H491Q501 62 499 51Q496 29 493 19T485 7L483 6H35Z" />
<glyph unicode="&#xb2;" glyph-name="uni00B2" horiz-adv-x="322" d="M38 366Q31 375 29 392Q57 419 87 453T145 522T188 589T205 642Q205 667 186 683T138 699Q111 699 92 686T62 659T49 645Q45 645 41 652T36 665Q80 751 172 751Q202 751 223 738T257 704T269
663Q269 630 252 596T209 533Q187 508 174 495T152 473T131 455T102 427Q96 421 104 421H218Q240 421 251 432Q260 443 263 450T270 467Q272 470 284 470Q292 470 292 467Q283 423 278 398T272 366L173 367L38 366Z" />
<glyph unicode="&#xb3;" glyph-name="uni00B3" horiz-adv-x="306" d="M128 359Q98 359 71 368T32 391Q30 399 30 400Q30 411 39 419T57 427Q76 427 98 408Q120 389 141 389Q212 389 212 474Q212 506 190 527T139 549Q127 549 98 540Q92 548 92 559Q92 561 92 564T94
571Q134 579 163 599T193 652Q193 706 134 706Q104 706 66 659Q62 659 57 669T53 683Q93 747 162 747Q194 747 222 722T250 662Q250 607 188 581Q207 581 227 568T261 533T276 483Q276 445 255 417T200 374T128 359Z" />
<glyph unicode="&#xb4;" glyph-name="acute" horiz-adv-x="188" d="M22 527Q10 527 10 540Q10 561 26 585T64 634T103 678Q112 687 137 687Q156 687 167 680T178 663Q178 653 164 637T129 601T85 565T45 538T22 527Z" />
<glyph unicode="&#xb5;" glyph-name="uni00B5" horiz-adv-x="509" d="M122 -227Q116 -227 104 -220T80 -205T69 -190Q69 -177 70 -142T73 -59T78 39T84 134T90 204Q90 210 90 222T88 252Q87 269 87 281T86 298V417Q98 437 110 437Q116 437 129 431T152 415T163
400Q163 377 158 339T140 246L135 223Q135 156 148 111Q162 64 186 64Q217 64 243 86T291 146T328 227V417Q340 437 352 437Q358 437 371 431T394 415T405 400Q405 377 400 339T382 246L377 223Q376 67 435 67Q452 67 468 77T492 97Q496 97 502 87Q505 81 505 76Q495
43 469 20T412 -4Q390 -4 375 18Q359 40 354 64T342 128Q283 -9 192 -9Q171 -9 158 5T138 40T124 76Q124 54 125 8T131 -95T146 -207Q134 -227 122 -227Z" />
<glyph unicode="&#xb6;" glyph-name="paragraph" horiz-adv-x="496" d="M170 -4Q168 0 168 11T172 23Q178 23 192 26T219 35T233 45Q235 56 236 90T238 183V284Q238 291 218 291Q166 291 127 318T67 386T46 469Q46 521 70 562T134 628T217 652Q240 652 272 650T328
648L441 653Q445 649 445 637Q445 624 441 624Q433 624 419 622T394 615T380 604Q377 594 377 500L378 409V350Q378 344 383 346L426 354Q430 347 430 341Q428 321 410 316L384 309Q379 306 379 304Q379 188 380 123T386 45Q388 40 400 35T427 26T450 23Q454 23
454 11Q454 0 450 -4Q438 -3 409 -2T346 0T289 2Q255 2 223 0T170 -4ZM292 332L329 338Q334 338 334 344Q334 459 334 523T332 600Q332 603 324 607T309 611Q286 611 286 599Q285 520 285 455T284 338Q284 330 292 332ZM310 36Q317 36 323 40T330 50Q332 73 333
134T334 295Q334 299 330 299Q329 299 319 297T291 293Q284 292 284 286L286 49Q286 36 310 36Z" />
<glyph unicode="&#xb7;" glyph-name="middot" horiz-adv-x="211" d="M106 205Q82 205 65 222T47 263Q47 287 64 304T106 322Q132 322 148 305T164 263Q164 239 147 222T106 205Z" />
<glyph unicode="&#xb8;" glyph-name="cedilla" horiz-adv-x="151" d="M47 -152Q27 -152 13 -143L12 -138Q10 -132 10 -129Q10 -124 14 -120T24 -115Q31 -115 41 -122Q52 -128 61 -128Q81 -128 92 -119T104 -95Q104 -79 94 -70T73 -61Q62 -61 47 -68Q45 -68 41
-63T37 -55Q40 -51 46 -41T60 -20T69 -4H90L72 -27H97Q116 -27 128 -41T141 -76Q141 -110 114 -131T47 -152Z" />
<glyph unicode="&#xb9;" glyph-name="uni00B9" horiz-adv-x="236" d="M55 366Q52 369 52 379Q52 390 55 390Q74 390 93 400Q101 405 101 436V637Q101 674 93 674Q80 674 46 655Q36 663 35 671T37 681Q90 710 122 732T158 754H160Q163 754 168 737Q161 719 161
682V440Q161 405 169 400Q188 390 204 390Q208 390 208 377Q208 372 206 366Q179 368 161 369T133 370Q121 370 102 369T55 366Z" />
<glyph unicode="&#xba;" glyph-name="ordmasculine" horiz-adv-x="370" d="M187 247Q144 247 108 267T51 323T29 399Q29 442 50 477T107 533T187 554Q230 554 264 533T320 476T341 399Q341 357 321 323T266 268T187 247ZM195 271Q233 271 252 307T272 391Q272
428 262 459T231 509T180 529Q141 529 120 494T98 411Q98 375 109 343T143 291T195 271Z" />
<glyph unicode="&#xbb;" glyph-name="guillemotright" horiz-adv-x="471" d="M51 73Q49 75 39 77T28 91Q28 96 30 99T43 112L89 157L176 247L135 290Q79 347 53 372T27 404Q27 417 50 423Q129 345 256 268Q264 258 264 241Q264 230 257 227Q206 195 163 163T90
107T51 73ZM231 73Q229 75 219 77T208 91Q208 96 210 99T223 112L269 157L356 247L315 290Q259 347 233 372T207 404Q207 417 230 423Q309 345 436 268Q444 258 444 241Q444 230 437 227Q386 195 343 163T270 107T231 73Z" />
<glyph unicode="&#xbc;" glyph-name="onequarter" horiz-adv-x="763" d="M29 253Q25 253 25 267Q25 278 29 278Q37 278 49 280T73 285T85 292Q91 309 91 323V518Q91 551 87 560Q83 569 72 569Q65 569 21 554Q12 556 10 561T7 570Q7 577 10 578Q57 597 93 616T145
644L160 652Q166 652 174 629Q165 587 165 548V340Q165 312 173 293Q175 290 185 287T207 281T224 279Q228 279 228 263Q228 254 227 253Q178 255 159 255T129 256Q118 256 97 256T56 254T29 253ZM210 -11Q208 -16 205 -16Q186 -16 171 3Q168 6 170 11L518 643Q521
648 530 646T549 637T558 622Q558 621 556 617L210 -11ZM616 -4Q587 -4 587 4V98Q585 100 582 100H441Q434 107 432 137Q449 158 473 188T528 259Q590 339 624 379Q631 386 639 386Q647 386 647 380V146Q647 144 653 142H689Q698 142 698 108L692 100H651Q647 100
647 96V3L644 0Q637 -4 616 -4ZM482 142H582Q587 144 587 146V278Q587 283 585 283Q585 283 584 282L478 149L477 147Q477 142 482 142Z" />
<glyph unicode="&#xbd;" glyph-name="onehalf" horiz-adv-x="764" d="M29 253Q25 253 25 267Q25 278 29 278Q37 278 49 280T73 285T85 292Q91 309 91 323V518Q91 551 87 560Q83 569 72 569Q65 569 21 554Q12 556 10 561T7 570Q7 577 10 578Q57 597 93 616T145
644L160 652Q166 652 174 629Q165 587 165 548V340Q165 312 173 293Q175 290 185 287T207 281T224 279Q228 279 228 263Q228 254 227 253Q178 255 159 255T129 256Q118 256 97 256T56 254T29 253ZM210 -11Q208 -16 205 -16Q186 -16 171 3Q168 6 170 11L518 643Q521
648 530 646T549 637T558 622Q558 621 556 617L210 -11ZM480 0Q473 9 471 26Q499 53 529 87T587 156T630 223T647 276Q647 301 628 317T580 333Q553 333 534 320T504 293T491 279Q487 279 483 286T478 299Q522 385 614 385Q644 385 665 372T699 338T711 297Q711
264 694 230T651 167Q629 142 616 129T594 107T573 89T544 61Q538 55 546 55H660Q682 55 693 66Q702 77 705 84T712 101Q714 104 726 104Q734 104 734 101Q725 57 720 32T714 0L615 1L480 0Z" />
<glyph unicode="&#xbe;" glyph-name="threequarters" horiz-adv-x="807" d="M110 247Q81 247 57 255T27 273V280Q27 295 35 306T55 317Q69 317 91 300Q113 283 129 283Q164 283 190 305T217 371Q217 406 199 425T152 444Q147 444 100 438Q91 447 91 457Q91 465
100 468Q140 476 166 497T192 554Q192 573 177 584T140 596Q122 596 107 587T81 568T67 558Q64 558 61 566T55 584T53 593Q97 647 174 647Q193 647 212 638T244 611T258 569Q258 548 248 532Q238 516 227 508T192 484Q210 484 232 472T271 437T288 385Q288 343
263 312T198 264T110 247ZM254 -11Q252 -16 249 -16Q230 -16 215 3Q212 6 214 11L562 643Q565 648 574 646T593 637T602 622Q602 621 600 617L254 -11ZM660 -4Q631 -4 631 4V98Q629 100 626 100H485Q478 107 476 137Q493 158 517 188T572 259Q634 339 668 379Q675
386 683 386Q691 386 691 380V146Q691 144 697 142H733Q742 142 742 108L736 100H695Q691 100 691 96V3L688 0Q681 -4 660 -4ZM526 142H626Q631 144 631 146V278Q631 283 629 283Q629 283 628 282L522 149L521 147Q521 142 526 142Z" />
<glyph unicode="&#xbf;" glyph-name="questiondown" horiz-adv-x="366" d="M224 432Q248 432 265 415T283 374Q283 350 267 333T224 315Q199 315 183 332T166 374Q166 398 183 415T224 432ZM232 257Q245 257 245 249V202Q246 186 246 174T246 155Q246 128 240
109T204 67L160 34Q134 15 115 1T84 -27T73 -65Q73 -103 97 -125T154 -148Q164 -148 180 -146T212 -143T230 -141Q246 -141 261 -150T277 -181Q277 -205 270 -215Q251 -225 220 -225Q190 -225 156 -211T92 -172T42 -113T23 -40Q23 12 45 46T124 113Q138 121 155
133T186 158T202 175Q212 192 212 244Q212 257 232 257Z" />
<glyph unicode="&#xc0;" glyph-name="Agrave" horiz-adv-x="684" d="M24 -3Q20 1 20 12Q20 26 24 26Q36 26 55 31T81 45Q92 59 103 82T128 139L302 586Q308 601 309 607T312 617T319 633Q326 647 333 655T356 663L365 660L565 132Q574 109 581 91T594 60Q598 50
611 43T639 31T662 26Q666 26 666 7Q666 5 666 3T664 -3Q614 -1 587 0T554 2L438 -3Q434 1 434 13T439 26Q451 26 469 31T490 44Q491 48 491 52T492 60Q492 73 489 90T482 118L437 242Q434 246 431 246Q392 249 355 249Q329 249 298 248T228 244L223 241L180 131Q170
106 167 89T163 62Q163 48 171 42Q180 35 200 31T229 26Q232 26 232 14T231 -3L128 2Q100 4 74 2T24 -3ZM320 297Q365 297 411 300L414 305L333 526L247 303Q247 299 249 299Q275 298 292 298T320 297ZM424 729Q417 729 397 736T351 756T301 782T261 809T245 832Q245
843 258 852T297 862Q309 862 315 859Q329 849 348 831T388 794T421 760T434 742Q434 729 424 729Z" />
<glyph unicode="&#xc1;" glyph-name="Aacute" horiz-adv-x="684" d="M24 -3Q20 1 20 12Q20 26 24 26Q36 26 55 31T81 45Q92 59 103 82T128 139L302 586Q308 601 309 607T312 617T319 633Q326 647 333 655T356 663L365 660L565 132Q574 109 581 91T594 60Q598 50
611 43T639 31T662 26Q666 26 666 7Q666 5 666 3T664 -3Q614 -1 587 0T554 2L438 -3Q434 1 434 13T439 26Q451 26 469 31T490 44Q491 48 491 52T492 60Q492 73 489 90T482 118L437 242Q434 246 431 246Q392 249 355 249Q329 249 298 248T228 244L223 241L180 131Q170
106 167 89T163 62Q163 48 171 42Q180 35 200 31T229 26Q232 26 232 14T231 -3L128 2Q100 4 74 2T24 -3ZM320 297Q365 297 411 300L414 305L333 526L247 303Q247 299 249 299Q275 298 292 298T320 297ZM308 729Q298 729 298 742Q298 745 311 760T344 794T384 831T417
859Q423 862 435 862Q461 862 474 853T487 832Q487 823 471 810T431 782T382 756T336 737T308 729Z" />
<glyph unicode="&#xc2;" glyph-name="Acircumflex" horiz-adv-x="684" d="M24 -3Q20 1 20 12Q20 26 24 26Q36 26 55 31T81 45Q92 59 103 82T128 139L302 586Q308 601 309 607T312 617T319 633Q326 647 333 655T356 663L365 660L565 132Q574 109 581 91T594 60Q598
50 611 43T639 31T662 26Q666 26 666 7Q666 5 666 3T664 -3Q614 -1 587 0T554 2L438 -3Q434 1 434 13T439 26Q451 26 469 31T490 44Q491 48 491 52T492 60Q492 73 489 90T482 118L437 242Q434 246 431 246Q392 249 355 249Q329 249 298 248T228 244L223 241L180
131Q170 106 167 89T163 62Q163 48 171 42Q180 35 200 31T229 26Q232 26 232 14T231 -3L128 2Q100 4 74 2T24 -3ZM320 297Q365 297 411 300L414 305L333 526L247 303Q247 299 249 299Q275 298 292 298T320 297ZM248 717Q238 717 238 737L264 761Q275 771 283 778T299
793Q313 806 323 817T341 839Q349 847 351 847Q357 847 362 839Q373 825 383 813T403 791Q429 768 447 754T465 737Q465 717 456 717Q436 717 351 775Q335 763 313 750T273 727T248 717Z" />
<glyph unicode="&#xc3;" glyph-name="Atilde" horiz-adv-x="684" d="M24 -3Q20 1 20 12Q20 26 24 26Q36 26 55 31T81 45Q92 59 103 82T128 139L302 586Q308 601 309 607T312 617T319 633Q326 647 333 655T356 663L365 660L565 132Q574 109 581 91T594 60Q598 50
611 43T639 31T662 26Q666 26 666 7Q666 5 666 3T664 -3Q614 -1 587 0T554 2L438 -3Q434 1 434 13T439 26Q451 26 469 31T490 44Q491 48 491 52T492 60Q492 73 489 90T482 118L437 242Q434 246 431 246Q392 249 355 249Q329 249 298 248T228 244L223 241L180 131Q170
106 167 89T163 62Q163 48 171 42Q180 35 200 31T229 26Q232 26 232 14T231 -3L128 2Q100 4 74 2T24 -3ZM320 297Q365 297 411 300L414 305L333 526L247 303Q247 299 249 299Q275 298 292 298T320 297ZM414 743Q384 743 343 765Q301 786 274 786Q242 786 225 751Q224
750 219 750Q210 750 210 766Q210 785 223 800T254 826T288 836Q317 836 357 815Q398 794 426 794Q462 794 477 828Q478 829 483 829Q492 829 492 813Q492 795 479 779T448 753T414 743Z" />
<glyph unicode="&#xc4;" glyph-name="Adieresis" horiz-adv-x="684" d="M24 -3Q20 1 20 12Q20 26 24 26Q36 26 55 31T81 45Q92 59 103 82T128 139L302 586Q308 601 309 607T312 617T319 633Q326 647 333 655T356 663L365 660L565 132Q574 109 581 91T594 60Q598
50 611 43T639 31T662 26Q666 26 666 7Q666 5 666 3T664 -3Q614 -1 587 0T554 2L438 -3Q434 1 434 13T439 26Q451 26 469 31T490 44Q491 48 491 52T492 60Q492 73 489 90T482 118L437 242Q434 246 431 246Q392 249 355 249Q329 249 298 248T228 244L223 241L180
131Q170 106 167 89T163 62Q163 48 171 42Q180 35 200 31T229 26Q232 26 232 14T231 -3L128 2Q100 4 74 2T24 -3ZM320 297Q365 297 411 300L414 305L333 526L247 303Q247 299 249 299Q275 298 292 298T320 297ZM441 730Q422 730 408 744T393 778Q393 798 407 812T441
826Q461 826 475 812T490 778Q490 759 476 745T441 730ZM260 730Q241 730 226 744T211 778Q211 798 226 812T260 826Q280 826 294 812T308 778Q308 759 294 745T260 730Z" />
<glyph unicode="&#xc5;" glyph-name="Aring" horiz-adv-x="684" d="M24 -3Q20 1 20 12Q20 26 24 26Q36 26 55 31T81 45Q92 59 103 82T128 139L302 586Q308 601 309 607T312 617T319 633Q326 647 333 655T356 663L365 660L565 132Q574 109 581 91T594 60Q598 50
611 43T639 31T662 26Q666 26 666 7Q666 5 666 3T664 -3Q614 -1 587 0T554 2L438 -3Q434 1 434 13T439 26Q451 26 469 31T490 44Q491 48 491 52T492 60Q492 73 489 90T482 118L437 242Q434 246 431 246Q392 249 355 249Q329 249 298 248T228 244L223 241L180 131Q170
106 167 89T163 62Q163 48 171 42Q180 35 200 31T229 26Q232 26 232 14T231 -3L128 2Q100 4 74 2T24 -3ZM320 297Q365 297 411 300L414 305L333 526L247 303Q247 299 249 299Q275 298 292 298T320 297ZM353 659Q319 659 292 684T264 749Q264 786 290 812T352 838Q388
838 413 812T439 749Q439 710 413 685T353 659ZM352 693Q374 693 390 709T406 749Q406 772 391 788T352 804Q329 804 313 788T297 749Q297 726 313 710T352 693Z" />
<glyph unicode="&#xc6;" glyph-name="AE" horiz-adv-x="982" d="M883 -4Q826 -4 706 -1Q645 1 605 2T542 2L424 -3Q420 1 420 12Q420 26 424 26Q432 26 447 29T475 38T490 49Q494 63 495 84T497 135V233Q497 241 484 244Q463 247 408 247Q397 247 372 246T309
242L304 239L235 129Q220 105 212 88T202 60Q199 47 206 40Q220 26 260 26Q262 26 260 14T255 -3Q195 0 153 0Q117 0 48 -3Q46 -1 48 10Q51 26 55 26Q99 26 116 43Q144 69 185 137L462 584Q469 595 469 604Q469 616 453 622T424 629Q420 629 420 643Q420 654 424
658Q449 657 477 657T540 656Q562 656 601 657T695 660Q751 662 793 663T863 664Q865 650 869 631T879 588Q884 564 887 549T892 528Q887 523 874 523Q861 523 860 530Q845 585 818 600T744 616H677Q590 616 589 603Q587 591 586 570T584 519V359Q584 353 627 353H680Q714
353 726 353T743 356T765 362Q775 364 780 385T790 421Q791 428 805 428Q817 428 822 423V234Q818 230 806 230Q793 230 790 238Q786 252 783 262T778 279Q773 293 771 295T762 301Q748 309 656 309Q584 309 584 300V145Q584 80 593 54Q596 44 661 44H709Q801 44
835 61Q850 69 868 96T898 162Q900 168 912 168Q931 168 937 162Q934 154 928 138T915 104T905 75Q899 57 892 34T883 -4ZM413 295Q423 295 441 295T485 297Q497 297 497 308V523Q497 531 488 531Q483 531 479 524L342 301Q341 297 343 297Q369 296 386 296T413
295Z" />
<glyph unicode="&#xc7;" glyph-name="Ccedilla" horiz-adv-x="656" d="M361 -6Q295 -6 238 20T137 91T69 195T44 322Q44 393 69 455T139 565T243 640T372 667Q431 667 492 661T615 642L613 498Q613 483 592 483Q582 483 579 488Q576 501 572 514T553 550Q529 585
485 605T375 625Q326 625 283 602T208 538T157 448T139 343Q139 260 167 194Q195 126 255 82T399 37Q498 37 552 95Q568 112 577 135T591 175T601 192Q607 192 615 191T629 186L634 183Q634 177 630 155T620 107T609 60T600 38Q526 -6 361 -6ZM342 -174Q315 -174
302 -164L300 -157Q299 -154 299 -152T298 -147Q298 -129 308 -130T332 -138T358 -146Q382 -146 395 -135T409 -107Q409 -88 398 -78T373 -67Q363 -67 342 -75Q340 -75 335 -69T330 -60L348 -33Q356 -22 361 -14T368 0H393L371 -27H401Q424 -27 438 -44T453 -85Q453
-125 421 -149T342 -174Z" />
<glyph unicode="&#xc8;" glyph-name="Egrave" horiz-adv-x="571" d="M495 -4Q470 -4 430 -4T334 -2Q279 -1 234 -1T154 0L33 -3Q30 0 30 13Q30 26 33 26Q42 26 57 29T85 38T102 49Q109 60 109 143V521Q109 550 108 572T102 607Q100 613 87 618T58 626T33 629Q29
629 29 641Q29 654 33 658Q59 657 88 657T152 656Q175 656 214 657T308 660Q364 662 405 663T475 664Q477 650 481 631T491 588Q496 564 499 549T504 528Q499 523 486 523Q473 523 472 530Q457 585 430 600T356 616H289Q202 616 201 603Q199 591 198 570T196 519V359Q196
353 239 353H292Q326 353 338 353T355 356T377 362Q387 364 392 385T402 421Q403 428 417 428Q429 428 434 423V234Q430 230 418 230Q405 230 402 238Q398 252 395 262T390 279Q385 293 383 295T374 301Q360 309 268 309Q196 309 196 300V145Q196 80 205 54Q208
44 273 44H321Q413 44 447 61Q462 69 480 96T510 162Q512 168 524 168Q543 168 549 162Q546 154 540 138T527 104T517 75Q511 57 504 34T495 -4ZM359 729Q352 729 332 736T286 756T236 782T196 809T180 832Q180 843 193 852T232 862Q244 862 250 859Q264 849 283
831T323 794T356 760T369 742Q369 729 359 729Z" />
<glyph unicode="&#xc9;" glyph-name="Eacute" horiz-adv-x="571" d="M495 -4Q470 -4 430 -4T334 -2Q279 -1 234 -1T154 0L33 -3Q30 0 30 13Q30 26 33 26Q42 26 57 29T85 38T102 49Q109 60 109 143V521Q109 550 108 572T102 607Q100 613 87 618T58 626T33 629Q29
629 29 641Q29 654 33 658Q59 657 88 657T152 656Q175 656 214 657T308 660Q364 662 405 663T475 664Q477 650 481 631T491 588Q496 564 499 549T504 528Q499 523 486 523Q473 523 472 530Q457 585 430 600T356 616H289Q202 616 201 603Q199 591 198 570T196 519V359Q196
353 239 353H292Q326 353 338 353T355 356T377 362Q387 364 392 385T402 421Q403 428 417 428Q429 428 434 423V234Q430 230 418 230Q405 230 402 238Q398 252 395 262T390 279Q385 293 383 295T374 301Q360 309 268 309Q196 309 196 300V145Q196 80 205 54Q208
44 273 44H321Q413 44 447 61Q462 69 480 96T510 162Q512 168 524 168Q543 168 549 162Q546 154 540 138T527 104T517 75Q511 57 504 34T495 -4ZM243 729Q233 729 233 742Q233 745 246 760T279 794T319 831T352 859Q358 862 370 862Q396 862 409 853T422 832Q422
823 406 810T366 782T317 756T271 737T243 729Z" />
<glyph unicode="&#xca;" glyph-name="Ecircumflex" horiz-adv-x="571" d="M495 -4Q470 -4 430 -4T334 -2Q279 -1 234 -1T154 0L33 -3Q30 0 30 13Q30 26 33 26Q42 26 57 29T85 38T102 49Q109 60 109 143V521Q109 550 108 572T102 607Q100 613 87 618T58 626T33
629Q29 629 29 641Q29 654 33 658Q59 657 88 657T152 656Q175 656 214 657T308 660Q364 662 405 663T475 664Q477 650 481 631T491 588Q496 564 499 549T504 528Q499 523 486 523Q473 523 472 530Q457 585 430 600T356 616H289Q202 616 201 603Q199 591 198 570T196
519V359Q196 353 239 353H292Q326 353 338 353T355 356T377 362Q387 364 392 385T402 421Q403 428 417 428Q429 428 434 423V234Q430 230 418 230Q405 230 402 238Q398 252 395 262T390 279Q385 293 383 295T374 301Q360 309 268 309Q196 309 196 300V145Q196 80
205 54Q208 44 273 44H321Q413 44 447 61Q462 69 480 96T510 162Q512 168 524 168Q543 168 549 162Q546 154 540 138T527 104T517 75Q511 57 504 34T495 -4ZM183 717Q173 717 173 737L199 761Q210 771 218 778T234 793Q248 806 258 817T276 839Q284 847 286 847Q292
847 297 839Q308 825 318 813T338 791Q364 768 382 754T400 737Q400 717 391 717Q371 717 286 775Q270 763 248 750T208 727T183 717Z" />
<glyph unicode="&#xcb;" glyph-name="Edieresis" horiz-adv-x="571" d="M495 -4Q470 -4 430 -4T334 -2Q279 -1 234 -1T154 0L33 -3Q30 0 30 13Q30 26 33 26Q42 26 57 29T85 38T102 49Q109 60 109 143V521Q109 550 108 572T102 607Q100 613 87 618T58 626T33 629Q29
629 29 641Q29 654 33 658Q59 657 88 657T152 656Q175 656 214 657T308 660Q364 662 405 663T475 664Q477 650 481 631T491 588Q496 564 499 549T504 528Q499 523 486 523Q473 523 472 530Q457 585 430 600T356 616H289Q202 616 201 603Q199 591 198 570T196 519V359Q196
353 239 353H292Q326 353 338 353T355 356T377 362Q387 364 392 385T402 421Q403 428 417 428Q429 428 434 423V234Q430 230 418 230Q405 230 402 238Q398 252 395 262T390 279Q385 293 383 295T374 301Q360 309 268 309Q196 309 196 300V145Q196 80 205 54Q208
44 273 44H321Q413 44 447 61Q462 69 480 96T510 162Q512 168 524 168Q543 168 549 162Q546 154 540 138T527 104T517 75Q511 57 504 34T495 -4ZM376 730Q357 730 343 744T328 778Q328 798 342 812T376 826Q396 826 410 812T425 778Q425 759 411 745T376 730ZM195
730Q176 730 161 744T146 778Q146 798 161 812T195 826Q215 826 229 812T243 778Q243 759 229 745T195 730Z" />
<glyph unicode="&#xcc;" glyph-name="Igrave" horiz-adv-x="318" d="M42 -3Q38 1 38 12Q38 26 42 26Q51 26 66 28T94 36T109 46Q113 60 114 82T116 135V523Q116 554 115 576T109 612Q107 618 94 622T66 630T42 633Q38 633 38 646Q38 658 42 662L162 657Q170 657
199 658T278 662Q280 654 280 647Q280 633 276 633Q270 633 255 630T227 622T212 612Q203 578 203 519V139Q203 81 212 46Q214 42 227 37T255 29T276 26Q280 26 280 11Q280 5 278 -3Q228 -1 199 0T162 2L42 -3ZM239 729Q232 729 212 736T166 756T116 782T76 809T60
832Q60 843 73 852T112 862Q124 862 130 859Q144 849 163 831T203 794T236 760T249 742Q249 729 239 729Z" />
<glyph unicode="&#xcd;" glyph-name="Iacute" horiz-adv-x="318" d="M42 -3Q38 1 38 12Q38 26 42 26Q51 26 66 28T94 36T109 46Q113 60 114 82T116 135V523Q116 554 115 576T109 612Q107 618 94 622T66 630T42 633Q38 633 38 646Q38 658 42 662L162 657Q170 657
199 658T278 662Q280 654 280 647Q280 633 276 633Q270 633 255 630T227 622T212 612Q203 578 203 519V139Q203 81 212 46Q214 42 227 37T255 29T276 26Q280 26 280 11Q280 5 278 -3Q228 -1 199 0T162 2L42 -3ZM123 729Q113 729 113 742Q113 745 126 760T159 794T199
831T232 859Q238 862 250 862Q276 862 289 853T302 832Q302 823 286 810T246 782T197 756T151 737T123 729Z" />
<glyph unicode="&#xce;" glyph-name="Icircumflex" horiz-adv-x="318" d="M42 -3Q38 1 38 12Q38 26 42 26Q51 26 66 28T94 36T109 46Q113 60 114 82T116 135V523Q116 554 115 576T109 612Q107 618 94 622T66 630T42 633Q38 633 38 646Q38 658 42 662L162 657Q170
657 199 658T278 662Q280 654 280 647Q280 633 276 633Q270 633 255 630T227 622T212 612Q203 578 203 519V139Q203 81 212 46Q214 42 227 37T255 29T276 26Q280 26 280 11Q280 5 278 -3Q228 -1 199 0T162 2L42 -3ZM63 717Q53 717 53 737L79 761Q90 771 98 778T114
793Q128 806 138 817T156 839Q164 847 166 847Q172 847 177 839Q188 825 198 813T218 791Q244 768 262 754T280 737Q280 717 271 717Q251 717 166 775Q150 763 128 750T88 727T63 717Z" />
<glyph unicode="&#xcf;" glyph-name="Idieresis" horiz-adv-x="318" d="M42 -3Q38 1 38 12Q38 26 42 26Q51 26 66 28T94 36T109 46Q113 60 114 82T116 135V523Q116 554 115 576T109 612Q107 618 94 622T66 630T42 633Q38 633 38 646Q38 658 42 662L162 657Q170
657 199 658T278 662Q280 654 280 647Q280 633 276 633Q270 633 255 630T227 622T212 612Q203 578 203 519V139Q203 81 212 46Q214 42 227 37T255 29T276 26Q280 26 280 11Q280 5 278 -3Q228 -1 199 0T162 2L42 -3ZM256 730Q237 730 223 744T208 778Q208 798 222
812T256 826Q276 826 290 812T305 778Q305 759 291 745T256 730ZM75 730Q56 730 41 744T26 778Q26 798 41 812T75 826Q95 826 109 812T123 778Q123 759 109 745T75 730Z" />
<glyph unicode="&#xd0;" glyph-name="Eth" horiz-adv-x="731" d="M55 -3Q52 0 52 12Q52 26 55 26Q64 26 79 29T107 38T124 49Q131 60 131 143V308H70Q65 308 65 321Q65 339 71 348H131V521Q131 550 130 572T124 607Q122 613 109 618T80 626T55 629Q51 629 51 641Q51
654 55 658Q81 657 110 657T174 656L270 657Q299 658 318 658T348 658Q457 658 534 614T652 496T693 336Q693 240 652 163T533 42T347 -3L275 -1Q244 0 220 0T176 0L55 -3ZM363 43Q478 43 537 118T597 340Q597 416 569 478T488 577T356 614H351Q243 614 231 598Q218
581 218 535V348H416Q422 348 422 338Q422 322 416 308H218V139Q218 98 233 63Q235 58 250 55T286 49T329 45T363 43Z" />
<glyph unicode="&#xd1;" glyph-name="Ntilde" horiz-adv-x="721" d="M590 -5Q574 -5 557 18L169 568V141Q169 73 176 48Q178 44 193 39T227 30T251 26Q254 26 254 14T253 -3Q203 -1 175 0T138 2L23 -3Q20 0 20 12Q20 26 23 26Q33 26 51 29T85 38T103 50Q113 74
113 144V537Q113 588 106 612Q104 618 89 622T55 630T27 633Q23 633 23 646Q23 658 27 662Q66 661 91 661T129 660Q155 660 175 660T209 662Q228 628 312 506T548 172Q551 189 551 213V524Q551 587 544 612Q542 618 526 623T492 631T465 635Q461 635 461 647Q461
658 465 662Q474 662 495 661T540 658T583 656Q609 656 649 659Q688 662 695 662Q697 654 697 647Q697 635 693 635Q687 635 668 631T633 622T614 612Q610 596 608 573T606 519V139Q606 77 609 -1Q605 -5 590 -5ZM424 743Q394 743 353 765Q311 786 284 786Q252
786 235 751Q234 750 229 750Q220 750 220 766Q220 785 233 800T264 826T298 836Q327 836 367 815Q408 794 436 794Q472 794 487 828Q488 829 493 829Q502 829 502 813Q502 795 489 779T458 753T424 743Z" />
<glyph unicode="&#xd2;" glyph-name="Ograve" horiz-adv-x="728" d="M138 89Q44 187 44 328Q44 398 69 459T137 567T239 640T363 667Q429 667 487 641T589 568T658 460T683 328Q683 187 589 89Q525 21 444 -1T283 -2T138 89ZM379 33Q443 33 491 75Q539 116 561
177T584 309Q584 388 558 460Q532 531 477 578T348 625Q285 625 239 587T168 486T143 350Q143 271 169 199Q195 128 250 81T379 33ZM443 729Q436 729 416 736T370 756T320 782T280 809T264 832Q264 843 277 852T316 862Q328 862 334 859Q348 849 367 831T407 794T440
760T453 742Q453 729 443 729Z" />
<glyph unicode="&#xd3;" glyph-name="Oacute" horiz-adv-x="728" d="M138 89Q44 187 44 328Q44 398 69 459T137 567T239 640T363 667Q429 667 487 641T589 568T658 460T683 328Q683 187 589 89Q525 21 444 -1T283 -2T138 89ZM379 33Q443 33 491 75Q539 116 561
177T584 309Q584 388 558 460Q532 531 477 578T348 625Q285 625 239 587T168 486T143 350Q143 271 169 199Q195 128 250 81T379 33ZM327 729Q317 729 317 742Q317 745 330 760T363 794T403 831T436 859Q442 862 454 862Q480 862 493 853T506 832Q506 823 490 810T450
782T401 756T355 737T327 729Z" />
<glyph unicode="&#xd4;" glyph-name="Ocircumflex" horiz-adv-x="728" d="M138 89Q44 187 44 328Q44 398 69 459T137 567T239 640T363 667Q429 667 487 641T589 568T658 460T683 328Q683 187 589 89Q525 21 444 -1T283 -2T138 89ZM379 33Q443 33 491 75Q539 116
561 177T584 309Q584 388 558 460Q532 531 477 578T348 625Q285 625 239 587T168 486T143 350Q143 271 169 199Q195 128 250 81T379 33ZM267 717Q257 717 257 737L283 761Q294 771 302 778T318 793Q332 806 342 817T360 839Q368 847 370 847Q376 847 381 839Q392
825 402 813T422 791Q448 768 466 754T484 737Q484 717 475 717Q455 717 370 775Q354 763 332 750T292 727T267 717Z" />
<glyph unicode="&#xd5;" glyph-name="Otilde" horiz-adv-x="728" d="M138 89Q44 187 44 328Q44 398 69 459T137 567T239 640T363 667Q429 667 487 641T589 568T658 460T683 328Q683 187 589 89Q525 21 444 -1T283 -2T138 89ZM379 33Q443 33 491 75Q539 116 561
177T584 309Q584 388 558 460Q532 531 477 578T348 625Q285 625 239 587T168 486T143 350Q143 271 169 199Q195 128 250 81T379 33ZM433 743Q403 743 362 765Q320 786 293 786Q261 786 244 751Q243 750 238 750Q229 750 229 766Q229 785 242 800T273 826T307 836Q336
836 376 815Q417 794 445 794Q481 794 496 828Q497 829 502 829Q511 829 511 813Q511 795 498 779T467 753T433 743Z" />
<glyph unicode="&#xd6;" glyph-name="Odieresis" horiz-adv-x="728" d="M138 89Q44 187 44 328Q44 398 69 459T137 567T239 640T363 667Q429 667 487 641T589 568T658 460T683 328Q683 187 589 89Q525 21 444 -1T283 -2T138 89ZM379 33Q443 33 491 75Q539 116
561 177T584 309Q584 388 558 460Q532 531 477 578T348 625Q285 625 239 587T168 486T143 350Q143 271 169 199Q195 128 250 81T379 33ZM460 730Q441 730 427 744T412 778Q412 798 426 812T460 826Q480 826 494 812T509 778Q509 759 495 745T460 730ZM279 730Q260
730 245 744T230 778Q230 798 245 812T279 826Q299 826 313 812T327 778Q327 759 313 745T279 730Z" />
<glyph unicode="&#xd7;" glyph-name="multiply" horiz-adv-x="414" d="M56 60Q53 60 46 69T33 91T27 108L165 243Q166 244 166 246Q166 249 164 251L27 388Q27 395 33 406T47 426T58 435Q59 435 63 431L205 290Q207 288 209 288L211 289L352 430Q355 433 357 433Q361
433 367 423T380 402T386 384L251 249Q250 248 250 246V244L386 108Q386 101 381 90T370 69T360 60Q355 60 352 63L212 203Q210 205 208 205Q206 205 204 203L61 63Q58 60 56 60Z" />
<glyph unicode="&#xd8;" glyph-name="Oslash" horiz-adv-x="696" d="M151 -13Q142 -10 131 -2T122 10L153 59Q93 108 59 179T24 328Q24 393 48 454T116 563T219 639T347 667Q392 667 433 655T510 620L540 667Q548 665 560 657T569 645L539 599Q597 552 632 482T667
328Q667 258 642 197T573 89T471 16T347 -10Q301 -10 260 2T183 38L151 -13ZM127 350Q127 289 144 229T194 123L475 565Q447 593 412 609T332 625Q269 625 223 587T152 485T127 350ZM363 33Q413 33 451 56T515 119T554 208T568 309Q568 371 551 431T500 536L219
94Q247 66 283 50T363 33Z" />
<glyph unicode="&#xd9;" glyph-name="Ugrave" horiz-adv-x="719" d="M358 0Q239 0 175 70T111 296V523Q111 554 110 576T104 612Q102 618 89 622T61 630T37 633Q33 633 33 646Q33 658 37 662L157 657Q165 657 194 658T273 662Q275 654 275 648Q275 633 271 633Q265
633 250 630T222 622T207 612Q198 578 198 519V296Q198 183 246 116T382 49Q553 49 553 274V524Q553 587 546 612Q544 618 528 623T494 631T467 635Q463 635 463 647Q463 658 467 662Q476 662 497 661T542 658T585 656Q611 656 651 659Q690 662 697 662Q699 654
699 647Q699 635 695 635Q689 635 670 631T635 622T616 612Q612 596 610 573T608 519V276Q608 173 579 113T494 26T358 0ZM444 729Q437 729 417 736T371 756T321 782T281 809T265 832Q265 843 278 852T317 862Q329 862 335 859Q349 849 368 831T408 794T441 760T454
742Q454 729 444 729Z" />
<glyph unicode="&#xda;" glyph-name="Uacute" horiz-adv-x="719" d="M358 0Q239 0 175 70T111 296V523Q111 554 110 576T104 612Q102 618 89 622T61 630T37 633Q33 633 33 646Q33 658 37 662L157 657Q165 657 194 658T273 662Q275 654 275 648Q275 633 271 633Q265
633 250 630T222 622T207 612Q198 578 198 519V296Q198 183 246 116T382 49Q553 49 553 274V524Q553 587 546 612Q544 618 528 623T494 631T467 635Q463 635 463 647Q463 658 467 662Q476 662 497 661T542 658T585 656Q611 656 651 659Q690 662 697 662Q699 654
699 647Q699 635 695 635Q689 635 670 631T635 622T616 612Q612 596 610 573T608 519V276Q608 173 579 113T494 26T358 0ZM328 729Q318 729 318 742Q318 745 331 760T364 794T404 831T437 859Q443 862 455 862Q481 862 494 853T507 832Q507 823 491 810T451 782T402
756T356 737T328 729Z" />
<glyph unicode="&#xdb;" glyph-name="Ucircumflex" horiz-adv-x="719" d="M358 0Q239 0 175 70T111 296V523Q111 554 110 576T104 612Q102 618 89 622T61 630T37 633Q33 633 33 646Q33 658 37 662L157 657Q165 657 194 658T273 662Q275 654 275 648Q275 633 271
633Q265 633 250 630T222 622T207 612Q198 578 198 519V296Q198 183 246 116T382 49Q553 49 553 274V524Q553 587 546 612Q544 618 528 623T494 631T467 635Q463 635 463 647Q463 658 467 662Q476 662 497 661T542 658T585 656Q611 656 651 659Q690 662 697 662Q699
654 699 647Q699 635 695 635Q689 635 670 631T635 622T616 612Q612 596 610 573T608 519V276Q608 173 579 113T494 26T358 0ZM268 717Q258 717 258 737L284 761Q295 771 303 778T319 793Q333 806 343 817T361 839Q369 847 371 847Q377 847 382 839Q393 825 403
813T423 791Q449 768 467 754T485 737Q485 717 476 717Q456 717 371 775Q355 763 333 750T293 727T268 717Z" />
<glyph unicode="&#xdc;" glyph-name="Udieresis" horiz-adv-x="719" d="M358 0Q239 0 175 70T111 296V523Q111 554 110 576T104 612Q102 618 89 622T61 630T37 633Q33 633 33 646Q33 658 37 662L157 657Q165 657 194 658T273 662Q275 654 275 648Q275 633 271
633Q265 633 250 630T222 622T207 612Q198 578 198 519V296Q198 183 246 116T382 49Q553 49 553 274V524Q553 587 546 612Q544 618 528 623T494 631T467 635Q463 635 463 647Q463 658 467 662Q476 662 497 661T542 658T585 656Q611 656 651 659Q690 662 697 662Q699
654 699 647Q699 635 695 635Q689 635 670 631T635 622T616 612Q612 596 610 573T608 519V276Q608 173 579 113T494 26T358 0ZM461 730Q442 730 428 744T413 778Q413 798 427 812T461 826Q481 826 495 812T510 778Q510 759 496 745T461 730ZM280 730Q261 730 246
744T231 778Q231 798 246 812T280 826Q300 826 314 812T328 778Q328 759 314 745T280 730Z" />
<glyph unicode="&#xdd;" glyph-name="Yacute" horiz-adv-x="649" d="M207 -3Q203 1 203 11Q203 24 207 24Q215 24 229 27T256 35T271 46Q275 62 277 86T279 142V267Q279 281 258 323Q247 343 216 400T133 549Q117 579 109 590T84 613Q73 621 51 628T19 635Q15
635 15 646Q15 658 19 662L73 659Q92 658 108 657T139 656Q151 656 271 662Q273 658 273 647T269 635Q252 635 231 627T209 601Q209 591 220 571L332 359Q338 354 342 361Q478 566 478 602Q478 613 458 624T409 635Q405 635 405 647Q405 658 409 662L527 656Q543
655 559 656T591 659Q624 662 633 662Q635 654 635 647Q635 635 631 635Q623 635 606 631T573 620T549 604Q534 580 511 544T463 466T416 387T380 323T366 291V139Q366 108 368 85T374 46Q376 42 388 37T415 28T435 24Q439 24 439 11Q439 5 437 -3Q387 -1 359 0T325
2L207 -3ZM297 729Q287 729 287 742Q287 745 300 760T333 794T373 831T406 859Q412 862 424 862Q450 862 463 853T476 832Q476 823 460 810T420 782T371 756T325 737T297 729Z" />
<glyph unicode="&#xde;" glyph-name="Thorn" horiz-adv-x="556" d="M54 -3Q50 1 50 12Q50 26 54 26Q63 26 78 28T106 36T121 46Q125 60 126 82T128 135V523Q128 554 127 576T121 612Q119 618 106 622T78 630T54 633Q50 633 50 646Q50 658 54 662L174 657Q182 657
211 658T290 662Q292 654 292 647Q292 633 288 633Q282 633 267 630T239 622T224 612Q215 578 215 524V504Q215 497 219 497Q224 497 251 504T313 511Q346 511 380 501T445 471Q477 451 496 414T516 328Q516 297 503 262T465 197T401 147T312 128Q256 128 235 156Q229
163 232 179Q234 184 235 182Q266 171 302 171Q336 171 363 190T407 242T424 313Q424 384 393 425T297 467Q245 467 227 460Q215 456 215 423V139Q215 81 224 46Q226 42 239 37T267 29T288 26Q292 26 292 11Q292 5 290 -3Q240 -1 211 0T174 2L54 -3Z" />
<glyph unicode="&#xdf;" glyph-name="germandbls" horiz-adv-x="578" d="M399 -10Q357 -10 324 4T281 33Q281 91 315 91Q328 91 338 81T356 57T375 34T400 23Q428 23 445 44T463 102Q463 129 443 150T394 186Q380 193 365 201T336 217Q307 234 287 261T267 325Q267
351 279 371T310 408Q340 434 364 465T388 549Q388 599 363 629T290 660Q227 660 208 597Q199 567 196 540T193 475L194 135Q194 104 195 82T201 46Q203 42 213 37T236 29T254 26Q257 26 258 14T257 -3L155 2Q154 2 129 1T51 -3Q47 1 47 12Q47 26 51 26Q63 26 83
32T106 46Q115 81 115 135L116 361Q116 369 111 369H58Q55 369 55 375Q55 385 60 400T70 416H111Q116 416 116 422V438Q116 563 162 628T287 693Q367 693 415 661T463 561Q463 523 442 490T394 438Q368 419 347 398T325 359Q325 332 350 311T423 265Q451 251 475
235T515 197T531 137Q531 97 514 64T467 10T399 -10Z" />
<glyph unicode="&#xe0;" glyph-name="agrave" horiz-adv-x="423" d="M145 -7Q99 -7 69 17T39 91Q39 151 117 191Q151 208 184 218T252 241Q261 244 261 256V331Q261 363 241 380T193 398Q163 398 143 378T123 324Q123 289 82 289Q53 289 43 308Q43 329 60 351T106
393T167 424T234 436Q289 436 313 410T337 324V93Q337 72 348 58T378 44Q391 44 413 58Q417 58 417 50Q417 37 412 29Q371 -6 342 -6Q319 -6 298 13T269 53Q264 49 257 43T244 32Q223 16 199 5T145 -7ZM183 50Q211 50 236 66T261 100V203Q235 193 212 185T174 172Q156
165 140 147T123 106Q123 76 141 63T183 50ZM247 497Q242 497 225 507T185 535T141 571T105 606T91 633Q91 642 102 649T132 657Q145 657 154 654T171 642Q210 590 234 554T259 510Q259 497 247 497Z" />
<glyph unicode="&#xe1;" glyph-name="aacute" horiz-adv-x="423" d="M145 -7Q99 -7 69 17T39 91Q39 151 117 191Q151 208 184 218T252 241Q261 244 261 256V331Q261 363 241 380T193 398Q163 398 143 378T123 324Q123 289 82 289Q53 289 43 308Q43 329 60 351T106
393T167 424T234 436Q289 436 313 410T337 324V93Q337 72 348 58T378 44Q391 44 413 58Q417 58 417 50Q417 37 412 29Q371 -6 342 -6Q319 -6 298 13T269 53Q264 49 257 43T244 32Q223 16 199 5T145 -7ZM183 50Q211 50 236 66T261 100V203Q235 193 212 185T174 172Q156
165 140 147T123 106Q123 76 141 63T183 50ZM170 497Q158 497 158 510Q172 538 199 578T251 648Q260 657 285 657Q304 657 315 650T326 633Q326 622 312 605T277 570T233 535T193 508T170 497Z" />
<glyph unicode="&#xe2;" glyph-name="acircumflex" horiz-adv-x="423" d="M145 -7Q99 -7 69 17T39 91Q39 151 117 191Q151 208 184 218T252 241Q261 244 261 256V331Q261 363 241 380T193 398Q163 398 143 378T123 324Q123 289 82 289Q53 289 43 308Q43 329 60
351T106 393T167 424T234 436Q289 436 313 410T337 324V93Q337 72 348 58T378 44Q391 44 413 58Q417 58 417 50Q417 37 412 29Q371 -6 342 -6Q319 -6 298 13T269 53Q264 49 257 43T244 32Q223 16 199 5T145 -7ZM183 50Q211 50 236 66T261 100V203Q235 193 212 185T174
172Q156 165 140 147T123 106Q123 76 141 63T183 50ZM121 492Q112 492 112 515Q114 518 134 541Q144 552 151 561T166 578Q177 592 186 605T203 631Q209 641 211 641Q217 641 221 631Q233 612 242 598T257 576Q278 549 294 534T311 515Q311 492 304 492Q299 492
283 502T247 528T211 558Q197 544 178 529T143 503T121 492Z" />
<glyph unicode="&#xe3;" glyph-name="atilde" horiz-adv-x="423" d="M145 -7Q99 -7 69 17T39 91Q39 151 117 191Q151 208 184 218T252 241Q261 244 261 256V331Q261 363 241 380T193 398Q163 398 143 378T123 324Q123 289 82 289Q53 289 43 308Q43 329 60 351T106
393T167 424T234 436Q289 436 313 410T337 324V93Q337 72 348 58T378 44Q391 44 413 58Q417 58 417 50Q417 37 412 29Q371 -6 342 -6Q319 -6 298 13T269 53Q264 49 257 43T244 32Q223 16 199 5T145 -7ZM183 50Q211 50 236 66T261 100V203Q235 193 212 185T174 172Q156
165 140 147T123 106Q123 76 141 63T183 50ZM275 499Q245 499 204 521Q162 542 135 542Q103 542 86 507Q84 506 81 506Q71 506 71 522Q71 541 84 556T115 582T149 592Q178 592 218 571Q259 550 287 550Q323 550 338 584Q340 585 343 585Q353 585 353 569Q353 551
340 535T309 509T275 499Z" />
<glyph unicode="&#xe4;" glyph-name="adieresis" horiz-adv-x="423" d="M145 -7Q99 -7 69 17T39 91Q39 151 117 191Q151 208 184 218T252 241Q261 244 261 256V331Q261 363 241 380T193 398Q163 398 143 378T123 324Q123 289 82 289Q53 289 43 308Q43 329 60 351T106
393T167 424T234 436Q289 436 313 410T337 324V93Q337 72 348 58T378 44Q391 44 413 58Q417 58 417 50Q417 37 412 29Q371 -6 342 -6Q319 -6 298 13T269 53Q264 49 257 43T244 32Q223 16 199 5T145 -7ZM183 50Q211 50 236 66T261 100V203Q235 193 212 185T174 172Q156
165 140 147T123 106Q123 76 141 63T183 50ZM302 504Q283 504 269 518T254 552Q254 572 268 586T302 600Q322 600 336 586T351 552Q351 533 337 519T302 504ZM121 504Q102 504 87 518T72 552Q72 572 87 586T121 600Q141 600 155 586T169 552Q169 533 155 519T121
504Z" />
<glyph unicode="&#xe5;" glyph-name="aring" horiz-adv-x="423" d="M145 -7Q99 -7 69 17T39 91Q39 151 117 191Q151 208 184 218T252 241Q261 244 261 256V331Q261 363 241 380T193 398Q163 398 143 378T123 324Q123 289 82 289Q53 289 43 308Q43 329 60 351T106
393T167 424T234 436Q289 436 313 410T337 324V93Q337 72 348 58T378 44Q391 44 413 58Q417 58 417 50Q417 37 412 29Q371 -6 342 -6Q319 -6 298 13T269 53Q264 49 257 43T244 32Q223 16 199 5T145 -7ZM183 50Q211 50 236 66T261 100V203Q235 193 212 185T174 172Q156
165 140 147T123 106Q123 76 141 63T183 50ZM213 502Q179 502 152 527T124 592Q124 629 150 655T212 681Q248 681 273 655T299 592Q299 553 273 528T213 502ZM212 536Q234 536 250 552T266 592Q266 615 251 631T212 647Q189 647 173 631T157 592Q157 569 173 553T212
536Z" />
<glyph unicode="&#xe6;" glyph-name="ae" horiz-adv-x="675" d="M156 -7Q110 -7 80 17T50 91Q50 124 72 151T128 197Q163 214 196 224T263 241Q272 243 272 256V340Q272 365 252 381T204 398Q174 398 154 378T134 324Q134 289 93 289Q64 289 54 308Q54 329 71
351T117 393T178 424T245 436Q278 436 305 422T341 382Q395 436 468 436Q514 436 548 420T599 376Q616 348 623 321T631 265Q631 257 631 251T625 242L622 240Q621 239 617 239Q604 237 607 237T602 237Q503 230 363 222Q355 222 355 214Q355 172 375 137T429 80T504
58Q537 58 562 68T604 88T623 98Q629 98 629 85Q629 72 622 65Q562 -6 480 -6Q375 -6 318 78Q302 59 277 39T220 6T156 -7ZM362 261Q383 262 413 264T473 269T524 274T549 278Q554 280 554 287Q554 305 542 331T509 378T464 399Q432 399 408 378T370 326T356 267Q356
261 362 261ZM272 100V203Q134 178 134 106Q134 77 155 64T203 51T251 64T272 100Z" />
<glyph unicode="&#xe7;" glyph-name="ccedilla" horiz-adv-x="405" d="M239 -6Q184 -6 138 23T65 100T37 209Q37 271 59 322T125 405T231 436Q341 436 383 385Q383 318 346 318Q329 318 320 325T297 353Q266 399 223 399Q182 399 149 360T115 244Q115 164 154
111T264 58Q306 58 334 70T376 93L383 98Q389 98 389 85Q389 78 383 67Q363 39 324 17T239 -6ZM429 -152Q409 -152 395 -143L394 -138Q392 -132 392 -129Q392 -124 396 -120T406 -115Q413 -115 423 -122Q434 -128 443 -128Q463 -128 474 -119T486 -95Q486 -79 476
-70T455 -61Q444 -61 429 -68Q427 -68 423 -63T419 -55Q422 -51 428 -41T442 -20T451 -4H472L454 -27H479Q498 -27 510 -41T523 -76Q523 -110 496 -131T429 -152Z" />
<glyph unicode="&#xe8;" glyph-name="egrave" horiz-adv-x="430" d="M239 -6Q184 -6 138 23T65 100T37 209Q37 279 63 330T134 408T235 436Q281 436 316 419T370 374Q388 346 396 318T405 261Q405 241 399 237T376 232H124Q116 232 116 227Q116 185 133 147T183
83T264 58Q306 58 334 70T376 93L383 98Q389 98 389 85Q389 78 383 67Q363 39 324 17T239 -6ZM124 274H319Q324 274 324 284Q324 306 313 332T278 379T220 399Q188 399 165 378T130 329T118 281Q118 274 124 274ZM267 497Q262 497 245 507T205 535T161 571T125
606T111 633Q111 642 122 649T152 657Q165 657 174 654T191 642Q230 590 254 554T279 510Q279 497 267 497Z" />
<glyph unicode="&#xe9;" glyph-name="eacute" horiz-adv-x="430" d="M239 -6Q184 -6 138 23T65 100T37 209Q37 279 63 330T134 408T235 436Q281 436 316 419T370 374Q388 346 396 318T405 261Q405 241 399 237T376 232H124Q116 232 116 227Q116 185 133 147T183
83T264 58Q306 58 334 70T376 93L383 98Q389 98 389 85Q389 78 383 67Q363 39 324 17T239 -6ZM124 274H319Q324 274 324 284Q324 306 313 332T278 379T220 399Q188 399 165 378T130 329T118 281Q118 274 124 274ZM190 497Q178 497 178 510Q192 538 219 578T271
648Q280 657 305 657Q324 657 335 650T346 633Q346 622 332 605T297 570T253 535T213 508T190 497Z" />
<glyph unicode="&#xea;" glyph-name="ecircumflex" horiz-adv-x="430" d="M239 -6Q184 -6 138 23T65 100T37 209Q37 279 63 330T134 408T235 436Q281 436 316 419T370 374Q388 346 396 318T405 261Q405 241 399 237T376 232H124Q116 232 116 227Q116 185 133 147T183
83T264 58Q306 58 334 70T376 93L383 98Q389 98 389 85Q389 78 383 67Q363 39 324 17T239 -6ZM124 274H319Q324 274 324 284Q324 306 313 332T278 379T220 399Q188 399 165 378T130 329T118 281Q118 274 124 274ZM141 492Q132 492 132 515Q134 518 154 541Q164
552 171 561T186 578Q197 592 206 605T223 631Q229 641 231 641Q237 641 241 631Q253 612 262 598T277 576Q298 549 314 534T331 515Q331 492 324 492Q319 492 303 502T267 528T231 558Q217 544 198 529T163 503T141 492Z" />
<glyph unicode="&#xeb;" glyph-name="edieresis" horiz-adv-x="430" d="M239 -6Q184 -6 138 23T65 100T37 209Q37 279 63 330T134 408T235 436Q281 436 316 419T370 374Q388 346 396 318T405 261Q405 241 399 237T376 232H124Q116 232 116 227Q116 185 133 147T183
83T264 58Q306 58 334 70T376 93L383 98Q389 98 389 85Q389 78 383 67Q363 39 324 17T239 -6ZM124 274H319Q324 274 324 284Q324 306 313 332T278 379T220 399Q188 399 165 378T130 329T118 281Q118 274 124 274ZM322 504Q303 504 289 518T274 552Q274 572 288
586T322 600Q342 600 356 586T371 552Q371 533 357 519T322 504ZM141 504Q122 504 107 518T92 552Q92 572 107 586T141 600Q161 600 175 586T189 552Q189 533 175 519T141 504Z" />
<glyph unicode="&#xec;" glyph-name="igrave" horiz-adv-x="282" d="M33 -3Q29 1 29 14Q29 26 33 26Q41 26 55 29T81 37T94 46Q98 60 99 78T101 116V305Q101 343 87 359Q77 372 63 375T39 379T29 382Q29 406 35 407Q88 415 116 420T166 431L178 434Q182 435 183
426T183 413Q181 393 180 375T178 341V135Q178 106 180 84T186 46Q188 42 200 37T226 29T246 26Q249 26 250 14T249 -3L142 2L33 -3ZM167 497Q162 497 145 507T105 535T61 571T25 606T11 633Q11 642 22 649T52 657Q65 657 74 654T91 642Q130 590 154 554T179 510Q179
497 167 497Z" />
<glyph unicode="&#xed;" glyph-name="iacute" horiz-adv-x="282" d="M33 -3Q29 1 29 14Q29 26 33 26Q41 26 55 29T81 37T94 46Q98 60 99 78T101 116V305Q101 343 87 359Q77 372 63 375T39 379T29 382Q29 406 35 407Q88 415 116 420T166 431L178 434Q182 435 183
426T183 413Q181 393 180 375T178 341V135Q178 106 180 84T186 46Q188 42 200 37T226 29T246 26Q249 26 250 14T249 -3L142 2L33 -3ZM90 497Q78 497 78 510Q92 538 119 578T171 648Q180 657 205 657Q224 657 235 650T246 633Q246 622 232 605T197 570T153 535T113
508T90 497Z" />
<glyph unicode="&#xee;" glyph-name="icircumflex" horiz-adv-x="282" d="M33 -3Q29 1 29 14Q29 26 33 26Q41 26 55 29T81 37T94 46Q98 60 99 78T101 116V305Q101 343 87 359Q77 372 63 375T39 379T29 382Q29 406 35 407Q88 415 116 420T166 431L178 434Q182 435
183 426T183 413Q181 393 180 375T178 341V135Q178 106 180 84T186 46Q188 42 200 37T226 29T246 26Q249 26 250 14T249 -3L142 2L33 -3ZM41 492Q32 492 32 515Q34 518 54 541Q64 552 71 561T86 578Q97 592 106 605T123 631Q129 641 131 641Q137 641 141 631Q153
612 162 598T177 576Q198 549 214 534T231 515Q231 492 224 492Q219 492 203 502T167 528T131 558Q117 544 98 529T63 503T41 492Z" />
<glyph unicode="&#xef;" glyph-name="idieresis" horiz-adv-x="309" d="M237 504Q218 504 204 518T189 552Q189 572 203 586T237 600Q257 600 271 586T286 552Q286 533 272 519T237 504ZM78 504Q59 504 44 518T29 552Q29 572 44 586T78 600Q98 600 112 586T126
552Q126 533 112 519T78 504ZM53 -3Q49 1 49 14Q49 26 53 26Q61 26 75 29T101 37T114 46Q118 60 119 78T121 116V305Q121 343 107 359Q97 372 83 375T59 379T49 382Q49 406 55 407Q108 415 136 420T186 431L198 434Q202 435 203 426T203 413Q201 393 200 375T198
341V135Q198 106 200 84T206 46Q208 42 220 37T246 29T266 26Q269 26 270 14T269 -3L162 2L53 -3Z" />
<glyph unicode="&#xf0;" glyph-name="eth" horiz-adv-x="514" d="M255 -7Q189 -7 138 24T57 106T28 215Q28 257 44 297T90 368T159 419T243 438Q272 438 302 429T344 408Q335 452 307 495T226 578L119 509Q96 535 102 541L194 601Q141 635 72 664Q72 670 76 679T86
688Q125 679 162 665T236 628L356 705Q378 678 374 674L269 606Q279 599 289 591Q363 533 407 450T452 260Q452 186 427 125T357 29T255 -7ZM246 32Q284 32 310 57T351 124T365 218Q365 313 346 338Q300 398 230 398Q196 398 170 374T129 310T114 222Q114 172 132
129T180 59T246 32Z" />
<glyph unicode="&#xf1;" glyph-name="ntilde" horiz-adv-x="543" d="M33 -3Q29 1 29 14Q29 26 33 26Q41 26 55 29T81 37T94 46Q98 60 99 78T101 116V305Q101 343 87 359Q77 371 64 375T40 379T29 382Q29 406 35 407Q88 415 121 421T162 430L178 434Q182 435 183
426T183 413Q181 399 180 389T179 373Q179 369 181 369Q182 369 184 371Q207 395 246 416T322 438Q392 438 420 388T448 226V135Q448 106 450 84T456 46Q458 42 470 37T496 29T516 26Q519 26 520 14T519 -3L412 2L307 -3Q303 1 303 14Q303 26 307 26Q315 26 328
29T352 37T364 46Q368 60 369 78T371 116V216Q371 309 347 343T269 377Q248 377 227 366T192 339T178 311V135Q178 106 180 84T186 46Q188 42 200 37T226 29T246 26Q249 26 250 14T249 -3L142 2L33 -3ZM335 499Q305 499 264 521Q222 542 195 542Q163 542 146 507Q144
506 141 506Q131 506 131 522Q131 541 144 556T175 582T209 592Q238 592 278 571Q319 550 347 550Q383 550 398 584Q400 585 403 585Q413 585 413 569Q413 551 400 535T369 509T335 499Z" />
<glyph unicode="&#xf2;" glyph-name="ograve" horiz-adv-x="510" d="M256 -7Q196 -7 146 23T67 104T37 216Q37 278 65 328T143 407T254 437Q314 437 363 407T442 327T472 216Q472 155 443 104T366 23T256 -7ZM265 32Q301 32 328 55T370 117T386 202Q386 256 366
300T314 371T243 398Q208 398 181 376T138 316T123 231Q123 177 142 132T194 59T265 32ZM290 497Q285 497 268 507T228 535T184 571T148 606T134 633Q134 642 145 649T175 657Q188 657 197 654T214 642Q253 590 277 554T302 510Q302 497 290 497Z" />
<glyph unicode="&#xf3;" glyph-name="oacute" horiz-adv-x="510" d="M256 -7Q196 -7 146 23T67 104T37 216Q37 278 65 328T143 407T254 437Q314 437 363 407T442 327T472 216Q472 155 443 104T366 23T256 -7ZM265 32Q301 32 328 55T370 117T386 202Q386 256 366
300T314 371T243 398Q208 398 181 376T138 316T123 231Q123 177 142 132T194 59T265 32ZM213 497Q201 497 201 510Q215 538 242 578T294 648Q303 657 328 657Q347 657 358 650T369 633Q369 622 355 605T320 570T276 535T236 508T213 497Z" />
<glyph unicode="&#xf4;" glyph-name="ocircumflex" horiz-adv-x="510" d="M256 -7Q196 -7 146 23T67 104T37 216Q37 278 65 328T143 407T254 437Q314 437 363 407T442 327T472 216Q472 155 443 104T366 23T256 -7ZM265 32Q301 32 328 55T370 117T386 202Q386 256
366 300T314 371T243 398Q208 398 181 376T138 316T123 231Q123 177 142 132T194 59T265 32ZM164 492Q155 492 155 515Q157 518 177 541Q187 552 194 561T209 578Q220 592 229 605T246 631Q252 641 254 641Q260 641 264 631Q276 612 285 598T300 576Q321 549 337
534T354 515Q354 492 347 492Q342 492 326 502T290 528T254 558Q240 544 221 529T186 503T164 492Z" />
<glyph unicode="&#xf5;" glyph-name="otilde" horiz-adv-x="510" d="M256 -7Q196 -7 146 23T67 104T37 216Q37 278 65 328T143 407T254 437Q314 437 363 407T442 327T472 216Q472 155 443 104T366 23T256 -7ZM265 32Q301 32 328 55T370 117T386 202Q386 256 366
300T314 371T243 398Q208 398 181 376T138 316T123 231Q123 177 142 132T194 59T265 32ZM318 499Q288 499 247 521Q205 542 178 542Q146 542 129 507Q127 506 124 506Q114 506 114 522Q114 541 127 556T158 582T192 592Q221 592 261 571Q302 550 330 550Q366 550
381 584Q383 585 386 585Q396 585 396 569Q396 551 383 535T352 509T318 499Z" />
<glyph unicode="&#xf6;" glyph-name="odieresis" horiz-adv-x="510" d="M256 -7Q196 -7 146 23T67 104T37 216Q37 278 65 328T143 407T254 437Q314 437 363 407T442 327T472 216Q472 155 443 104T366 23T256 -7ZM265 32Q301 32 328 55T370 117T386 202Q386 256
366 300T314 371T243 398Q208 398 181 376T138 316T123 231Q123 177 142 132T194 59T265 32ZM345 504Q326 504 312 518T297 552Q297 572 311 586T345 600Q365 600 379 586T394 552Q394 533 380 519T345 504ZM164 504Q145 504 130 518T115 552Q115 572 130 586T164
600Q184 600 198 586T212 552Q212 533 198 519T164 504Z" />
<glyph unicode="&#xf7;" glyph-name="divide" horiz-adv-x="528" d="M262 390Q242 390 229 402T213 435V439Q213 458 228 472T262 487Q282 487 295 475T311 443V438Q311 420 296 405T262 390ZM34 215L30 217Q28 221 28 224Q28 231 29 243T34 267T42 278H491Q498
277 498 268Q498 256 490 222Q489 216 484 216L482 215H34ZM262 5Q242 5 229 18T213 52V56Q213 75 228 90T262 105Q282 105 295 92T311 57V55Q311 37 296 21T262 5Z" />
<glyph unicode="&#xf8;" glyph-name="oslash" horiz-adv-x="510" d="M137 -8Q107 7 110 13L125 37Q85 68 61 114T37 216Q37 278 65 328T143 407T254 437Q312 437 362 408L380 437Q410 424 407 417L389 389Q427 358 449 313T472 216Q472 155 443 104T366 23T256
-7Q202 -7 154 19L137 -8ZM123 231Q123 192 133 157T162 95L329 357Q311 376 289 387T243 398Q208 398 181 376T138 316T123 231ZM265 32Q301 32 328 55T370 117T386 202Q386 238 377 270T351 329L185 68Q222 32 265 32Z" />
<glyph unicode="&#xf9;" glyph-name="ugrave" horiz-adv-x="517" d="M367 -8Q359 -8 359 8V59Q359 64 357 64Q291 -7 226 -7Q179 -7 152 20T113 90T101 179V305Q101 343 87 359Q77 371 64 375T40 379T29 382Q29 406 35 407Q88 415 120 421T158 429L178 434Q182
435 183 426T183 413Q177 365 177 339V204Q177 127 200 91T275 54Q295 54 314 65T346 91T359 118V305Q359 343 345 359Q335 371 322 375T298 380T287 382Q287 406 293 407Q346 415 372 420T415 429L436 434Q440 435 441 426T441 413Q435 365 435 341V141Q435 96
442 65Q445 55 458 53T488 48L501 47Q504 46 504 36Q504 33 502 27T496 20Q466 18 430 10T376 -6L367 -8ZM294 497Q289 497 272 507T232 535T188 571T152 606T138 633Q138 642 149 649T179 657Q192 657 201 654T218 642Q257 590 281 554T306 510Q306 497 294 497Z"
/>
<glyph unicode="&#xfa;" glyph-name="uacute" horiz-adv-x="517" d="M367 -8Q359 -8 359 8V59Q359 64 357 64Q291 -7 226 -7Q179 -7 152 20T113 90T101 179V305Q101 343 87 359Q77 371 64 375T40 379T29 382Q29 406 35 407Q88 415 120 421T158 429L178 434Q182
435 183 426T183 413Q177 365 177 339V204Q177 127 200 91T275 54Q295 54 314 65T346 91T359 118V305Q359 343 345 359Q335 371 322 375T298 380T287 382Q287 406 293 407Q346 415 372 420T415 429L436 434Q440 435 441 426T441 413Q435 365 435 341V141Q435 96
442 65Q445 55 458 53T488 48L501 47Q504 46 504 36Q504 33 502 27T496 20Q466 18 430 10T376 -6L367 -8ZM217 497Q205 497 205 510Q219 538 246 578T298 648Q307 657 332 657Q351 657 362 650T373 633Q373 622 359 605T324 570T280 535T240 508T217 497Z" />
<glyph unicode="&#xfb;" glyph-name="ucircumflex" horiz-adv-x="517" d="M367 -8Q359 -8 359 8V59Q359 64 357 64Q291 -7 226 -7Q179 -7 152 20T113 90T101 179V305Q101 343 87 359Q77 371 64 375T40 379T29 382Q29 406 35 407Q88 415 120 421T158 429L178 434Q182
435 183 426T183 413Q177 365 177 339V204Q177 127 200 91T275 54Q295 54 314 65T346 91T359 118V305Q359 343 345 359Q335 371 322 375T298 380T287 382Q287 406 293 407Q346 415 372 420T415 429L436 434Q440 435 441 426T441 413Q435 365 435 341V141Q435 96
442 65Q445 55 458 53T488 48L501 47Q504 46 504 36Q504 33 502 27T496 20Q466 18 430 10T376 -6L367 -8ZM168 492Q159 492 159 515Q161 518 181 541Q191 552 198 561T213 578Q224 592 233 605T250 631Q256 641 258 641Q264 641 268 631Q280 612 289 598T304 576Q325
549 341 534T358 515Q358 492 351 492Q346 492 330 502T294 528T258 558Q244 544 225 529T190 503T168 492Z" />
<glyph unicode="&#xfc;" glyph-name="udieresis" horiz-adv-x="517" d="M367 -8Q359 -8 359 8V59Q359 64 357 64Q291 -7 226 -7Q179 -7 152 20T113 90T101 179V305Q101 343 87 359Q77 371 64 375T40 379T29 382Q29 406 35 407Q88 415 120 421T158 429L178 434Q182
435 183 426T183 413Q177 365 177 339V204Q177 127 200 91T275 54Q295 54 314 65T346 91T359 118V305Q359 343 345 359Q335 371 322 375T298 380T287 382Q287 406 293 407Q346 415 372 420T415 429L436 434Q440 435 441 426T441 413Q435 365 435 341V141Q435 96
442 65Q445 55 458 53T488 48L501 47Q504 46 504 36Q504 33 502 27T496 20Q466 18 430 10T376 -6L367 -8ZM349 504Q330 504 316 518T301 552Q301 572 315 586T349 600Q369 600 383 586T398 552Q398 533 384 519T349 504ZM168 504Q149 504 134 518T119 552Q119 572
134 586T168 600Q188 600 202 586T216 552Q216 533 202 519T168 504Z" />
<glyph unicode="&#xfd;" glyph-name="yacute" horiz-adv-x="454" d="M120 -227Q99 -227 89 -214T79 -188Q79 -167 93 -156Q176 -156 203 -70Q208 -55 215 -34T226 0L83 350Q78 362 73 370T63 384Q54 393 36 399T6 405Q2 405 2 418Q2 430 6 434Q33 433 59 432T114
430Q146 430 169 431T211 434Q213 426 213 419Q213 405 209 405Q205 405 195 402T174 395T162 384V382Q162 365 269 121L345 340Q352 360 352 371Q352 386 337 395T295 405Q291 405 291 418Q291 430 295 434Q308 433 334 431T384 429Q406 429 432 431T471 434Q473
426 473 419Q473 405 469 405Q456 405 434 396T404 367L225 -116Q202 -178 173 -202T120 -227ZM215 497Q203 497 203 510Q217 538 244 578T296 648Q305 657 330 657Q349 657 360 650T371 633Q371 622 357 605T322 570T278 535T238 508T215 497Z" />
<glyph unicode="&#xfe;" glyph-name="thorn" horiz-adv-x="513" d="M46 -226Q42 -222 42 -210Q42 -197 46 -197Q54 -197 68 -194T94 -186T107 -177Q111 -163 112 -145T114 -107V548Q114 583 108 613Q104 629 57 629H48Q42 629 42 640Q42 656 48 656Q99 661 134
672T182 691L187 694H189Q193 694 197 689T202 678Q191 645 191 591V407Q191 402 194 402Q204 409 221 416T259 430T294 436Q358 436 403 406T473 329T498 234Q498 186 480 143T431 65T361 12T279 -8Q248 -8 229 -2T195 11Q191 7 191 -2V-88Q191 -117 193 -139T199
-177Q201 -181 213 -186T239 -194T259 -197Q262 -197 263 -209T262 -226L155 -221L46 -226ZM283 34Q323 34 351 58T396 122T412 206Q412 262 392 302T337 365T262 387Q231 387 211 371T191 323V98Q191 71 220 53T283 34Z" />
<glyph unicode="&#xff;" glyph-name="ydieresis" horiz-adv-x="454" d="M120 -227Q99 -227 89 -214T79 -188Q79 -167 93 -156Q176 -156 203 -70Q208 -55 215 -34T226 0L83 350Q78 362 73 370T63 384Q54 393 36 399T6 405Q2 405 2 418Q2 430 6 434Q33 433 59 432T114
430Q146 430 169 431T211 434Q213 426 213 419Q213 405 209 405Q205 405 195 402T174 395T162 384V382Q162 365 269 121L345 340Q352 360 352 371Q352 386 337 395T295 405Q291 405 291 418Q291 430 295 434Q308 433 334 431T384 429Q406 429 432 431T471 434Q473
426 473 419Q473 405 469 405Q456 405 434 396T404 367L225 -116Q202 -178 173 -202T120 -227ZM347 504Q328 504 314 518T299 552Q299 572 313 586T347 600Q367 600 381 586T396 552Q396 533 382 519T347 504ZM166 504Q147 504 132 518T117 552Q117 572 132 586T166
600Q186 600 200 586T214 552Q214 533 200 519T166 504Z" />
<glyph unicode="&#x2013;" glyph-name="endash" horiz-adv-x="499" d="M34 200Q28 205 28 209Q28 216 29 228T34 251T42 262H467Q473 262 473 253Q473 243 464 207Q463 202 458 200H34Z" />
<glyph unicode="&#x2014;" glyph-name="emdash" horiz-adv-x="979" d="M28 200Q22 205 22 209Q22 216 23 228T28 251T36 262H951Q957 262 957 253Q957 243 948 207Q947 202 942 200H28Z" />
<glyph unicode="&#x2018;" glyph-name="quoteleft" horiz-adv-x="160" d="M126 706Q140 706 146 689Q110 668 93 641T75 598Q75 587 85 575T106 550T116 526Q116 508 96 496T51 483Q42 483 31 486Q17 506 17 556Q17 582 27 607T53 650Q74 673 96 689T126 706Z" />
<glyph unicode="&#x2019;" glyph-name="quoteright" horiz-adv-x="160" d="M38 485Q24 485 18 502Q54 523 71 550T89 593Q89 605 79 617T59 641T48 665Q48 683 68 695T113 708Q123 708 133 705Q147 685 147 635Q147 609 137 584T111 541Q90 518 68 502T38 485Z" />
<glyph unicode="&#x201a;" glyph-name="quotesinglbase" horiz-adv-x="160" d="M38 -97Q24 -97 18 -80Q54 -59 71 -32T89 11Q89 23 79 35T59 59T48 83Q48 101 68 113T113 126Q123 126 133 123Q147 103 147 53Q147 27 137 2T111 -41Q90 -64 68 -80T38 -97Z" />
<glyph unicode="&#x201c;" glyph-name="quotedblleft" horiz-adv-x="309" d="M271 705Q285 705 291 688Q255 667 238 640T220 597Q220 586 230 574T251 549T261 525Q261 507 241 495T196 482Q187 482 176 485Q162 505 162 555Q162 581 172 606T198 649Q219 672
241 688T271 705ZM123 705Q137 705 143 688Q107 667 90 640T72 597Q72 586 82 574T103 549T113 525Q113 507 93 495T48 482Q39 482 28 485Q14 505 14 555Q14 581 24 606T50 649Q71 672 93 688T123 705Z" />
<glyph unicode="&#x201d;" glyph-name="quotedblright" horiz-adv-x="310" d="M38 485Q24 485 18 502Q54 523 71 550T89 593Q89 605 79 617T59 641T48 665Q48 683 68 695T113 708Q123 708 133 705Q147 685 147 635Q147 609 137 584T111 541Q90 518 68 502T38 485ZM180
485Q166 485 160 502Q196 523 213 550T231 593Q231 605 221 617T201 641T190 665Q190 683 210 695T255 708Q265 708 275 705Q289 685 289 635Q289 609 279 584T253 541Q232 518 210 502T180 485Z" />
<glyph unicode="&#x201e;" glyph-name="quotedblbase" horiz-adv-x="309" d="M38 -97Q24 -97 18 -80Q54 -59 71 -32T89 11Q89 23 79 35T59 59T48 83Q48 101 68 113T113 126Q123 126 133 123Q147 103 147 53Q147 27 137 2T111 -41Q90 -64 68 -80T38 -97ZM180 -97Q166
-97 160 -80Q196 -59 213 -32T231 11Q231 23 221 35T201 59T190 83Q190 101 210 113T255 126Q265 126 275 123Q289 103 289 53Q289 27 279 2T253 -41Q232 -64 210 -80T180 -97Z" />
<glyph unicode="&#x2022;" glyph-name="bullet" horiz-adv-x="409" d="M203 154Q176 154 151 168T111 208T95 263Q95 307 127 339T203 371Q247 371 278 339T310 263Q310 231 294 206T254 168T203 154Z" />
<glyph unicode="&#x2039;" glyph-name="guilsinglleft" horiz-adv-x="290" d="M240 73Q231 83 202 107T129 163T34 227Q27 230 27 241Q27 258 35 268Q163 345 241 423Q264 417 264 404Q264 397 238 372T156 290L115 247L202 157L248 112Q258 102 260 99T263 91Q263
80 253 78T240 73Z" />
<glyph unicode="&#x203a;" glyph-name="guilsinglright" horiz-adv-x="292" d="M51 73Q49 75 39 77T28 91Q28 96 30 99T43 112L89 157L176 247L135 290Q79 347 53 372T27 404Q27 417 50 423Q129 345 256 268Q264 258 264 241Q264 230 257 227Q206 195 163 163T90
107T51 73Z" />
</font>
</defs>
</svg>
