<?xml version="1.0" standalone="no"?>
<!DOCTYPE svg PUBLIC "-//W3C//DTD SVG 1.1//EN" "http://www.w3.org/Graphics/SVG/1.1/DTD/svg11.dtd">
<svg xmlns="http://www.w3.org/2000/svg">
<defs >
<font id="CrimsonText" horiz-adv-x="485" ><font-face
    font-family="Crimson Text"
    units-per-em="1024"
    panose-1="0 0 0 0 0 0 0 0 0 0"
    ascent="972"
    descent="-359"
    alphabetic="0" />
<glyph unicode=" " glyph-name="space" horiz-adv-x="228" />
<glyph unicode="!" glyph-name="exclam" horiz-adv-x="187" d="M136 148Q129 148 130 166Q132 191 138 239T151 347T167 467T183 577Q186 594 203 612T242 631Q257 631 265 618T273 588Q273 571 261 526T232 418T196 291T164 170Q162 161 152 155T136 148ZM121
-13Q102 -13 90 0T77 34Q77 61 98 82T144 103Q163 103 175 91T187 58Q187 31 167 9T121 -13Z" />
<glyph unicode="&quot;" glyph-name="quotedbl" horiz-adv-x="298" d="M85 447Q92 515 89 558T85 636Q87 648 97 662T121 687T152 698Q175 698 181 688Q186 676 180 633Q177 617 170 594T152 539Q141 508 133 486T121 449Q118 439 109 436T92 436T85 447ZM236
447Q243 515 240 558T236 636Q238 648 248 662T272 687T303 698Q326 698 332 688Q337 676 331 633Q328 617 321 594T303 539Q292 508 284 486T272 449Q269 439 260 436T243 436T236 447Z" />
<glyph unicode="#" glyph-name="numbersign" horiz-adv-x="419" d="M50 16Q28 16 28 21L81 175H5Q-2 175 -2 181Q-2 194 6 212T23 231H100L129 317H53Q46 317 46 323Q46 336 54 354T71 373H148L199 524Q202 532 232 532Q254 532 254 526L201 373H288L339 524Q342
532 372 532Q394 532 394 526L341 373H417Q424 373 424 368Q424 355 416 336T399 317H322L293 231H369Q376 231 376 225Q376 212 368 194T351 175H274L223 24Q220 16 190 16Q168 16 168 21L221 175H134L83 24Q80 16 50 16ZM153 231H240L269 317H182L153 231Z" />
<glyph unicode="$" glyph-name="dollar" horiz-adv-x="438" d="M150 -52Q118 -52 119 -43L134 0Q94 5 39 17Q41 49 42 68T43 96Q43 131 42 150T41 170Q41 177 60 177Q68 177 79 169Q79 149 83 129T101 85Q115 57 149 44L236 292Q226 299 216 306T195 320Q161 343
137 375T112 443Q112 501 142 546T223 618T336 644Q345 644 358 642L372 683Q404 683 403 676L389 637Q396 636 403 634Q423 629 439 626T465 621Q463 608 461 585T455 539T450 499T448 481Q446 476 443 476Q428 476 420 482Q418 484 418 493Q418 522 405 546T371
585L293 359Q313 345 333 332T371 304Q391 287 411 257T431 192Q431 164 417 130T373 65T301 14T198 -6Q184 -6 167 -4L150 -52ZM239 397Q250 388 266 378L343 599Q330 603 317 603Q260 603 225 570T190 486Q190 434 239 397ZM345 166Q345 195 321 223T263 274L181
36Q193 34 207 34Q243 34 274 50T325 95T345 166Z" />
<glyph unicode="%" glyph-name="percent" horiz-adv-x="618" d="M174 338Q120 338 89 376T58 469Q58 520 83 566T149 643T240 673Q295 673 324 635T353 541Q353 491 328 445T263 368T174 338ZM1 -12Q-11 -12 -14 -1L582 652Q593 663 604 663Q627 663 631 650L35
0Q23 -12 1 -12ZM186 366Q216 366 239 391T275 457T288 541Q288 583 275 614T230 646Q200 646 176 622T136 559T121 478Q121 433 137 400T186 366ZM386 -8Q332 -8 301 30T270 123Q270 174 295 220T361 297T452 327Q507 327 536 289T565 195Q565 145 540 99T475
22T386 -8ZM398 20Q428 20 451 45T487 111T500 195Q500 237 487 268T442 300Q412 300 388 276T348 213T333 132Q333 87 349 54T398 20Z" />
<glyph unicode="&amp;" glyph-name="ampersand" horiz-adv-x="625" d="M307 -14Q241 -14 185 13T94 87T59 196Q59 237 77 274T125 340T185 381Q147 425 147 479Q147 523 174 558T243 614T329 635Q375 635 409 610T444 543Q444 524 434 505T410 474T384 462Q375
462 375 469Q381 487 383 496T385 514Q385 546 362 568T307 590Q277 590 252 574T212 532T197 474Q197 424 230 395Q254 402 269 402Q297 402 320 391T344 360Q344 341 324 331T279 320Q241 320 217 341Q145 280 145 204Q145 156 168 116T230 53T319 29Q374 29
422 57T500 133T530 237Q530 276 507 305T447 335Q419 335 398 320T377 280Q377 264 387 258T411 249T435 240T446 217Q446 200 437 187T413 170Q397 170 379 181T349 213T336 258Q336 295 356 323T409 369T480 386Q520 385 534 385T556 384Q591 384 617 399T644
444Q644 459 635 469T612 480Q597 480 586 471T559 462Q547 462 539 472T530 495Q530 518 556 538Q612 538 646 513T681 444Q681 400 651 373T569 346Q566 346 560 346T543 348Q598 299 598 224Q598 175 574 132T510 56T417 5T307 -14Z" />
<glyph unicode="&apos;" glyph-name="quotesingle" horiz-adv-x="147" d="M85 447Q92 515 89 558T85 636Q87 648 97 662T121 687T152 698Q175 698 181 688Q186 676 180 633Q177 617 170 594T152 539Q141 508 133 486T121 449Q118 439 109 436T92 436T85 447Z" />
<glyph unicode="(" glyph-name="parenleft" horiz-adv-x="292" d="M130 -121Q96 -121 58 -34Q21 53 21 174Q21 244 36 317T77 456T132 574Q161 622 190 661T248 724T298 748Q307 748 307 728Q307 723 305 721Q264 701 214 620Q180 566 149 490T99 329T80 164Q80
69 103 -8Q126 -82 147 -95Q148 -95 148 -98Q148 -104 142 -112T130 -121Z" />
<glyph unicode=")" glyph-name="parenright" horiz-adv-x="276" d="M-8 -121Q-17 -121 -17 -103Q-17 -96 -14 -95Q2 -86 20 -65T56 -18T83 23Q136 110 173 225T210 477Q210 539 202 590T179 676T145 721L144 723Q144 728 150 738T161 748Q201 748 235 664Q269
581 269 457Q269 362 246 269T187 108Q157 49 121 -3T50 -88T-8 -121Z" />
<glyph unicode="*" glyph-name="asterisk" horiz-adv-x="343" d="M129 298Q119 298 113 305T106 326Q106 349 139 401Q171 454 171 464Q171 473 162 473Q155 473 107 453Q61 432 39 432Q9 432 9 456Q9 476 25 488T70 500Q86 500 113 497Q126 495 135 494T148 493Q173
493 173 510Q173 520 148 560Q122 600 122 623Q122 641 132 652T156 664Q180 664 184 639T189 580Q189 514 201 514Q211 514 224 532T252 573T285 615T324 633Q347 633 347 609Q347 590 326 571T281 541Q256 529 235 515T214 491Q214 482 232 477T276 465T319 449T338
419Q338 405 327 394T301 383Q285 383 271 395T244 424T220 453T200 466Q188 466 185 447T180 399T170 341Q164 320 153 309T129 298Z" />
<glyph unicode="+" glyph-name="plus" horiz-adv-x="457" d="M164 12Q157 12 152 15Q148 18 149 21L184 213Q186 222 181 222H2Q-3 222 -3 231Q-3 250 19 278H197Q200 278 200 281T202 287L217 373Q222 404 226 428T234 470Q236 476 247 480T271 486T290 488Q302
488 300 479Q289 412 280 364T266 288Q264 278 268 278H449Q453 278 453 269Q453 245 432 222H253Q249 222 248 215L214 30Q213 22 196 17T164 12Z" />
<glyph unicode="," glyph-name="comma" horiz-adv-x="209" d="M-17 -163Q-21 -163 -28 -157T-35 -143Q-35 -139 -11 -120Q5 -106 21 -87T48 -46T60 -5Q60 14 54 33T47 66Q47 91 71 110T123 129Q136 129 148 125Q151 118 151 102Q151 92 149 76T141 43Q130 -6 103
-45T46 -112T-4 -154L-17 -163Z" />
<glyph unicode="-" glyph-name="hyphen" horiz-adv-x="295" d="M24 199Q19 199 19 214Q19 224 26 242T40 261L267 273Q273 273 273 261Q273 254 269 242T260 221T250 210L24 199Z" />
<glyph unicode="." glyph-name="period" horiz-adv-x="189" d="M40 -14Q21 -14 9 -1T-4 33Q-4 60 17 81T63 102Q82 102 94 90T106 57Q106 30 86 8T40 -14Z" />
<glyph unicode="/" glyph-name="slash" horiz-adv-x="463" d="M3 -33Q-10 -33 -15 -28L410 739Q423 761 454 761Q466 761 478 755L54 -12Q41 -33 3 -33Z" />
<glyph unicode="0" glyph-name="zero" horiz-adv-x="458" d="M214 -3Q161 -3 128 26T80 105T65 215Q65 264 76 321T109 434T164 538T241 613T339 641Q395 641 428 610T475 528T490 422Q490 377 479 321T445 208T390 103T312 26T214 -3ZM217 35Q257 35 288 66T342
147T380 254T403 363T411 451Q411 491 405 525T382 581T337 603Q298 603 267 572T213 492T173 387T149 280T141 195Q141 175 144 148T155 95T178 52T217 35Z" />
<glyph unicode="1" glyph-name="one" horiz-adv-x="364" d="M57 -3Q54 1 57 13T63 26Q72 26 87 29T116 37T132 46Q136 54 140 68T148 103L218 463Q224 492 226 510T218 529Q207 529 188 517T152 496Q147 499 144 507T140 521Q140 524 143 527Q322 642 326 642H328Q336
642 336 623Q320 591 308 529L232 135Q220 76 222 46Q223 42 234 37T260 29T280 26Q283 26 280 8Q278 0 277 -3Q231 -1 204 0T166 2Q159 2 132 1T57 -3Z" />
<glyph unicode="2" glyph-name="two" horiz-adv-x="410" d="M35 0Q29 15 32 33Q114 107 185 184T303 333T360 459Q370 513 351 542T291 572Q213 572 151 489Q146 489 141 495T137 505Q149 533 201 583Q227 607 265 624T342 642Q383 642 408 619T443 558T444 479Q438
448 421 412Q403 376 384 347T332 280Q308 253 291 234T255 195T206 148T127 79Q120 72 127 72H298Q321 72 328 77T348 89Q357 94 365 108T378 135T384 150Q390 160 399 160Q414 160 415 156Q411 146 401 120T380 65T362 16Q356 0 340 0H35Z" />
<glyph unicode="3" glyph-name="three" horiz-adv-x="410" d="M161 -5Q82 -5 46 25Q43 28 42 38T42 54Q47 76 58 88T86 101Q100 101 108 87T132 56Q155 35 198 35Q238 35 278 70T333 180Q341 220 331 251T298 302T243 321Q208 321 181 314Q175 325 179 340L183
350Q250 362 295 398T352 496Q359 530 340 556T288 583Q259 583 238 572T205 548T188 532Q184 532 183 541T182 558Q215 598 251 620T337 642Q364 642 386 626T421 581T425 514Q416 470 391 440T322 379Q349 368 374 345T413 287T418 206Q406 143 369 96T277 22T161
-5Z" />
<glyph unicode="4" glyph-name="four" horiz-adv-x="410" d="M285 -6Q276 -6 270 -6T260 -5Q252 -3 252 2L286 174H50Q45 182 50 205L415 633Q426 645 439 645Q452 645 449 635L370 232H437Q446 232 443 225Q437 191 427 174H359L325 -1Q320 -6 285 -6ZM128 232H297L349
498Q350 500 349 503T346 507L344 505L124 244Q123 243 123 241Q122 232 128 232Z" />
<glyph unicode="5" glyph-name="five" horiz-adv-x="410" d="M166 -5Q83 -5 47 25Q43 28 42 38T43 54Q47 76 58 88T87 101Q100 101 108 87T133 56Q156 35 203 35Q242 35 280 70T333 180Q341 209 335 242T304 299T225 323Q178 323 142 312Q139 314 136 317T128
326L230 623Q322 626 377 629T451 637Q454 630 452 616Q450 603 446 589T436 561Q409 553 329 550L247 546Q241 544 239 538Q235 528 221 488T181 378Q211 391 271 391Q321 391 357 366T411 298T418 206Q406 145 369 97T280 22T166 -5Z" />
<glyph unicode="6" glyph-name="six" horiz-adv-x="410" d="M205 -6Q137 -6 98 37T58 162Q58 238 89 308T174 440T300 551T453 637Q461 637 461 612Q376 576 319 529T225 429T170 326T145 229T138 152Q138 102 158 68T219 33Q249 33 279 57T329 123T350 217Q350
267 327 298T254 329Q235 329 220 322T201 314Q195 319 195 328Q195 340 211 350T249 366T284 372Q327 372 359 353T411 301T430 226Q430 183 411 142T360 67T287 14T205 -6Z" />
<glyph unicode="7" glyph-name="seven" horiz-adv-x="410" d="M113 -6Q103 -6 94 4T86 22L436 553H212Q190 553 171 528T138 474Q136 470 124 469T106 471L133 539Q144 567 152 587T164 621Q169 633 181 633H450Q457 633 466 633T488 635L513 636Q519 636 517
627Q515 616 506 603T489 577T477 560L123 -3Q120 -6 113 -6Z" />
<glyph unicode="8" glyph-name="eight" horiz-adv-x="410" d="M201 -9Q134 -9 95 25T56 117Q56 168 77 202T133 264T212 318Q217 322 214 324Q186 344 166 377T146 452Q146 487 162 521T206 582T267 626T335 643Q391 643 426 611T461 523Q461 482 442 450T392
392T325 344Q319 341 324 338Q362 310 388 271T415 189Q415 155 398 121T352 57T284 9T201 -9ZM297 362Q299 362 303 364Q345 391 369 431T393 516Q393 554 375 581T323 608Q291 608 268 585T231 530T218 474Q218 417 292 364Q295 362 297 362ZM210 27Q250 27 277
47T319 97T333 154Q333 197 306 234T243 295Q237 299 234 296Q178 262 154 218T130 123Q130 80 153 54T210 27Z" />
<glyph unicode="9" glyph-name="nine" horiz-adv-x="430" d="M326 637Q394 637 433 594T473 469Q473 393 442 323T357 191T231 80T78 -6Q70 -6 70 19Q155 55 212 102T306 202T361 305T386 402T393 479Q393 529 373 563T312 598Q282 598 252 574T201 508T181 414Q181
364 204 333T277 302Q297 302 311 309T330 317Q336 313 336 303Q336 292 320 282T282 265T247 259Q205 259 172 278T120 330T101 405Q101 448 120 489T171 564T244 617T326 637Z" />
<glyph unicode=":" glyph-name="colon" horiz-adv-x="271" d="M113 -13Q94 -13 82 0T69 34Q69 61 90 82T136 103Q155 103 167 91T179 58Q179 31 159 9T113 -13ZM178 320Q159 320 147 333T134 367Q134 394 155 415T201 436Q220 436 232 424T244 391Q244 364 224
342T178 320Z" />
<glyph unicode=";" glyph-name="semicolon" horiz-adv-x="239" d="M179 320Q160 320 148 333T135 367Q135 394 156 415T202 436Q221 436 233 424T245 391Q245 364 225 342T179 320ZM225 87Q221 87 214 93T207 107Q207 111 231 130Q247 144 263 163T290 204T302
245Q302 264 296 283T289 316Q289 341 313 360T365 379Q378 379 390 375Q393 368 393 352Q393 342 391 326T383 293Q372 244 345 205T288 138T238 96L225 87Z" />
<glyph unicode="&lt;" glyph-name="less" horiz-adv-x="406" d="M324 -15L9 177Q-1 184 -1 203Q-1 230 22 241L403 428Q404 429 407 429Q414 429 414 394Q414 376 409 374L74 209L348 41Q350 39 350 36Q350 30 345 18T333 -5T324 -15Z" />
<glyph unicode="=" glyph-name="equal" horiz-adv-x="503" d="M48 259Q44 259 44 265Q44 268 48 280T57 303T66 315H481Q487 315 487 310Q487 307 470 265Q469 259 464 259H48ZM20 117Q15 117 15 123Q15 127 19 139T28 162T38 173H454Q460 173 460 168Q460 167
442 123L435 117H20Z" />
<glyph unicode="&gt;" glyph-name="greater" horiz-adv-x="419" d="M-3 -15Q-9 -15 -9 33L-4 41L337 209L65 374Q63 376 63 378Q63 382 68 394T80 418T89 430L93 428L400 241Q412 234 412 221Q412 189 388 177L3 -13Q-3 -15 -3 -15Z" />
<glyph unicode="?" glyph-name="question" horiz-adv-x="294" d="M189 181Q173 181 150 195T109 232T91 279Q91 332 133 362L252 446Q299 479 299 517Q299 546 285 561T245 577Q222 577 204 554Q185 530 167 530Q133 530 133 582Q138 596 160 613T207 631Q247
631 280 613T332 565T352 502Q352 477 346 452T316 405Q283 378 253 360T193 321Q160 299 160 261Q160 242 173 224T199 197Q199 187 189 181ZM117 -13Q98 -13 86 0T73 34Q73 61 94 82T140 103Q159 103 171 91T183 58Q183 31 163 9T117 -13Z" />
<glyph unicode="@" glyph-name="at" horiz-adv-x="723" d="M311 -168Q243 -168 181 -144T70 -60Q29 -9 15 56T15 185Q37 303 107 396Q175 486 268 531T467 577Q534 577 582 549T661 471T701 361T700 233Q687 164 661 114T604 37Q573 11 543 -1T483 -13Q453 -13
433 3T404 44T399 92Q399 93 398 93T394 90Q381 72 353 50T293 10T240 -7Q208 -7 188 17Q169 40 165 72T168 141Q178 192 204 240T270 326T362 387T476 410L557 401L539 348L474 125Q445 27 499 27Q532 27 560 48T607 101Q644 167 651 214Q663 275 656 331T622
432T553 502T448 528Q383 528 322 505T210 441T124 344T76 223Q66 163 67 111T87 15Q118 -58 183 -92T342 -126Q376 -126 409 -113V-122Q407 -136 383 -152T311 -168ZM278 53Q296 53 318 66T363 99T400 138T419 170L462 322Q464 330 465 340T459 352Q414 367 370
347T291 275T240 143Q231 96 244 75T278 53Z" />
<glyph unicode="A" glyph-name="A" horiz-adv-x="619" d="M-22 -3Q-24 -1 -24 5Q-24 24 -17 24Q-6 24 13 30T41 45Q63 68 102 139L378 635Q393 662 417 662Q419 662 425 660L508 132L520 60Q522 50 533 42T558 29T578 24Q580 24 580 19Q580 9 575 -3Q529 -1 503
0T471 2Q437 2 410 1T364 -3Q363 -2 363 3Q363 24 370 24Q380 24 398 30T421 44Q428 58 428 91Q428 109 410 239Q410 246 398 247Q385 248 366 248T309 249Q299 249 276 248T216 244Q214 244 204 228T179 187T151 135T128 87T119 55Q119 45 129 38T152 28T174 24Q176
24 176 18Q176 9 171 -3L76 2Q50 4 26 2T-22 -3ZM246 299Q263 299 292 299T350 298T397 300Q401 300 401 304Q394 352 386 407T368 526Q245 303 245 301Q245 299 246 299Z" />
<glyph unicode="B" glyph-name="B" horiz-adv-x="551" d="M25 -3Q24 -2 24 6Q24 26 31 26Q39 26 53 29T81 38T96 49Q110 79 122 142L194 514Q199 543 202 566T205 607Q205 612 194 617T170 627T149 631Q147 631 147 635Q147 651 154 658Q191 657 233 657T317 656T392
657Q432 657 470 644T533 603T558 528Q558 471 524 431T438 364L432 361Q452 358 477 338T520 285T538 215Q538 161 506 112T412 31T262 0H135L25 -3ZM309 373Q341 373 364 377T415 394Q473 421 473 516Q473 616 370 616Q298 616 295 603L250 386Q247 373 309 373ZM266
41Q330 41 370 66T429 130T448 211Q448 264 415 297T309 331Q238 331 235 316L197 116Q194 101 193 89T192 68Q192 50 211 46T266 41Z" />
<glyph unicode="C" glyph-name="C" horiz-adv-x="580" d="M321 -6Q242 -6 183 31T92 131T60 267Q60 333 89 404T168 534Q217 593 288 630T437 667Q505 667 650 622L630 498Q627 483 606 483Q598 483 595 486Q595 501 594 513T584 548Q570 585 532 605T432 625Q381
625 331 596T240 515T175 398T151 259Q151 195 174 145T242 66T350 37Q424 37 476 70Q500 85 516 104T543 138T556 153Q559 153 568 143T576 128Q530 41 526 37Q516 26 484 16T408 0T321 -6Z" />
<glyph unicode="D" glyph-name="D" horiz-adv-x="668" d="M25 -3Q24 -2 24 5Q24 24 29 24Q37 24 52 28T80 37T96 49Q110 79 122 142L194 514Q201 549 203 572T205 607Q205 613 194 618T170 627T149 631Q147 631 147 635Q147 651 154 658Q177 657 203 657T261 656Q282
656 312 656T373 657T424 658Q511 658 569 625T658 535T688 405Q688 336 662 265T584 132T460 34T294 -3Q274 -3 245 -2T186 1T136 2L25 -3ZM317 43Q384 43 436 75T525 160T581 280T600 414Q600 502 556 558T422 614Q315 614 302 598Q294 588 288 568T275 519L202
139Q195 105 196 88T201 63Q210 43 317 43Z" />
<glyph unicode="E" glyph-name="E" horiz-adv-x="544" d="M452 -4Q435 -4 403 -3T333 -1T256 1T185 2T136 2L25 -3Q24 -2 24 5Q24 24 29 24Q37 24 52 28T80 37T96 49Q110 79 122 142L194 514Q201 549 203 572T205 607Q205 613 194 618T170 627T149 631Q147 631
147 635Q147 651 154 658Q177 657 203 657T261 656Q281 656 316 657T402 660Q452 662 490 663T554 664Q553 655 553 634T553 589T554 548T555 528Q550 523 537 523Q525 523 525 530Q522 586 499 601T426 616H372Q300 616 296 603Q285 572 278 536L246 361Q246 356
254 355T283 353H328Q361 353 380 354T410 362T429 383T449 424Q452 431 463 431Q475 431 478 426L441 234Q436 230 427 230Q413 230 413 238Q412 262 410 279T398 301Q393 304 369 306T301 309Q235 309 233 300L204 152Q199 126 197 104T193 65Q192 45 217 45T299
44Q343 44 372 48T423 64T461 99T498 162Q501 168 513 168Q530 168 534 162Q464 33 452 -4Z" />
<glyph unicode="F" glyph-name="F" horiz-adv-x="439" d="M-8 -3Q-9 -2 -9 5Q-9 24 -4 24Q4 24 19 28T47 37T63 49Q77 79 89 142L161 514Q168 549 170 572T172 607Q172 613 161 618T137 627T116 631Q114 631 114 635Q114 651 121 658Q144 657 170 657T228 656Q248
656 283 657T367 660Q417 662 455 663T519 664Q518 658 518 638T518 594T519 551T520 528Q515 523 502 523Q490 523 490 530Q487 586 464 601T391 616H337Q265 616 261 603Q250 572 243 536L211 361Q211 356 219 355T248 353H293Q326 353 345 354T375 362T394 383T414
424Q417 431 428 431Q440 431 443 426L406 234Q401 230 392 230Q380 230 378 238Q377 252 376 273T363 301Q359 304 335 306T266 309Q200 309 198 300L164 128Q160 108 158 89T156 49Q156 41 174 34T224 24Q226 24 226 16Q226 3 220 -3Q174 -1 145 0T103 2Q103
2 76 1T-8 -3Z" />
<glyph unicode="G" glyph-name="G" horiz-adv-x="642" d="M293 -6Q223 -6 169 28T85 121T54 254Q54 331 85 404T169 537T290 632T433 667Q501 667 646 622Q639 573 634 541T625 492Q624 483 602 483Q593 483 591 488Q591 557 550 591T428 625Q370 625 320 593T231
509T171 395T149 273Q149 209 171 156T236 70T337 37Q419 37 462 59Q470 64 473 76L502 222Q503 227 504 234T505 248Q505 254 492 260T462 270T436 274Q434 274 434 279Q434 293 442 301Q496 299 518 298T551 296Q558 296 585 297T660 301Q660 274 654 274Q643
274 626 270T596 257T580 236L556 97Q554 82 555 79T557 63Q557 56 551 51T523 37Q495 26 440 10T293 -6Z" />
<glyph unicode="H" glyph-name="H" horiz-adv-x="626" d="M-6 -3Q-8 -1 -8 5Q-8 24 -1 24Q7 24 21 27T48 35T63 46Q71 63 77 87T89 142L160 512Q165 540 168 562T171 604Q171 612 161 618T137 627T115 631Q113 631 113 636Q113 650 121 658Q129 658 148 657T190
654T229 652Q254 652 291 655Q329 658 335 658V655Q335 631 328 631Q323 631 309 627T281 618T266 608Q258 589 252 566T240 515L215 374V373Q215 369 242 367Q255 366 285 366T365 365Q494 365 496 373L523 512Q528 540 531 562T534 604Q534 612 524 618T500 627T478
631Q476 631 476 636Q476 650 484 658Q492 658 511 657T553 654T592 652Q616 652 655 655L699 658V655Q699 631 692 631Q687 631 673 627T646 618T631 608Q624 592 618 569T605 515L532 139Q527 111 524 89T521 49Q521 41 534 35T562 26L575 24Q577 24 577 20Q577
9 571 -3Q525 -1 499 0T467 2L357 -3Q355 -1 355 5Q355 24 362 24Q370 24 384 27T411 35T426 46Q434 63 440 87T452 142L484 307V308Q484 313 461 315Q449 316 421 316T347 316Q204 316 201 304L169 139Q164 111 161 89T158 49Q158 41 171 35T198 26L212 24Q214
24 214 20Q214 9 208 -3Q162 -1 136 0T104 2L-6 -3Z" />
<glyph unicode="I" glyph-name="I" horiz-adv-x="323" d="M14 -3Q12 -1 12 5Q12 24 19 24Q27 24 41 27T68 35T83 46Q91 63 97 87T109 142L180 512Q185 540 188 562T191 604Q191 612 181 618T157 627T135 631Q133 631 133 636Q133 650 141 658Q149 658 168 657T210
654T249 652Q260 652 282 653T325 656T355 658V655Q355 631 348 631Q343 631 329 627T301 618T286 608Q272 578 260 515L189 139Q184 111 181 89T178 49Q178 41 193 35T232 24Q234 24 234 20Q234 9 228 -3Q182 -1 156 0T124 2L14 -3Z" />
<glyph unicode="J" glyph-name="J" horiz-adv-x="294" d="M-74 -233Q-81 -224 -80 -215L-79 -209Q-24 -191 12 -154T72 -53T115 109L190 512Q196 544 198 567T201 604Q201 612 189 618T162 627T138 631Q136 631 136 636Q136 650 144 658Q152 658 171 657T213 654T252
652Q263 652 285 653T328 656T358 658V655Q358 631 351 631Q346 631 334 627T310 618T296 608Q288 589 282 566T270 515L195 116Q185 59 164 0T109 -110T31 -194T-74 -233Z" />
<glyph unicode="K" glyph-name="K" horiz-adv-x="671" d="M573 -2Q535 -2 503 11T457 44Q357 171 303 241T237 326Q268 345 313 384T410 475T508 578Q511 581 518 589T531 605T538 618Q538 627 521 631T490 635Q487 635 487 641Q487 650 492 658Q518 656 544 654T590
652Q614 652 653 655L697 658Q697 635 691 635Q622 628 585 591L341 347Q336 342 336 335Q336 327 342 319L546 72Q558 58 579 48T621 33T651 28Q653 28 653 22Q653 13 648 1Q597 -2 573 -2ZM26 -3Q24 -1 24 5Q24 24 31 24Q39 24 53 27T80 35T95 46Q111 82 121
142L192 512Q197 540 200 562T203 604Q203 612 193 618T169 627T147 631Q145 631 145 636Q145 650 153 658Q161 658 180 657T222 654T261 652Q272 652 294 653T337 656T367 658V655Q367 631 360 631Q355 631 341 627T313 618T298 608Q284 578 272 515L201 139Q196
111 193 89T190 49Q190 41 205 35T244 24Q246 24 246 20Q246 9 240 -3Q194 -1 168 0T136 2L26 -3Z" />
<glyph unicode="L" glyph-name="L" horiz-adv-x="496" d="M419 -4Q368 -4 255 -1Q199 1 161 2T103 2L-8 -3Q-9 -2 -9 5Q-9 29 -2 29Q7 29 21 31T48 39T63 49Q77 79 89 142L160 512Q165 540 168 562T171 604Q171 612 161 618T137 627T115 631Q113 631 113 636Q113
650 121 658Q129 658 148 657T190 654T229 652Q240 652 262 653T305 656T335 658V655Q335 631 328 631Q323 631 309 627T281 618T266 608Q252 578 240 515L169 139Q164 110 162 92T159 65Q159 50 168 47Q172 46 191 45T266 44Q310 44 339 48T390 64T428 99T465
162Q468 168 480 168Q497 168 501 162Q431 33 419 -4Z" />
<glyph unicode="M" glyph-name="M" horiz-adv-x="806" d="M-27 -3Q-29 -1 -29 7Q-29 24 -22 24Q-14 24 3 27T37 37T55 48Q74 84 88 137L197 528Q204 553 207 567T210 604Q210 612 196 618T166 627T142 631Q140 631 140 638Q140 654 146 658L240 656Q269 655 292
656T335 658Q340 617 358 493T411 163Q411 162 412 162Q415 162 415 164L593 523L656 658Q683 655 735 655Q752 655 774 656T822 659Q824 654 822 642T817 630Q804 630 790 623T768 606Q755 590 751 564T745 517L706 135Q700 83 700 56Q700 35 716 30Q733 24 758
24Q760 24 760 15Q760 3 754 -3Q708 -1 681 1T645 2L540 -3Q538 3 538 2Q538 8 540 16T545 24Q554 24 568 26T594 32T608 42Q620 70 622 86T628 132L668 522Q671 552 671 561Q671 567 665 567Q663 567 662 563L401 31Q397 22 383 10T356 -2Q354 -2 348 0L263 567Q261
569 261 569Q258 569 258 567L141 136Q132 102 127 82T122 53Q122 48 134 41T162 29T190 24Q192 24 192 18Q192 9 187 -3Q141 -1 115 0T83 2L-27 -3Z" />
<glyph unicode="N" glyph-name="N" horiz-adv-x="690" d="M546 -8Q532 -8 520 15Q519 16 274 581L185 141Q175 94 175 52Q175 44 191 37T223 27L240 24Q242 24 242 19Q242 9 237 -3Q191 -1 165 0T133 2L23 -3Q21 -1 21 5Q21 24 28 24Q36 24 53 27T87 37T105 48Q110
59 117 83T132 144L209 516Q218 560 218 606Q218 614 206 619T177 628T150 631Q148 631 148 638Q148 654 155 658Q194 656 219 655T254 654Q263 654 286 655T348 658Q356 628 375 577T421 461T479 330T540 203Q544 213 546 223T551 244L602 513Q608 545 611 568T615
605Q615 613 602 619T572 628T545 631Q543 631 543 638Q543 654 550 658L655 653Q662 653 689 654T764 658Q764 631 758 631Q752 631 734 628T699 619T680 609Q673 593 667 570T655 516L580 136Q577 120 574 101T566 56Q562 31 560 16T556 -4Q552 -8 546 -8Z" />
<glyph unicode="O" glyph-name="O" horiz-adv-x="650" d="M291 -10Q220 -10 167 25T84 121T55 259Q55 333 84 405T166 537T285 631T427 667Q495 667 548 633T633 540T665 409Q665 325 635 249T552 115T432 24T291 -10ZM317 33Q369 33 415 64T497 146T553 263T573
395Q573 462 554 513T496 595T404 625Q350 625 303 595T221 514T166 399T146 267Q146 199 166 146T224 63T317 33Z" />
<glyph unicode="P" glyph-name="P" horiz-adv-x="505" d="M26 -3Q24 -1 24 5Q24 24 31 24Q39 24 53 27T80 35T95 46Q106 67 121 142L203 554Q205 567 206 580T208 606Q208 618 189 624T155 631Q153 631 153 638Q153 654 160 658Q204 655 264 655Q280 655 305 655T354
657T395 658Q434 658 473 638T538 584T565 504Q565 461 546 423T495 357T422 312T339 295Q293 295 269 304Q268 308 268 310T267 314Q267 324 273 330Q280 329 286 329T297 328Q343 328 384 350T453 415T480 516Q480 621 372 621Q326 621 310 617T292 601L199 128Q190
83 190 49Q190 41 206 35T238 26L255 24Q257 24 257 16Q257 3 251 -3L149 2L26 -3Z" />
<glyph unicode="Q" glyph-name="Q" horiz-adv-x="652" d="M551 -186Q488 -186 426 -166Q354 -141 281 -108T118 -52Q118 -48 124 -39T136 -27Q144 -26 170 -21T242 -5Q185 7 143 43T78 136T55 259Q55 333 84 405T166 537T285 631T427 667Q495 667 548 633T633
540T665 409Q665 327 637 254T555 121T430 22T271 -35Q302 -40 411 -86Q522 -133 588 -133Q613 -133 641 -123T694 -98T734 -71Q757 -82 757 -95Q745 -111 713 -132T638 -170T551 -186ZM317 33Q369 33 415 64T497 146T553 263T573 395Q573 462 554 513T496 595T404
625Q350 625 303 595T221 514T166 399T146 267Q146 199 166 146T224 63T317 33Z" />
<glyph unicode="R" glyph-name="R" horiz-adv-x="624" d="M533 -4Q468 -4 424 61Q402 93 378 152T326 297Q321 311 282 311Q266 311 250 311T230 294L201 139Q196 111 193 89T190 49Q190 41 203 35T230 26L244 24Q246 24 246 20Q246 9 240 -3Q194 -1 168 0T136
2L26 -3Q24 -1 24 5Q24 24 31 24Q39 24 53 27T80 35T95 46Q100 60 107 84T121 142L203 556Q205 569 206 581T208 606Q208 618 188 624T155 631Q153 631 153 638Q153 654 160 658Q204 655 264 655Q290 655 327 656T389 658Q434 658 475 644T542 600T568 522Q568
477 545 441T485 376T407 327Q399 323 402 315Q415 271 433 224T470 138T504 74Q521 47 539 38T590 29Q597 10 591 1Q578 -1 564 -2T533 -4ZM292 352Q348 352 391 374T458 437T483 527Q483 621 373 621Q323 621 309 618Q296 615 293 602L245 369V367Q245 352 292
352Z" />
<glyph unicode="S" glyph-name="S" horiz-adv-x="439" d="M200 -6Q146 -6 41 18Q43 50 44 70T45 99Q45 136 44 155T43 176Q43 183 62 183Q70 183 81 175Q81 154 85 133T103 88Q115 64 142 50T209 35Q245 35 276 51T327 99T347 172Q347 202 323 230T265 283Q248
294 231 306T197 331Q163 355 139 388T114 458Q114 518 144 565T225 639T338 666Q363 666 405 655Q425 650 441 647T467 642Q465 628 463 605T457 557T452 515T450 497Q448 492 445 492Q430 492 422 498Q420 500 420 510Q420 542 406 567T369 608T319 623Q262 623
227 589T192 502Q192 449 241 410Q269 388 306 363T373 314Q393 297 413 266T433 199Q433 169 419 134T375 67T303 15T200 -6Z" />
<glyph unicode="T" glyph-name="T" horiz-adv-x="591" d="M155 -3Q153 -1 153 5Q153 24 160 24Q168 24 182 27T209 35T224 46Q240 82 250 142L319 497Q326 532 329 556T332 594Q332 599 330 605Q326 610 299 612T233 615Q198 615 177 609T142 583T111 526Q109
521 101 521Q88 521 81 528L125 671Q164 660 188 660Q235 660 289 657T390 654Q438 654 493 657T596 660Q607 660 623 663T662 671L652 528Q644 521 629 521Q620 521 620 526Q620 580 601 597T534 615Q436 615 428 600Q421 585 414 560T400 500L330 139Q325 111
322 89T319 49Q319 41 332 35T359 26L373 24Q375 24 375 20Q375 9 369 -3Q323 -1 297 0T265 2L155 -3Z" />
<glyph unicode="U" glyph-name="U" horiz-adv-x="651" d="M291 0Q204 0 156 53T107 206Q107 225 110 251T121 312L160 512Q165 541 168 564T171 604Q171 612 161 618T137 627T115 631Q113 631 113 636Q113 650 121 658Q129 658 148 657T190 654T229 652Q254 652
291 655Q329 658 335 658V655Q335 631 328 631Q323 631 309 627T281 618T266 608Q252 578 240 515L199 298Q195 276 193 255T191 213Q191 136 224 93T322 49Q485 49 527 274L571 512Q578 547 580 569T583 602Q583 610 569 616T538 627T508 631Q506 631 506 637Q506
654 513 658Q521 658 540 657T582 654T621 652Q651 652 680 654T728 658Q728 631 721 631Q716 631 699 627T666 618T646 608Q642 603 635 579T619 510L574 276Q554 170 519 110T428 25T291 0Z" />
<glyph unicode="V" glyph-name="V" horiz-adv-x="654" d="M284 -14Q280 -14 275 -8L176 551Q170 585 161 606Q156 617 139 624T110 631Q108 631 108 636Q108 654 115 658Q156 656 182 655T220 654Q237 654 264 655T329 658V655Q329 631 322 631Q287 631 275 623T262
594Q262 587 263 580T266 562L343 143L583 554Q595 575 595 602Q595 615 578 623T541 631Q539 631 539 636Q539 654 546 658Q582 656 605 655T639 654Q650 654 675 655T738 658V652Q738 631 730 631Q711 631 687 618T648 579L322 19Q303 -14 284 -14Z" />
<glyph unicode="W" glyph-name="W" horiz-adv-x="973" d="M348 -13Q343 -13 340 -8L198 510Q190 540 181 564T163 606Q158 616 142 623T115 631Q113 631 113 636Q113 654 120 658L165 655Q179 654 192 653T218 652Q248 652 277 654T326 658V655Q326 631 319 631Q295
631 281 620T267 594Q267 584 274 557L401 112L522 295L448 560Q444 574 439 585T429 606Q423 616 407 623T380 631Q378 631 378 636Q378 652 386 658Q395 658 413 657T454 654T492 652Q508 652 529 653T568 656T592 658V655Q592 648 590 640T584 631Q560 631 547
620T533 594Q533 581 539 557L584 396L669 534Q694 574 694 593Q694 612 677 621T648 631Q646 631 646 636Q646 654 653 658Q740 652 748 652Q777 652 808 655Q840 658 848 658Q848 631 841 631Q831 631 816 626T787 612T768 598Q749 578 698 498L598 344L666 106L909
534Q934 577 934 593Q934 612 917 621T888 631Q886 631 886 636Q886 654 893 658Q980 652 988 652Q1017 652 1048 655Q1080 658 1088 658Q1088 631 1081 631Q1071 631 1056 626T1027 612T1008 598Q992 579 974 555T938 498L657 19Q639 -13 614 -13Q608 -13 606
-8L536 245L390 19Q369 -13 348 -13Z" />
<glyph unicode="X" glyph-name="X" horiz-adv-x="656" d="M11 -3Q10 -2 10 1Q10 24 15 24Q37 24 64 31T105 54Q356 334 356 336L278 520Q266 549 259 564T244 589T223 609Q214 617 195 624T167 631Q165 631 165 636Q165 654 172 658Q180 658 201 656T246 653T289
652L412 658V654Q412 631 406 631Q385 631 364 621T342 591Q342 582 347 567Q421 398 422 399Q443 421 472 452T528 515T574 570T593 600Q593 613 574 622T535 631Q533 631 533 636Q533 654 540 658Q642 652 651 652Q678 652 707 654T762 658V655Q762 631 755 631Q747
631 727 627T687 616T659 600Q440 357 440 355Q450 331 464 297T494 226T524 156T549 99T564 69Q574 53 591 43T626 29T654 24Q656 24 656 19Q656 3 653 -3Q607 -1 579 0T542 2L408 -3Q406 -1 406 5Q406 24 413 24Q421 24 434 28T457 39T468 56Q468 68 466 74Q375
291 374 291Q373 291 324 236Q176 69 176 54Q176 24 231 24Q235 24 235 15Q235 2 230 -3Q222 -2 196 -2T127 -2Q78 -2 50 -2T11 -3Z" />
<glyph unicode="Y" glyph-name="Y" horiz-adv-x="593" d="M180 -3Q179 -2 179 4Q179 24 186 24Q194 24 207 27T234 35T250 46Q256 57 262 79T275 136L301 278Q302 281 281 349Q271 382 260 414T238 480L217 545Q202 591 178 609Q168 616 149 623T122 631Q120 631
120 636Q120 654 127 658Q135 658 156 657T201 654T244 652Q254 652 368 658V653Q368 631 361 631Q351 631 336 627T310 613T298 589Q298 578 302 567L371 355L417 414L467 480Q548 587 548 600Q547 613 527 622T486 631Q484 631 484 637Q484 654 491 658Q500 658
531 655Q547 654 560 653T583 652L702 658Q703 657 703 653Q703 631 696 631Q690 631 674 627T640 615T615 600Q611 596 593 573T549 515T495 442T442 369T401 311T384 285L356 139Q351 111 348 89T345 49Q345 41 358 35T386 26L399 24Q401 24 401 20Q401 9 395
-3Q349 -1 323 0T291 2L180 -3Z" />
<glyph unicode="Z" glyph-name="Z" horiz-adv-x="546" d="M40 0Q36 7 36 17Q36 32 44 43L510 608L309 607Q267 607 242 596T198 558T157 484Q154 480 147 480Q129 480 120 489Q127 506 140 550T176 665Q181 664 201 662T246 659T293 657T323 656Q346 655 373 655T431
655Q465 655 489 656T526 658L622 666Q624 665 625 651T625 633Q624 629 510 490Q453 420 396 352T282 214L169 76Q161 66 161 59Q161 51 171 51H381Q445 51 474 83Q487 97 500 119T517 152Q520 160 544 160Q554 160 558 154Q541 111 527 73T501 0H40Z" />
<glyph unicode="[" glyph-name="bracketleft" horiz-adv-x="307" d="M146 -114Q112 -108 77 -105T4 -102Q-3 -102 -6 -94T-9 -78L145 717Q147 724 152 732T168 740Q191 740 215 741T266 744L318 749Q323 749 323 743Q323 732 318 724Q313 717 308 712T294 705Q275
701 252 698T203 695Q197 695 195 687L51 -49Q49 -57 56 -57Q78 -57 102 -61T148 -75Q157 -79 154 -102Q153 -107 151 -111T146 -114Z" />
<glyph unicode="\" glyph-name="backslash" horiz-adv-x="212" d="M165 -39L142 -37L6 755Q18 761 26 761Q66 761 67 739L193 13Q194 11 194 5Q194 -11 186 -24T165 -39Z" />
<glyph unicode="]" glyph-name="bracketright" horiz-adv-x="299" d="M-13 -114Q-16 -115 -16 -112T-17 -105Q-17 -100 -11 -89T3 -74Q20 -66 48 -62T99 -57Q105 -57 107 -51L251 687Q253 695 246 695Q224 695 201 697T166 703L154 706Q142 718 142 728Q142 751
150 749L158 748Q174 746 215 743T298 740Q311 740 311 725Q311 724 310 719T305 692T292 621T265 484T222 259T156 -79Q155 -86 150 -94T134 -102Q100 -102 64 -105T7 -111L-13 -114Z" />
<glyph unicode="^" glyph-name="asciicircum" horiz-adv-x="303" d="M21 475Q13 475 13 500Q29 514 58 540T119 602T174 677Q179 686 181 688T186 690Q196 690 199 684Q206 668 213 646T237 588Q250 561 270 537T296 500Q294 492 289 484T279 475Q272 475 258
488T226 521T195 561T172 597Q156 578 133 557T85 517T44 487T21 475Z" />
<glyph unicode="_" glyph-name="underscore" d="M14 -43Q9 -43 9 -37Q9 -33 13 -21T24 2T33 13H447Q453 13 453 9Q453 4 435 -37L429 -43H14Z" />
<glyph unicode="`" glyph-name="grave" horiz-adv-x="228" d="M251 482Q245 482 227 491T185 514T139 545T102 575T87 598Q87 613 103 619T136 626Q151 626 156 621L172 605L200 576Q264 506 264 500Q264 494 260 488T251 482Z" />
<glyph unicode="a" glyph-name="a" horiz-adv-x="457" d="M321 -6Q305 -6 296 8T287 46Q287 54 288 67T294 99L299 125Q286 101 263 71T213 18T158 -5Q114 -5 89 34T63 130Q63 186 88 240T154 338T247 408T349 435Q389 435 422 422L364 121Q361 104 360 96T358
78Q358 56 368 56Q376 56 387 65T410 85T428 104L434 111Q436 111 441 102T447 88Q439 74 417 52T369 12T321 -6ZM188 53Q207 53 228 73T269 126T305 198T328 274L348 376Q336 389 307 389Q277 389 247 368T192 313T152 236T137 151Q137 53 188 53Z" />
<glyph unicode="b" glyph-name="b" horiz-adv-x="420" d="M181 -6Q143 -6 113 22T82 104Q82 119 85 137L168 559Q172 579 174 592T177 612Q177 631 116 631Q113 631 113 637Q113 649 121 657Q187 663 247 685Q253 682 253 666Q253 660 250 642T240 591L181 303Q219
367 261 401T334 435Q378 435 400 396T423 304Q423 240 402 184T345 85T267 18T181 -6ZM207 35Q234 35 259 55T305 111T337 190T349 280Q349 304 347 327T336 365T305 380Q290 380 268 359T223 304T181 231T155 156Q144 101 158 68T207 35Z" />
<glyph unicode="c" glyph-name="c" horiz-adv-x="349" d="M175 -6Q123 -6 96 34T68 146Q68 194 87 244T139 338T211 408T290 435Q337 435 377 401Q380 389 380 381Q380 370 373 354T346 338Q330 338 321 352T303 380T278 394Q250 394 218 363T164 280T142 162Q142
56 208 56Q230 56 252 70T292 102L301 111Q303 111 308 102T314 88Q305 74 284 52T234 12T175 -6Z" />
<glyph unicode="d" glyph-name="d" horiz-adv-x="442" d="M321 -6Q305 -6 296 8T287 46Q287 58 289 74T295 105T300 126Q284 96 260 66T210 15T159 -5Q113 -5 88 34T63 130Q63 184 88 238T155 336T247 408T347 435H360L388 584Q391 598 391 612Q391 631 330 631Q327
631 327 637Q327 649 335 657Q406 663 464 685Q470 681 470 666L455 591L361 106Q358 94 358 81Q358 56 368 56Q376 56 387 64T410 84T427 103L434 111Q436 111 441 102T447 88Q439 74 417 52T368 12T321 -6ZM188 53Q207 53 228 73T270 127T305 199T328 276L340
341Q344 360 336 374T309 389Q279 389 249 368T193 313T152 236T137 150Q137 53 188 53Z" />
<glyph unicode="e" glyph-name="e" horiz-adv-x="356" d="M173 -6Q121 -6 94 34T66 146Q66 194 86 244T139 338T211 408T288 435Q334 435 354 412T375 360Q375 317 330 273Q300 245 266 225T199 194T145 183Q141 183 141 148Q141 103 158 80T206 56Q233 56 254
72T296 108L299 111Q301 111 306 102T312 88Q303 72 280 50T229 11T173 -6ZM152 218Q170 218 195 231T245 265T286 313T303 364Q303 394 278 394Q254 394 231 375T190 327T160 269T148 222Q148 218 152 218Z" />
<glyph unicode="f" glyph-name="f" horiz-adv-x="307" d="M-36 -231Q-71 -231 -91 -219T-117 -190Q-118 -167 -106 -149T-76 -131Q-65 -131 -58 -140T-44 -161T-28 -183T-2 -192Q18 -192 35 -170T67 -115T91 -46T105 15L165 354V356Q165 361 162 361H97Q95 361
95 364Q95 370 102 380T121 399T143 407H172Q177 407 178 416Q192 498 226 562T308 662T406 699Q470 699 488 665Q488 600 452 600Q437 600 425 615T400 646T370 661Q338 661 302 596Q293 580 283 554T265 501T252 450T246 413V411Q246 407 249 407H364Q369 407
369 395Q369 380 358 361H241Q237 361 235 353L180 54Q154 -89 95 -160T-36 -231Z" />
<glyph unicode="g" glyph-name="g" horiz-adv-x="438" d="M172 -233Q103 -233 60 -207T16 -135Q16 -97 39 -71T97 -27T160 6L142 18Q117 34 117 54Q117 66 134 80T174 106T217 122Q197 122 174 132Q149 142 127 168T104 231Q104 287 131 333T202 408T293 436Q320
436 339 430T379 416T429 409H472Q478 409 478 401Q478 394 475 384T467 370H411Q405 370 405 364Q411 328 411 312Q411 254 386 211T320 145Q297 131 273 120T232 99T215 77Q215 68 237 58T289 38T339 18Q367 4 386 -21T406 -78Q406 -149 343 -191T172 -233ZM240
156Q268 156 290 176T324 229T337 294Q337 334 321 366T277 398Q249 398 227 376T192 320T179 247Q179 208 195 182T240 156ZM221 -190Q270 -190 306 -170T342 -118Q342 -86 322 -66T269 -33T202 -8Q183 -16 175 -20T146 -35Q90 -65 90 -110Q90 -190 221 -190Z"
/>
<glyph unicode="h" glyph-name="h" horiz-adv-x="465" d="M348 -6Q332 -6 323 8T314 46Q314 54 315 67T321 99L356 264Q360 281 361 294T363 318Q363 361 344 361Q328 361 300 336T242 270T188 179T152 78L135 0Q123 -4 104 -4Q85 -4 70 0L178 559Q187 603 187
612Q187 631 126 631Q123 631 123 637Q123 649 131 657Q199 663 257 685Q263 682 263 666Q263 662 260 644T250 591L181 238Q186 247 197 262T225 300Q247 330 277 361T336 413T385 435Q435 435 435 369Q435 347 432 320T421 260L388 106Q385 94 385 81Q385 56
395 56Q412 56 428 74T455 104L461 111Q463 111 468 102T474 88Q466 74 444 52T395 12T348 -6Z" />
<glyph unicode="i" glyph-name="i" horiz-adv-x="266" d="M213 546Q194 546 185 557T176 585Q176 606 190 626T233 646Q252 646 260 635T269 607Q269 586 255 566T213 546ZM201 435Q217 435 226 421T235 383Q235 362 229 330L188 120Q187 114 185 101T182 79Q182
56 192 56Q200 56 211 65T234 85T252 104L258 111Q260 111 265 102T271 88Q263 74 241 52T192 12T145 -6Q129 -6 120 8T111 46Q111 54 112 67T118 99L159 308Q162 324 163 334T164 348Q164 373 154 373Q146 373 130 358T104 332L99 326Q97 326 92 335T86 349Q94
363 115 383T160 419T201 435Z" />
<glyph unicode="j" glyph-name="j" horiz-adv-x="273" d="M236 646Q251 646 261 634T272 606Q272 582 257 564T218 546Q202 546 193 558T184 589Q184 612 199 629T236 646ZM207 435Q223 435 232 421T241 383Q241 363 235 330L180 45Q159 -62 114 -124Q86 -162
46 -192T-25 -235Q-34 -227 -34 -215Q16 -186 54 -124T108 22L164 302Q169 325 169 336T170 352Q170 373 160 373Q156 373 150 369T135 357Q122 346 114 336T105 326Q103 326 98 335T92 349Q100 363 121 383T166 419T207 435Z" />
<glyph unicode="k" glyph-name="k" d="M119 -5Q112 -5 104 -4T86 0L195 559Q199 579 201 592T204 612Q204 631 143 631Q140 631 140 637Q140 649 148 657Q214 663 274 685Q280 682 280 666Q280 660 277 642T267 591L215 322L226 335Q241 352 264 375T319 417T384
435Q414 435 436 416T459 367Q459 302 402 260T254 203Q314 113 346 84Q378 55 399 55Q417 55 433 70T458 99Q461 99 467 91T474 79Q471 68 455 48T417 12T376 -4Q345 -4 325 12T280 54Q265 70 246 98T212 153T189 191L152 0Q132 -5 119 -5ZM207 230Q221 230 239
234T279 244Q302 251 327 264T370 297T388 345Q388 388 348 388Q332 388 308 369T261 321T221 268T205 232Q205 230 207 230Z" />
<glyph unicode="l" glyph-name="l" horiz-adv-x="245" d="M117 -6Q102 -6 93 8T83 46Q83 54 84 67T90 99L184 584Q187 599 187 612Q187 631 126 631Q123 631 123 637Q123 649 131 657Q165 660 197 667T259 685Q265 682 265 666Q265 660 262 642T252 591L157 106Q154
94 154 81Q154 56 164 56Q170 56 178 61T196 75Q211 88 220 99T230 111Q233 111 238 102T243 88Q235 74 213 52T164 12T117 -6Z" />
<glyph unicode="m" glyph-name="m" horiz-adv-x="726" d="M600 -6Q584 -6 575 8T566 46Q566 54 567 67T573 99L608 264Q612 281 613 294T615 318Q615 334 613 347T596 361Q579 361 552 337T496 274T444 188T412 95L394 0H327L383 284Q385 295 386 304T387 322Q387
361 367 361Q349 361 322 335T267 266T217 177T185 88L167 0Q154 -2 146 -3T133 -4Q129 -4 121 -3T100 0L160 308Q162 326 163 336T165 348Q165 373 155 373Q151 373 145 369T130 357Q117 346 109 336T100 326Q98 326 93 335T87 349Q95 363 116 383T161 419T202
435Q218 435 227 421T236 383Q236 362 230 330L212 237Q230 269 254 303T304 368T353 416T395 435Q422 435 437 419Q451 403 454 386T457 340Q457 332 454 310T443 251Q460 280 484 311T535 371T587 417T630 435Q663 435 675 419T687 369Q687 347 684 320T673 260L640
106Q637 94 637 81Q637 56 647 56Q658 56 669 65T690 85T707 104L713 111Q715 111 720 102T726 88Q718 74 696 52T647 12T600 -6Z" />
<glyph unicode="n" glyph-name="n" horiz-adv-x="489" d="M363 -6Q347 -6 338 8T329 46Q329 54 330 67T336 99L371 264Q375 281 376 294T378 318Q378 361 359 361Q343 361 316 337T258 273T204 182T167 78L150 0Q138 -4 119 -4Q100 -4 85 0L144 308Q148 326 148
336T149 348Q149 373 139 373Q135 373 129 369T114 357Q101 346 93 336T84 326Q82 326 77 335T71 349Q79 363 100 383T145 419T186 435Q202 435 211 421T220 383Q220 362 214 330L196 238Q201 247 212 262T240 300Q262 330 292 361T351 413T400 435Q450 435 450
369Q450 347 447 320T436 260L403 106Q400 94 400 81Q400 56 410 56Q418 56 429 65T452 85T470 104L476 111Q478 111 483 102T489 88Q481 74 459 52T410 12T363 -6Z" />
<glyph unicode="o" glyph-name="o" horiz-adv-x="412" d="M191 -5Q131 -5 100 34T68 145Q68 197 88 248T140 342T211 409T288 435Q347 435 379 394T412 281Q412 230 392 179T340 87T268 20T191 -5ZM209 36Q234 36 257 57T297 114T325 191T336 273Q336 332 320
363T276 394Q251 394 228 373T185 316T155 239T144 158Q144 100 162 68T209 36Z" />
<glyph unicode="p" glyph-name="p" horiz-adv-x="440" d="M3 -235Q0 -233 0 -227Q0 -211 4 -206Q31 -206 44 -190Q56 -175 60 -147L139 261L91 213Q85 221 85 233Q85 237 88 240L147 303L173 433Q186 437 206 437Q225 437 238 430Q234 409 231 395T227 374Q257
401 285 418T353 435Q399 435 424 396T449 300Q449 232 405 159Q376 111 339 74T264 17T194 -4Q170 -4 154 4L126 -145Q123 -158 123 -173Q123 -191 137 -196Q151 -199 184 -199Q186 -199 186 -205Q186 -219 181 -227H163Q157 -226 153 -226T146 -226Q78 -226 3
-235ZM213 42Q242 42 270 62T323 117T361 194T375 280Q375 377 313 377Q255 377 217 324L174 103Q170 80 178 61T213 42Z" />
<glyph unicode="q" glyph-name="q" horiz-adv-x="438" d="M180 -235Q179 -230 179 -218T184 -205Q189 -205 194 -205T204 -203Q215 -201 233 -187T256 -147L307 125Q289 94 263 64T210 15T159 -5Q115 -5 89 34T63 130Q63 186 88 240T155 338T248 408T350 435Q397
435 430 422L324 -147Q323 -155 323 -160T322 -170Q322 -198 368 -198Q370 -198 370 -204Q370 -220 365 -228L325 -227Q290 -227 254 -229T180 -235ZM189 53Q209 53 231 74T275 128T312 199T336 274L356 376Q344 389 307 389Q274 389 244 369T189 315T151 241T137
159Q137 53 189 53Z" />
<glyph unicode="r" glyph-name="r" horiz-adv-x="356" d="M126 -3Q107 -3 89 0L149 308Q156 344 154 358T144 373Q140 373 134 369T119 357Q106 346 98 336T89 326Q87 326 82 335T76 349Q84 363 105 383T150 419T191 435Q207 435 216 421T225 383Q225 362 219
330L203 246Q216 275 234 306T278 370Q326 435 364 435Q395 435 416 403Q416 336 380 336Q372 336 367 342T355 355T337 361Q322 361 299 337T250 274T206 191T178 105L159 0Q143 -3 126 -3Z" />
<glyph unicode="s" glyph-name="s" horiz-adv-x="282" d="M124 -6Q67 -6 34 32Q29 40 29 51Q29 69 38 83T63 97Q77 97 88 83Q99 68 115 53T159 38Q181 38 194 52T208 84Q208 110 189 139T146 192Q123 215 104 248T84 315Q84 343 102 371T152 419T223 438Q280 438
313 400Q318 387 318 379Q318 361 309 348T284 335Q270 335 259 350Q248 364 232 379T188 394Q167 394 155 380T143 348Q143 322 162 293T205 240Q228 217 247 184T267 117Q267 62 227 28T124 -6Z" />
<glyph unicode="t" glyph-name="t" horiz-adv-x="298" d="M138 -6Q122 -6 113 8T104 46Q104 54 105 67T111 99L165 378H94Q91 378 91 389Q91 402 103 420H173L197 542Q198 552 246 552Q260 552 264 551L239 420H330Q335 420 335 407Q335 395 326 378H231L178 106Q175
94 175 81Q175 56 185 56Q202 56 218 74T245 104L251 111Q253 111 258 102T264 88Q255 74 233 52T185 12T138 -6Z" />
<glyph unicode="u" glyph-name="u" horiz-adv-x="472" d="M154 -6Q104 -6 104 60Q104 83 107 110T118 169L148 308Q152 326 152 336T153 348Q153 373 143 373Q139 373 133 369T118 357Q105 346 97 336T88 326Q86 326 81 335T75 349Q83 363 104 383T149 419T190
435Q206 435 215 421T224 383Q224 356 218 330L183 165Q180 151 178 138T176 111Q176 68 195 68Q209 68 233 89T290 153Q319 191 343 245T379 351L396 429Q408 433 427 433Q446 433 461 429L399 106Q396 94 396 81Q396 56 406 56Q414 56 425 65T448 85T466 104L472
111Q474 111 479 102T485 88Q477 74 455 52T406 12T359 -6Q343 -6 334 8T325 46Q325 54 326 67T332 99L350 191Q345 181 335 166T309 129Q289 101 260 70T203 16T154 -6Z" />
<glyph unicode="v" glyph-name="v" horiz-adv-x="410" d="M179 0Q145 0 125 24T105 88Q105 117 109 132L143 308Q145 319 147 328T149 348Q149 373 139 373Q126 373 112 358T89 332L84 326Q82 326 77 335T71 349Q79 363 100 383T145 419T186 435Q202 435 211 421T220
383Q220 362 214 330L184 177Q180 153 178 138T176 114Q176 86 185 74T217 62Q235 62 257 79T302 124T344 185T374 251T386 309Q386 329 372 354Q357 378 357 390Q357 408 369 421T398 435Q416 435 430 427Q444 401 444 369Q444 286 396 197Q364 138 325 94T247
25T179 0Z" />
<glyph unicode="w" glyph-name="w" horiz-adv-x="609" d="M179 0Q145 0 125 24T105 88Q105 102 106 113T109 132L143 308Q149 329 149 348Q149 373 139 373Q126 373 112 358T89 332L84 326Q82 326 77 335T71 349Q79 363 100 383T145 419T186 435Q202 435 211 421T220
383Q220 362 214 330L184 177Q180 153 178 138T176 114Q176 86 185 74T217 62Q239 62 268 88T325 154Q349 351 358 385Q372 435 398 435Q436 435 436 388Q436 325 395 211Q391 186 390 170T388 147Q388 99 397 81Q404 62 429 62Q458 62 485 86T535 149T571 230T585
309Q585 329 571 354Q556 378 556 390Q556 408 568 421T597 435Q615 435 629 427Q643 401 643 369Q643 306 616 238T550 118Q511 67 467 34T391 0Q356 0 337 24T317 91Q238 0 179 0Z" />
<glyph unicode="x" glyph-name="x" horiz-adv-x="476" d="M114 -6Q81 -6 56 14Q48 28 48 40Q48 55 58 65T80 76Q94 76 110 61Q126 45 140 45Q152 45 167 71L246 207L205 341Q195 375 178 375Q163 375 146 360T122 331Q118 331 112 339T106 351Q108 363 125 383T165
419T208 435Q251 435 276 348L297 277L356 378Q389 435 440 435Q473 435 498 415Q506 397 506 389Q506 374 496 364T474 353Q461 353 445 369Q429 384 414 384Q402 384 387 358L312 230L355 89Q365 55 382 55Q397 55 414 70T438 99Q442 99 448 91T454 79Q452 68
435 48T396 11T352 -5Q310 -5 284 82L261 160L198 51Q165 -6 114 -6Z" />
<glyph unicode="y" glyph-name="y" horiz-adv-x="497" d="M33 -233Q7 -233 -10 -221T-27 -192Q-27 -160 -4 -148Q18 -161 63 -161Q145 -161 207 -72Q230 -37 230 62Q230 116 227 171T218 271T200 345T170 373Q164 373 154 365T133 346T115 326Q113 326 108 335T102
349Q105 357 118 371T150 399T186 424T216 435Q245 435 265 389T292 251Q297 196 299 158T302 90T303 28Q329 60 356 105T401 197T420 285Q420 345 395 392Q408 435 445 435Q489 435 489 356Q489 247 403 104Q360 32 310 -29T208 -136T112 -207T33 -233Z" />
<glyph unicode="z" glyph-name="z" horiz-adv-x="404" d="M62 0Q50 0 50 26Q50 33 125 115Q150 143 177 173T245 246T348 357Q337 347 326 343T308 338Q286 338 262 347T216 365T182 374Q167 374 154 359T133 327T120 306Q116 302 111 309Q109 313 108 317T106
326Q112 344 127 369T164 415T205 435Q213 435 240 429T300 417T356 410Q374 410 389 422T422 435Q434 435 434 409Q434 408 416 387T370 335T310 269T252 205T210 159L134 77Q142 84 155 90T176 97Q201 97 224 88T268 70T302 61Q318 61 335 83Q350 102 355 112T365
129Q368 136 374 126Q376 122 377 118T379 110Q373 93 358 67T322 20T279 0Q270 0 243 6T184 19T128 26Q110 26 95 13T62 0Z" />
<glyph unicode="{" glyph-name="braceleft" horiz-adv-x="275" d="M118 -125Q67 -125 35 -87T3 12Q3 59 24 99Q44 140 64 172T85 233Q85 260 61 273Q48 280 33 285T13 292V298Q13 316 21 329Q51 338 73 347T108 374T121 425Q121 435 119 450T113 486Q104 527 104
549Q104 582 117 617T155 682T213 731T288 750Q291 750 291 746Q291 740 286 731T276 721Q268 720 252 713T213 692Q191 677 175 647T159 577Q159 558 165 522Q167 504 168 490T170 464Q170 418 155 383T116 329T71 308Q94 307 112 283T130 222Q130 181 109 143Q86
103 65 69T44 0Q44 -25 56 -46T85 -81T117 -96Q124 -97 124 -112Q124 -125 118 -125Z" />
<glyph unicode="|" glyph-name="bar" horiz-adv-x="203" d="M3 -123Q-2 -123 -7 -121T-11 -115L158 757Q174 773 202 773Q207 773 213 771Q219 769 217 766L49 -106Q43 -112 30 -117T3 -123Z" />
<glyph unicode="}" glyph-name="braceright" horiz-adv-x="268" d="M-14 -125Q-17 -125 -17 -121Q-17 -115 -12 -106T-1 -96Q19 -94 46 -76T95 -25T116 47Q116 57 114 71T106 102Q96 135 96 161Q96 203 112 236T153 288T200 308Q178 309 162 332T146 391Q146 442
188 518Q230 595 230 631Q230 656 218 675T190 707T157 721Q150 722 150 737Q150 750 156 750Q208 750 241 717T275 623Q275 585 262 550T232 491Q216 469 202 441T188 390Q188 371 200 359Q212 346 224 341T259 329Q260 328 260 321Q260 305 253 292Q238 288 223
284T197 274Q175 264 164 247T152 199Q152 181 161 140Q165 120 167 105T169 79Q169 45 154 9T114 -57T55 -106T-14 -125Z" />
<glyph unicode="~" glyph-name="asciitilde" horiz-adv-x="473" d="M329 250Q286 250 224 277Q161 303 118 303Q100 303 83 296Q65 289 57 283T25 259Q19 265 19 269Q19 288 41 307T96 340T157 354Q200 354 261 328Q321 301 365 301Q381 301 400 309Q412 314 419
318T434 328T458 345Q464 339 464 335Q464 319 444 299T394 265T329 250Z" />
<glyph unicode="&#xa0;" glyph-name="uni00A0" horiz-adv-x="228" />
<glyph unicode="&#xa1;" glyph-name="exclamdown" horiz-adv-x="197" d="M150 441Q169 441 181 428T194 394Q194 367 173 346T127 325Q108 325 96 337T84 370Q84 397 104 419T150 441ZM131 280Q139 280 137 262Q135 242 130 200T118 103T104 -10T89 -122T75 -216Q72
-233 55 -251T16 -270Q1 -270 -7 -257T-15 -227Q-15 -213 -7 -174T16 -80T46 36T77 155T103 258Q105 267 115 273T131 280Z" />
<glyph unicode="&#xa2;" glyph-name="cent" horiz-adv-x="362" d="M160 -45Q128 -45 129 -36L143 5Q107 21 88 60T69 152Q69 203 89 252T142 342T214 408T291 435L305 474Q338 474 336 466L324 431Q340 427 355 419T378 401Q379 397 379 392T380 379Q380 361 369
350T340 338Q325 338 305 367L303 370L197 61Q209 57 224 57Q250 57 282 75T328 117Q330 117 333 109T338 95Q338 84 325 68T289 35T241 7T190 -4Q182 -4 174 -3L160 -45ZM143 162Q143 137 149 115T169 79L278 395Q275 396 272 396Q251 396 229 377T187 326T155
251T143 162Z" />
<glyph unicode="&#xa3;" glyph-name="sterling" horiz-adv-x="438" d="M58 -9Q50 -9 47 -3T44 10Q50 18 58 28T76 50L102 82Q113 100 126 141T149 249L153 279H100Q95 279 98 292Q101 308 109 319H159L161 332Q166 369 169 392T174 423Q186 486 217 533T291 608T385
635Q434 635 449 598Q446 578 436 559T410 539Q392 539 375 566Q359 593 340 593Q307 593 289 572T262 517T244 444Q242 434 238 410T228 344L224 319H357Q361 319 360 309Q357 290 340 279H218L215 258Q208 208 188 165T139 84Q162 93 208 93Q236 93 284 77Q331
61 348 61Q368 61 379 70T397 88Q402 94 409 104T423 123T430 134Q439 134 439 117Q439 114 437 108Q374 -8 305 -8Q272 -8 215 11Q157 29 135 29Q104 29 58 -9Z" />
<glyph unicode="&#xa4;" glyph-name="currency" horiz-adv-x="447" d="M332 100L295 155Q243 120 189 120Q128 120 91 160L32 110Q31 109 28 109Q20 109 12 123T2 154L62 205Q50 234 50 268Q50 355 112 423Q93 452 85 463T76 478T74 481Q74 489 91 502T124 520L161
465Q208 496 262 496Q320 496 358 455L424 510Q425 511 428 511Q436 511 444 497T454 466L387 410Q398 379 398 347Q398 267 342 199L382 139Q382 131 365 118T332 100ZM203 152Q237 152 265 179T311 250T329 341Q329 394 306 428T247 463Q214 463 185 436T138
365T120 273Q120 220 143 186T203 152Z" />
<glyph unicode="&#xa5;" glyph-name="yen" horiz-adv-x="578" d="M165 -3Q162 5 163 10Q165 24 170 24Q178 24 191 27T216 35T232 46Q239 61 245 84T257 138H171Q166 138 169 151Q171 165 180 176H264L272 216H187Q182 216 185 229Q188 244 195 254H280Q284 264
282 270Q282 284 202 532Q197 549 190 565T174 594Q168 603 149 609T118 615Q115 615 117 626Q118 637 123 642L171 639Q204 636 230 636L348 642Q349 637 346 626T340 615Q324 615 304 607T280 583Q278 575 284 554L345 348Q350 341 355 350Q516 548 523 584Q525
595 510 605Q494 615 467 615Q463 617 465 628T472 642Q478 642 493 641T527 638T557 636Q575 636 686 642Q686 630 685 627Q684 615 679 615Q671 615 652 611T614 601T587 586Q567 560 539 523T480 447T424 372T381 312T363 282L358 254H443Q448 254 445 241Q442
226 435 216H350L343 176H428Q433 176 430 163Q427 148 420 138H335Q323 73 324 46Q325 42 335 37T357 28T374 24Q378 24 376 12Q375 2 371 -3Q326 -1 302 0T272 2L165 -3Z" />
<glyph unicode="&#xa6;" glyph-name="brokenbar" horiz-adv-x="203" d="M102 383Q97 383 92 385T87 391L157 754Q173 770 201 770Q206 770 212 768Q218 766 216 763L147 400Q132 383 102 383ZM3 -123Q-2 -123 -7 -121T-11 -115L59 248Q75 264 103 264Q108 264
114 262Q120 260 118 257L49 -106Q43 -112 30 -117T3 -123Z" />
<glyph unicode="&#xa7;" glyph-name="section" horiz-adv-x="348" d="M82 -63Q23 -63 9 -27Q11 0 22 17T51 34Q61 34 67 25T80 4T95 -18T119 -27Q149 -27 171 0T194 65Q194 94 177 117T134 158L84 193Q59 210 42 237T24 298Q24 398 108 464V471Q107 474 107 478Q107
524 126 563T183 627T272 652Q329 652 344 615Q340 555 302 555Q290 555 282 570T263 599T233 614Q203 614 181 588T158 523Q158 494 175 471T218 430L268 396Q293 378 310 351T328 290Q328 188 245 125L246 111Q246 68 229 28T175 -37T82 -63ZM238 159Q276 186
276 235Q276 267 255 292T208 333Q182 348 154 373T115 429Q94 413 85 397T76 354Q76 322 97 296T145 255Q171 240 199 215T238 159Z" />
<glyph unicode="&#xa8;" glyph-name="dieresis" horiz-adv-x="279" d="M112 507Q93 507 84 518T75 546Q75 567 89 587T132 607Q151 607 159 596T168 568Q168 547 154 527T112 507ZM280 507Q261 507 252 518T243 546Q243 567 257 587T300 607Q319 607 327 596T336
568Q336 547 322 527T280 507Z" />
<glyph unicode="&#xa9;" glyph-name="copyright" horiz-adv-x="547" d="M229 69Q169 69 123 97T50 174T24 286Q24 351 50 410T120 515T220 588T336 615Q397 615 443 587T515 510T542 398Q542 334 516 275T446 169T345 96T229 69ZM236 100Q289 100 338 124T427
188T490 281T513 391Q513 447 490 490T425 559T330 584Q278 584 229 560T140 495T77 402T54 292Q54 237 77 194T141 125T236 100ZM255 195Q207 195 177 226T146 307Q146 352 168 392T228 457T309 483Q368 483 409 464Q411 458 411 456Q412 449 412 437T412 406Q412
394 396 394Q392 394 390 396Q390 414 373 431T314 449Q286 449 260 431T218 382T201 315Q201 273 224 250T279 227Q323 227 342 243Q358 256 360 261T370 279Q371 280 374 280L388 276Q386 271 380 257T367 229T357 214Q312 195 255 195Z" />
<glyph unicode="&#xaa;" glyph-name="ordfeminine" horiz-adv-x="320" d="M255 249Q244 249 238 259T231 285Q231 291 232 300T236 322L239 341Q230 324 214 303T179 265T141 249Q110 249 90 277T70 344Q70 383 88 421T136 490T202 539T274 558Q288 558 302 556T329
548L289 342Q285 321 285 312Q285 296 292 296Q300 296 313 307T334 326L338 331Q340 331 345 324T347 315Q341 305 325 289T290 261T255 249ZM162 294Q180 294 200 317T236 375T260 445L274 516Q266 525 245 525Q218 525 192 500T148 434T130 348Q130 294 162
294Z" />
<glyph unicode="&#xab;" glyph-name="guillemotleft" horiz-adv-x="465" d="M252 73Q246 82 224 105T168 161T91 227Q87 230 87 237Q87 255 100 268Q154 299 200 330T278 387T321 423Q340 417 340 407Q340 402 337 398T328 389Q312 373 297 361T269 338Q262 332
246 318T214 288T185 261T170 247L233 157Q240 147 250 134T269 109T277 94Q277 81 258 76L252 73ZM419 73Q413 82 391 105T335 161T258 227Q254 230 254 237Q254 255 267 268Q321 299 367 330T445 387T488 423Q507 417 507 407Q507 402 504 398T495 389Q479 373
464 361T436 338Q429 332 413 318T381 288T352 261T337 247L400 157Q407 147 417 134T436 109T444 94Q444 81 425 76L419 73Z" />
<glyph unicode="&#xac;" glyph-name="logicalnot" horiz-adv-x="474" d="M374 160Q368 160 364 162T360 168L397 354Q399 364 387 364H22Q19 376 19 382Q19 395 26 407T40 420H454Q465 420 463 409L416 169Q407 160 374 160Z" />
<glyph unicode="&#xae;" glyph-name="registered" horiz-adv-x="547" d="M236 133Q131 133 72 214Q42 254 33 304T34 407T73 510T146 600Q237 680 342 680Q412 680 462 643T535 545T544 407Q533 350 504 301T432 214T339 155T236 133ZM243 165Q335 165 415 236Q469
284 495 345T520 469T482 578Q430 648 337 648Q275 648 218 616T120 529T66 407Q53 341 72 286T136 198T243 165ZM146 272Q144 281 148 285Q160 287 166 288T176 294Q179 299 180 306T185 330L218 499Q220 510 221 517T222 528Q222 534 215 537T200 541Q198 541
198 543L201 553Q204 553 209 553T221 552Q236 551 243 551T258 550T280 552Q291 553 299 553T314 554Q345 554 366 538T388 493Q388 447 330 414Q330 402 338 382T361 333Q373 311 382 299T408 286Q408 281 406 275Q400 272 388 272Q346 272 328 294Q308 317 277
398Q274 407 260 407Q249 407 247 399L230 310V299Q230 293 233 291Q245 285 252 285Q253 285 253 282L251 272Q232 273 220 273T201 274Q194 274 181 274T146 272ZM292 428Q315 428 328 447T342 491Q342 529 304 529Q271 529 270 519L254 440Q254 428 292 428Z"
/>
<glyph unicode="&#xaf;" glyph-name="overscore" horiz-adv-x="353" d="M71 534Q71 534 70 534T67 536Q66 539 67 543Q67 546 70 555T77 572T86 580H279Q284 580 283 573Q281 563 271 541L263 534H71Z" />
<glyph unicode="&#xb0;" glyph-name="degree" horiz-adv-x="201" d="M89 437Q56 437 35 460T14 517Q14 549 30 575T73 618T126 634Q159 634 180 612T201 555Q201 525 185 498T143 454T89 437ZM96 474Q122 474 143 496T165 548Q165 569 153 583T119 597Q92 597
71 576T50 524Q50 503 62 489T96 474Z" />
<glyph unicode="&#xb1;" glyph-name="plusminus" horiz-adv-x="497" d="M217 123Q212 123 206 125T202 132L238 328Q238 333 234 333H55Q50 333 50 342Q50 361 72 389H250Q254 389 254 393Q257 407 261 430T270 484Q275 515 279 539T287 581Q289 587 300 591T324
597T343 599Q355 599 353 590Q342 523 333 474T318 394Q316 389 321 389H502Q506 389 506 380Q506 356 485 333H306Q302 333 302 329L267 141Q266 133 249 128T217 123ZM-3 36Q-8 36 -8 45Q-8 64 14 92H444Q448 92 448 83Q448 59 427 36H-3Z" />
<glyph unicode="&#xb2;" glyph-name="uni00B2" horiz-adv-x="323" d="M69 366Q61 371 61 383Q61 392 67 399L111 440Q126 454 154 481T212 540T262 603T283 657Q283 677 272 691T237 706Q220 706 198 695T161 666Q159 664 157 664Q154 664 150 672T147 687L148
695Q172 721 207 740T274 759Q311 759 334 735T357 675Q357 647 342 616T302 558T252 510Q227 490 203 472T163 441T147 423Q147 422 148 422H275Q295 422 303 431T316 449T323 458Q331 460 335 459T340 456Q339 455 330 433T303 366H69Z" />
<glyph unicode="&#xb3;" glyph-name="uni00B3" horiz-adv-x="252" d="M94 355Q67 355 46 363T22 381Q23 398 33 411T57 425Q70 425 87 408Q104 391 120 391Q160 391 190 422T220 500Q220 552 172 552Q168 552 123 546Q118 554 118 560Q118 573 129 576Q185 588
208 617T231 670Q231 686 219 695T190 704Q170 704 144 685Q118 666 115 666Q113 666 111 674T109 701Q160 755 229 755Q255 755 276 738T297 691Q297 657 275 636T227 598L217 592Q232 592 248 582T276 554T288 511Q288 471 261 436T190 378T94 355Z" />
<glyph unicode="&#xb4;" glyph-name="acute" horiz-adv-x="216" d="M74 494Q72 494 70 498T67 506Q67 509 79 524T109 560T147 600T182 632Q190 637 208 637Q247 637 247 613Q247 604 231 590T191 559T142 528T98 504T74 494Z" />
<glyph unicode="&#xb5;" glyph-name="uni00B5" horiz-adv-x="428" d="M43 -221Q29 -221 17 -196T4 -133Q4 -60 87 204Q90 222 95 250T106 310T117 370T127 417Q142 437 154 437Q160 437 171 431T190 415T197 400Q194 383 180 344T143 246L134 223Q120 163 123
114Q125 64 148 64Q223 64 310 222L364 425Q366 437 379 437Q385 437 396 431T415 415T422 400Q420 384 406 346T367 246L358 223Q324 67 379 67Q408 67 438 97Q441 97 445 87Q447 81 445 76Q429 43 400 20T342 -4Q312 -2 306 32Q300 64 305 128Q221 -9 138 -9Q113
-9 102 22Q100 30 97 46T93 76Q88 46 82 15T72 -43Q69 -67 69 -96T72 -151T87 -194Q86 -204 72 -212T43 -221Z" />
<glyph unicode="&#xb6;" glyph-name="paragraph" horiz-adv-x="432" d="M113 -4Q113 4 115 13T121 23Q127 23 141 26T168 35T182 45Q187 59 193 86T207 144T219 206T229 258T233 286Q233 291 215 291Q173 291 145 311T102 366T87 438Q87 478 104 516T149 585T213
634T284 652Q294 652 315 651T357 649T388 648L493 653Q494 652 494 646Q494 624 487 624Q480 624 467 622T442 615T427 604Q423 595 415 558T398 466T376 349Q376 346 380 346L421 354Q422 352 422 346Q422 322 399 316Q377 310 372 308T367 304Q364 291 359 262T348
199T336 131T327 75T323 47Q323 40 334 35T360 26T380 23Q382 23 382 18Q382 0 375 -4Q365 -3 338 -2T279 0T225 2Q194 2 163 0T113 -4ZM292 332L328 338Q333 338 334 344Q381 591 381 601Q381 604 375 607T362 611Q342 611 339 599Q313 472 299 407T285 337Q285
331 292 332ZM252 36Q259 36 265 40T273 50Q279 75 291 136T323 295Q323 299 321 299Q320 299 310 297T283 293Q278 293 276 286L232 47Q230 36 252 36Z" />
<glyph unicode="&#xb7;" glyph-name="middot" horiz-adv-x="131" d="M63 206Q44 206 32 219T19 253Q19 280 40 301T86 322Q105 322 117 310T129 277Q129 250 109 228T63 206Z" />
<glyph unicode="&#xb8;" glyph-name="cedilla" horiz-adv-x="405" d="M45 0L20 -27H48Q69 -27 79 -44T85 -85Q77 -125 43 -149T-36 -174Q-60 -174 -71 -164V-147Q-69 -141 -64 -136T-53 -131Q-44 -131 -36 -138T-15 -146Q7 -146 22 -135T40 -107Q42 -97 39 -85T24
-68T-17 -75Q-19 -75 -23 -69T-25 -60Q-23 -58 -14 -46T7 -20T22 0H45Z" />
<glyph unicode="&#xb9;" glyph-name="uni00B9" horiz-adv-x="243" d="M74 367Q72 369 72 373Q72 391 79 391Q89 391 108 396T130 406Q140 423 146 454L180 627Q182 640 183 650T185 667Q185 683 175 683Q173 683 128 668Q126 670 124 671T119 677Q114 685 120
689Q122 690 147 702T205 731T267 766H271Q277 766 277 742Q268 722 262 702T252 662L210 454Q206 437 206 431T208 407Q209 404 218 401T238 395T253 392Q255 392 255 386Q255 372 251 367Q229 367 207 368T161 370Q139 370 118 369T74 367Z" />
<glyph unicode="&#xba;" glyph-name="ordmasculine" horiz-adv-x="308" d="M176 250Q134 250 112 277T90 355Q90 391 104 427T140 492T190 540T244 558Q285 558 307 529T330 450Q330 414 316 379T279 314T229 268T176 250ZM190 292Q212 292 230 315T259 372T270
441Q270 517 233 517Q212 517 193 494T162 436T150 368Q150 331 161 312T190 292Z" />
<glyph unicode="&#xbb;" glyph-name="guillemotright" horiz-adv-x="465" d="M76 73Q58 79 58 88Q58 93 61 97T69 108Q71 111 83 120T108 141T126 157L225 247L196 290Q183 308 175 320T161 338Q117 396 117 400Q117 412 143 423Q149 412 171 387T228 330T303
268Q308 260 308 252Q308 232 296 227Q137 129 76 73ZM243 73Q225 79 225 88Q225 93 228 97T236 108Q238 111 250 120T275 141T293 157L392 247L363 290Q350 308 342 320T328 338Q284 396 284 400Q284 412 310 423Q316 412 338 387T395 330T470 268Q475 260 475
252Q475 232 463 227Q304 129 243 73Z" />
<glyph unicode="&#xbc;" glyph-name="onequarter" horiz-adv-x="683" d="M52 253Q50 255 50 259Q50 277 57 277Q67 277 86 282T108 292Q118 309 124 340L158 513Q160 526 161 536T163 553Q163 569 153 569Q151 569 106 554Q104 556 102 557T97 563Q92 571 98 575Q100
576 125 588T183 617T245 652H249Q255 652 255 628Q246 608 240 588T230 548L188 340Q184 323 184 317T186 293Q187 290 196 287T216 281T231 278Q233 278 233 272Q233 258 229 253Q207 253 185 254T139 256Q117 256 96 255T52 253ZM165 -14Q152 -14 142 -8T132
4Q132 7 136 14L581 642Q595 640 604 634T613 623Q613 620 611 618L165 -14ZM522 -10Q484 -10 486 -1L506 107V108Q506 110 503 110H364Q357 121 357 136L588 385Q595 392 603 392Q627 392 626 385L581 157V156Q581 153 585 153H609Q618 153 618 146Q618 118 607
110H575Q573 110 571 105L549 -5Q537 -10 522 -10ZM510 153Q514 153 516 158L542 287Q542 291 539 291L417 161Q416 160 416 158Q416 153 419 153H510Z" />
<glyph unicode="&#xbd;" glyph-name="onehalf" horiz-adv-x="705" d="M52 253Q50 255 50 259Q50 277 57 277Q67 277 86 282T108 292Q118 309 124 340L158 513Q160 526 161 536T163 553Q163 569 153 569Q151 569 106 554Q104 556 102 557T97 563Q92 571 98 575Q100
576 125 588T183 617T245 652H249Q255 652 255 628Q246 608 240 588T230 548L188 340Q184 323 184 317T186 293Q187 290 196 287T216 281T231 278Q233 278 233 272Q233 258 229 253Q207 253 185 254T139 256Q117 256 96 255T52 253ZM165 -14Q152 -14 142 -8T132
4Q132 7 136 14L581 642Q595 640 604 634T613 623Q613 620 611 618L165 -14ZM380 0Q372 5 372 17Q372 26 378 33L422 74Q437 88 465 115T523 174T573 237T594 291Q594 311 583 325T548 340Q531 340 509 329T472 300Q470 298 468 298Q465 298 461 306T458 321L459
329Q483 355 518 374T585 393Q622 393 645 369T668 309Q668 281 653 250T613 192T563 144Q538 124 514 106T474 75T458 57Q458 56 459 56H586Q606 56 614 65T627 83T634 92Q642 94 646 93T651 90Q650 89 641 67T614 0H380Z" />
<glyph unicode="&#xbe;" glyph-name="threequarters" horiz-adv-x="692" d="M72 242Q45 242 24 250T0 268Q1 285 11 298T35 312Q48 312 65 295Q82 278 98 278Q138 278 168 309T198 387Q198 439 150 439Q146 439 101 433Q96 441 96 447Q96 460 107 463Q163 475
186 504T209 557Q209 573 197 582T168 591Q148 591 122 572Q96 553 93 553Q91 553 89 561T87 588Q138 642 207 642Q233 642 254 625T275 578Q275 544 253 523T205 485L195 479Q210 479 226 469T254 441T266 398Q266 358 239 323T168 265T72 242ZM174 -14Q161 -14
151 -8T141 4Q141 7 145 14L590 642Q604 640 613 634T622 623Q622 620 620 618L174 -14ZM531 -10Q493 -10 495 -1L515 107V108Q515 110 512 110H373Q366 121 366 136L597 385Q604 392 612 392Q636 392 635 385L590 157V156Q590 153 594 153H618Q627 153 627 146Q627
118 616 110H584Q582 110 580 105L558 -5Q546 -10 531 -10ZM519 153Q523 153 525 158L551 287Q551 291 548 291L426 161Q425 160 425 158Q425 153 428 153H519Z" />
<glyph unicode="&#xbf;" glyph-name="questiondown" horiz-adv-x="277" d="M222 437Q241 437 253 424T266 390Q266 363 245 342T199 321Q180 321 168 333T156 366Q156 393 176 415T222 437ZM150 243Q166 243 189 229T230 192T248 145Q248 92 206 62L87 -22Q40
-55 40 -93Q40 -122 54 -137T94 -153Q117 -153 135 -130Q155 -106 172 -106Q206 -106 206 -158Q201 -172 179 -189T132 -207Q92 -207 59 -189T7 -140T-13 -78Q-13 -52 -7 -28T23 19Q56 46 87 65T146 103Q179 126 179 163Q179 182 166 200T140 227Q140 237 150 243Z"
/>
<glyph unicode="&#xc0;" glyph-name="Agrave" horiz-adv-x="619" d="M-22 -3Q-24 -1 -24 5Q-24 24 -17 24Q-6 24 13 30T41 45Q63 68 102 139L378 635Q393 662 417 662Q419 662 425 660L508 132L520 60Q522 50 533 42T558 29T578 24Q580 24 580 19Q580 9 575 -3Q529
-1 503 0T471 2Q437 2 410 1T364 -3Q363 -2 363 3Q363 24 370 24Q380 24 398 30T421 44Q428 58 428 91Q428 109 410 239Q410 246 398 247Q385 248 366 248T309 249Q299 249 276 248T216 244Q214 244 204 228T179 187T151 135T128 87T119 55Q119 45 129 38T152 28T174
24Q176 24 176 18Q176 9 171 -3L76 2Q50 4 26 2T-22 -3ZM246 299Q263 299 292 299T350 298T397 300Q401 300 401 304Q394 352 386 407T368 526Q245 303 245 301Q245 299 246 299ZM460 711Q451 711 425 719T370 739T320 764T299 785Q299 795 315 802Q329 809 357
809Q366 809 374 807Q386 800 402 787T435 760T462 735T473 721Q473 711 460 711Z" />
<glyph unicode="&#xc1;" glyph-name="Aacute" horiz-adv-x="619" d="M-22 -3Q-24 -1 -24 5Q-24 24 -17 24Q-6 24 13 30T41 45Q63 68 102 139L378 635Q393 662 417 662Q419 662 425 660L508 132L520 60Q522 50 533 42T558 29T578 24Q580 24 580 19Q580 9 575 -3Q529
-1 503 0T471 2Q437 2 410 1T364 -3Q363 -2 363 3Q363 24 370 24Q380 24 398 30T421 44Q428 58 428 91Q428 109 410 239Q410 246 398 247Q385 248 366 248T309 249Q299 249 276 248T216 244Q214 244 204 228T179 187T151 135T128 87T119 55Q119 45 129 38T152 28T174
24Q176 24 176 18Q176 9 171 -3L76 2Q50 4 26 2T-22 -3ZM246 299Q263 299 292 299T350 298T397 300Q401 300 401 304Q394 352 386 407T368 526Q245 303 245 301Q245 299 246 299ZM393 711Q380 711 380 721Q380 724 391 735T418 759T450 786T479 807Q487 809 496
809Q524 809 539 802Q554 795 554 785Q554 776 533 764T483 740T428 719T393 711Z" />
<glyph unicode="&#xc2;" glyph-name="Acircumflex" horiz-adv-x="619" d="M-22 -3Q-24 -1 -24 5Q-24 24 -17 24Q-6 24 13 30T41 45Q63 68 102 139L378 635Q393 662 417 662Q419 662 425 660L508 132L520 60Q522 50 533 42T558 29T578 24Q580 24 580 19Q580 9 575
-3Q529 -1 503 0T471 2Q437 2 410 1T364 -3Q363 -2 363 3Q363 24 370 24Q380 24 398 30T421 44Q428 58 428 91Q428 109 410 239Q410 246 398 247Q385 248 366 248T309 249Q299 249 276 248T216 244Q214 244 204 228T179 187T151 135T128 87T119 55Q119 45 129 38T152
28T174 24Q176 24 176 18Q176 9 171 -3L76 2Q50 4 26 2T-22 -3ZM246 299Q263 299 292 299T350 298T397 300Q401 300 401 304Q394 352 386 407T368 526Q245 303 245 301Q245 299 246 299ZM305 728Q293 728 299 748Q312 761 332 773T376 804Q393 816 407 827T431
850Q441 858 444 858Q452 858 455 850Q464 834 472 822T487 802Q509 779 525 765T542 748Q536 728 527 728Q507 728 428 786Q408 774 382 761T333 738T305 728Z" />
<glyph unicode="&#xc3;" glyph-name="Atilde" horiz-adv-x="619" d="M-22 -3Q-24 -1 -24 5Q-24 24 -17 24Q-6 24 13 30T41 45Q63 68 102 139L378 635Q393 662 417 662Q419 662 425 660L508 132L520 60Q522 50 533 42T558 29T578 24Q580 24 580 19Q580 9 575 -3Q529
-1 503 0T471 2Q437 2 410 1T364 -3Q363 -2 363 3Q363 24 370 24Q380 24 398 30T421 44Q428 58 428 91Q428 109 410 239Q410 246 398 247Q385 248 366 248T309 249Q299 249 276 248T216 244Q214 244 204 228T179 187T151 135T128 87T119 55Q119 45 129 38T152 28T174
24Q176 24 176 18Q176 9 171 -3L76 2Q50 4 26 2T-22 -3ZM246 299Q263 299 292 299T350 298T397 300Q401 300 401 304Q394 352 386 407T368 526Q245 303 245 301Q245 299 246 299ZM503 728Q472 728 428 755Q384 781 352 781Q336 781 310 759Q284 737 282 737Q274
737 279 754Q282 769 302 792Q341 832 382 832Q413 832 457 806Q501 779 532 779Q550 779 563 790T587 812T601 823Q609 823 604 806Q601 790 581 767Q545 728 503 728Z" />
<glyph unicode="&#xc4;" glyph-name="Adieresis" horiz-adv-x="619" d="M-22 -3Q-24 -1 -24 5Q-24 24 -17 24Q-6 24 13 30T41 45Q63 68 102 139L378 635Q393 662 417 662Q419 662 425 660L508 132L520 60Q522 50 533 42T558 29T578 24Q580 24 580 19Q580 9 575
-3Q529 -1 503 0T471 2Q437 2 410 1T364 -3Q363 -2 363 3Q363 24 370 24Q380 24 398 30T421 44Q428 58 428 91Q428 109 410 239Q410 246 398 247Q385 248 366 248T309 249Q299 249 276 248T216 244Q214 244 204 228T179 187T151 135T128 87T119 55Q119 45 129 38T152
28T174 24Q176 24 176 18Q176 9 171 -3L76 2Q50 4 26 2T-22 -3ZM246 299Q263 299 292 299T350 298T397 300Q401 300 401 304Q394 352 386 407T368 526Q245 303 245 301Q245 299 246 299ZM500 729Q481 729 472 741T462 769Q462 790 477 809T519 829Q539 829 548
818T557 789Q557 768 542 749T500 729ZM331 729Q312 729 304 740T295 768Q295 789 309 809T351 829Q371 829 379 818T388 790Q388 769 374 749T331 729Z" />
<glyph unicode="&#xc5;" glyph-name="Aring" horiz-adv-x="619" d="M-22 -3Q-24 -1 -24 5Q-24 24 -17 24Q-6 24 13 30T41 45Q63 68 102 139L378 635Q393 662 417 662Q419 662 425 660L508 132L520 60Q522 50 533 42T558 29T578 24Q580 24 580 19Q580 9 575 -3Q529
-1 503 0T471 2Q437 2 410 1T364 -3Q363 -2 363 3Q363 24 370 24Q380 24 398 30T421 44Q428 58 428 91Q428 109 410 239Q410 246 398 247Q385 248 366 248T309 249Q299 249 276 248T216 244Q214 244 204 228T179 187T151 135T128 87T119 55Q119 45 129 38T152 28T174
24Q176 24 176 18Q176 9 171 -3L76 2Q50 4 26 2T-22 -3ZM246 299Q263 299 292 299T350 298T397 300Q401 300 401 304Q394 352 386 407T368 526Q245 303 245 301Q245 299 246 299ZM401 656Q370 656 348 677T325 733Q325 760 339 782T375 817T423 831Q455 831 476
809T498 755Q498 712 470 684T401 656ZM404 688Q430 688 447 706T464 752Q464 772 452 785T420 799Q397 799 379 780T360 735Q360 714 372 701T404 688Z" />
<glyph unicode="&#xc6;" glyph-name="AE" horiz-adv-x="847" d="M795 -4Q742 -4 652 -1Q607 1 575 2T522 2L396 -3Q395 -2 395 3Q395 11 398 21T404 31Q412 31 428 34T460 41T477 50Q481 56 485 67T492 95Q495 112 497 126T502 164Q507 211 509 241T512 285Q512
293 506 293L438 294Q418 294 401 294T371 293Q368 293 365 290L256 131Q234 99 223 79T211 50Q211 44 220 38T242 28T262 24Q263 24 263 22Q263 12 254 -3L160 2Q135 4 111 2T64 -3Q63 -2 63 3Q63 9 66 16T72 24Q82 24 102 30T132 45Q152 62 171 86T211 139L523
586Q528 594 528 601Q528 625 498 625Q495 625 495 630Q495 646 505 656H592Q613 656 649 657T737 660Q789 662 827 663T892 664L888 599Q887 577 886 560T883 530Q878 525 866 525Q854 525 854 532Q852 588 824 604Q811 612 799 614T772 616H713Q635 616 631 603Q623
577 616 505L601 347V346Q601 340 632 340H665Q705 340 723 343T751 359T774 402L778 411Q781 418 793 418Q805 418 808 413Q800 382 794 334T782 221Q777 217 767 217Q755 217 754 224Q753 238 752 257T737 288Q726 296 637 296Q597 296 596 286L580 111Q578 89
577 77T575 63Q575 50 591 47T636 44Q686 44 716 48T763 61Q793 77 833 162Q836 168 848 168Q865 168 869 162Q818 64 795 -4ZM454 339Q474 339 488 339T513 341L519 346L540 547L400 344Q398 340 401 340Q411 339 424 339T454 339Z" />
<glyph unicode="&#xc7;" glyph-name="Ccedilla" horiz-adv-x="580" d="M321 -6Q242 -6 183 31T92 131T60 267Q60 333 89 404T168 534Q217 593 288 630T437 667Q505 667 650 622L630 498Q627 483 606 483Q598 483 595 486Q595 501 594 513T584 548Q570 585 532
605T432 625Q381 625 331 596T240 515T175 398T151 259Q151 195 174 145T242 66T350 37Q424 37 476 70Q500 85 516 104T543 138T556 153Q559 153 568 143T576 128Q530 41 526 37Q516 26 484 16T408 0T321 -6ZM301 0L276 -27H304Q325 -27 335 -44T341 -85Q333 -125
299 -149T220 -174Q196 -174 185 -164V-147Q187 -141 192 -136T203 -131Q212 -131 220 -138T241 -146Q263 -146 278 -135T296 -107Q298 -97 295 -85T280 -68T239 -75Q237 -75 233 -69T231 -60Q233 -58 242 -46T263 -20T278 0H301Z" />
<glyph unicode="&#xc8;" glyph-name="Egrave" horiz-adv-x="544" d="M452 -4Q435 -4 403 -3T333 -1T256 1T185 2T136 2L25 -3Q24 -2 24 5Q24 24 29 24Q37 24 52 28T80 37T96 49Q110 79 122 142L194 514Q201 549 203 572T205 607Q205 613 194 618T170 627T149 631Q147
631 147 635Q147 651 154 658Q177 657 203 657T261 656Q281 656 316 657T402 660Q452 662 490 663T554 664Q553 655 553 634T553 589T554 548T555 528Q550 523 537 523Q525 523 525 530Q522 586 499 601T426 616H372Q300 616 296 603Q285 572 278 536L246 361Q246
356 254 355T283 353H328Q361 353 380 354T410 362T429 383T449 424Q452 431 463 431Q475 431 478 426L441 234Q436 230 427 230Q413 230 413 238Q412 262 410 279T398 301Q393 304 369 306T301 309Q235 309 233 300L204 152Q199 126 197 104T193 65Q192 45 217
45T299 44Q343 44 372 48T423 64T461 99T498 162Q501 168 513 168Q530 168 534 162Q464 33 452 -4ZM423 711Q414 711 388 719T333 739T283 764T262 785Q262 795 278 802Q292 809 320 809Q329 809 337 807Q349 800 365 787T398 760T425 735T436 721Q436 711 423
711Z" />
<glyph unicode="&#xc9;" glyph-name="Eacute" horiz-adv-x="544" d="M452 -4Q435 -4 403 -3T333 -1T256 1T185 2T136 2L25 -3Q24 -2 24 5Q24 24 29 24Q37 24 52 28T80 37T96 49Q110 79 122 142L194 514Q201 549 203 572T205 607Q205 613 194 618T170 627T149 631Q147
631 147 635Q147 651 154 658Q177 657 203 657T261 656Q281 656 316 657T402 660Q452 662 490 663T554 664Q553 655 553 634T553 589T554 548T555 528Q550 523 537 523Q525 523 525 530Q522 586 499 601T426 616H372Q300 616 296 603Q285 572 278 536L246 361Q246
356 254 355T283 353H328Q361 353 380 354T410 362T429 383T449 424Q452 431 463 431Q475 431 478 426L441 234Q436 230 427 230Q413 230 413 238Q412 262 410 279T398 301Q393 304 369 306T301 309Q235 309 233 300L204 152Q199 126 197 104T193 65Q192 45 217
45T299 44Q343 44 372 48T423 64T461 99T498 162Q501 168 513 168Q530 168 534 162Q464 33 452 -4ZM356 711Q343 711 343 721Q343 724 354 735T381 759T413 786T442 807Q450 809 459 809Q487 809 502 802Q517 795 517 785Q517 776 496 764T446 740T391 719T356
711Z" />
<glyph unicode="&#xca;" glyph-name="Ecircumflex" horiz-adv-x="544" d="M452 -4Q435 -4 403 -3T333 -1T256 1T185 2T136 2L25 -3Q24 -2 24 5Q24 24 29 24Q37 24 52 28T80 37T96 49Q110 79 122 142L194 514Q201 549 203 572T205 607Q205 613 194 618T170 627T149
631Q147 631 147 635Q147 651 154 658Q177 657 203 657T261 656Q281 656 316 657T402 660Q452 662 490 663T554 664Q553 655 553 634T553 589T554 548T555 528Q550 523 537 523Q525 523 525 530Q522 586 499 601T426 616H372Q300 616 296 603Q285 572 278 536L246
361Q246 356 254 355T283 353H328Q361 353 380 354T410 362T429 383T449 424Q452 431 463 431Q475 431 478 426L441 234Q436 230 427 230Q413 230 413 238Q412 262 410 279T398 301Q393 304 369 306T301 309Q235 309 233 300L204 152Q199 126 197 104T193 65Q192
45 217 45T299 44Q343 44 372 48T423 64T461 99T498 162Q501 168 513 168Q530 168 534 162Q464 33 452 -4ZM268 728Q256 728 262 748Q275 761 295 773T339 804Q356 816 370 827T394 850Q404 858 407 858Q415 858 418 850Q427 834 435 822T450 802Q472 779 488 765T505
748Q499 728 490 728Q470 728 391 786Q371 774 345 761T296 738T268 728Z" />
<glyph unicode="&#xcb;" glyph-name="Edieresis" horiz-adv-x="544" d="M452 -4Q435 -4 403 -3T333 -1T256 1T185 2T136 2L25 -3Q24 -2 24 5Q24 24 29 24Q37 24 52 28T80 37T96 49Q110 79 122 142L194 514Q201 549 203 572T205 607Q205 613 194 618T170 627T149
631Q147 631 147 635Q147 651 154 658Q177 657 203 657T261 656Q281 656 316 657T402 660Q452 662 490 663T554 664Q553 655 553 634T553 589T554 548T555 528Q550 523 537 523Q525 523 525 530Q522 586 499 601T426 616H372Q300 616 296 603Q285 572 278 536L246
361Q246 356 254 355T283 353H328Q361 353 380 354T410 362T429 383T449 424Q452 431 463 431Q475 431 478 426L441 234Q436 230 427 230Q413 230 413 238Q412 262 410 279T398 301Q393 304 369 306T301 309Q235 309 233 300L204 152Q199 126 197 104T193 65Q192
45 217 45T299 44Q343 44 372 48T423 64T461 99T498 162Q501 168 513 168Q530 168 534 162Q464 33 452 -4ZM463 729Q444 729 435 741T425 769Q425 790 440 809T482 829Q502 829 511 818T520 789Q520 768 505 749T463 729ZM294 729Q275 729 267 740T258 768Q258
789 272 809T314 829Q334 829 342 818T351 790Q351 769 337 749T294 729Z" />
<glyph unicode="&#xcc;" glyph-name="Igrave" horiz-adv-x="323" d="M14 -3Q12 -1 12 5Q12 24 19 24Q27 24 41 27T68 35T83 46Q91 63 97 87T109 142L180 512Q185 540 188 562T191 604Q191 612 181 618T157 627T135 631Q133 631 133 636Q133 650 141 658Q149 658
168 657T210 654T249 652Q260 652 282 653T325 656T355 658V655Q355 631 348 631Q343 631 329 627T301 618T286 608Q272 578 260 515L189 139Q184 111 181 89T178 49Q178 41 193 35T232 24Q234 24 234 20Q234 9 228 -3Q182 -1 156 0T124 2L14 -3ZM303 711Q294 711
268 719T213 739T163 764T142 785Q142 795 158 802Q172 809 200 809Q209 809 217 807Q229 800 245 787T278 760T305 735T316 721Q316 711 303 711Z" />
<glyph unicode="&#xcd;" glyph-name="Iacute" horiz-adv-x="323" d="M14 -3Q12 -1 12 5Q12 24 19 24Q27 24 41 27T68 35T83 46Q91 63 97 87T109 142L180 512Q185 540 188 562T191 604Q191 612 181 618T157 627T135 631Q133 631 133 636Q133 650 141 658Q149 658
168 657T210 654T249 652Q260 652 282 653T325 656T355 658V655Q355 631 348 631Q343 631 329 627T301 618T286 608Q272 578 260 515L189 139Q184 111 181 89T178 49Q178 41 193 35T232 24Q234 24 234 20Q234 9 228 -3Q182 -1 156 0T124 2L14 -3ZM236 711Q223 711
223 721Q223 724 234 735T261 759T293 786T322 807Q330 809 339 809Q367 809 382 802Q397 795 397 785Q397 776 376 764T326 740T271 719T236 711Z" />
<glyph unicode="&#xce;" glyph-name="Icircumflex" horiz-adv-x="323" d="M14 -3Q12 -1 12 5Q12 24 19 24Q27 24 41 27T68 35T83 46Q91 63 97 87T109 142L180 512Q185 540 188 562T191 604Q191 612 181 618T157 627T135 631Q133 631 133 636Q133 650 141 658Q149
658 168 657T210 654T249 652Q260 652 282 653T325 656T355 658V655Q355 631 348 631Q343 631 329 627T301 618T286 608Q272 578 260 515L189 139Q184 111 181 89T178 49Q178 41 193 35T232 24Q234 24 234 20Q234 9 228 -3Q182 -1 156 0T124 2L14 -3ZM148 728Q136
728 142 748Q155 761 175 773T219 804Q236 816 250 827T274 850Q284 858 287 858Q295 858 298 850Q307 834 315 822T330 802Q352 779 368 765T385 748Q379 728 370 728Q350 728 271 786Q251 774 225 761T176 738T148 728Z" />
<glyph unicode="&#xcf;" glyph-name="Idieresis" horiz-adv-x="323" d="M14 -3Q12 -1 12 5Q12 24 19 24Q27 24 41 27T68 35T83 46Q91 63 97 87T109 142L180 512Q185 540 188 562T191 604Q191 612 181 618T157 627T135 631Q133 631 133 636Q133 650 141 658Q149
658 168 657T210 654T249 652Q260 652 282 653T325 656T355 658V655Q355 631 348 631Q343 631 329 627T301 618T286 608Q272 578 260 515L189 139Q184 111 181 89T178 49Q178 41 193 35T232 24Q234 24 234 20Q234 9 228 -3Q182 -1 156 0T124 2L14 -3ZM343 729Q324
729 315 741T305 769Q305 790 320 809T362 829Q382 829 391 818T400 789Q400 768 385 749T343 729ZM174 729Q155 729 147 740T138 768Q138 789 152 809T194 829Q214 829 222 818T231 790Q231 769 217 749T174 729Z" />
<glyph unicode="&#xd0;" glyph-name="Eth" horiz-adv-x="668" d="M25 -3Q24 -2 24 5Q24 24 29 24Q37 24 52 28T80 37T96 49Q110 79 122 142L155 313H100Q95 313 95 326Q95 344 101 353H163L194 514Q201 549 203 572T205 607Q205 613 194 618T170 627T149 631Q147
631 147 635Q147 651 154 658Q177 657 203 657T261 656Q282 656 312 656T373 657T424 658Q511 658 569 625T658 535T688 405Q688 336 662 265T584 132T460 34T294 -3Q274 -3 245 -2T186 1T136 2L25 -3ZM317 43Q384 43 436 75T525 160T581 280T600 414Q600 502 556
558T422 614Q315 614 302 598Q294 588 288 568T275 519L243 353H446Q452 353 452 343Q452 327 446 313H235L202 139Q195 105 196 88T201 63Q210 43 317 43Z" />
<glyph unicode="&#xd1;" glyph-name="Ntilde" horiz-adv-x="690" d="M546 -8Q532 -8 520 15Q519 16 274 581L185 141Q175 94 175 52Q175 44 191 37T223 27L240 24Q242 24 242 19Q242 9 237 -3Q191 -1 165 0T133 2L23 -3Q21 -1 21 5Q21 24 28 24Q36 24 53 27T87
37T105 48Q110 59 117 83T132 144L209 516Q218 560 218 606Q218 614 206 619T177 628T150 631Q148 631 148 638Q148 654 155 658Q194 656 219 655T254 654Q263 654 286 655T348 658Q356 628 375 577T421 461T479 330T540 203Q544 213 546 223T551 244L602 513Q608
545 611 568T615 605Q615 613 602 619T572 628T545 631Q543 631 543 638Q543 654 550 658L655 653Q662 653 689 654T764 658Q764 631 758 631Q752 631 734 628T699 619T680 609Q673 593 667 570T655 516L580 136Q577 120 574 101T566 56Q562 31 560 16T556 -4Q552
-8 546 -8ZM537 728Q506 728 462 755Q418 781 386 781Q370 781 344 759Q318 737 316 737Q308 737 313 754Q316 769 336 792Q375 832 416 832Q447 832 491 806Q535 779 566 779Q584 779 597 790T621 812T635 823Q643 823 638 806Q635 790 615 767Q579 728 537 728Z"
/>
<glyph unicode="&#xd2;" glyph-name="Ograve" horiz-adv-x="650" d="M291 -10Q220 -10 167 25T84 121T55 259Q55 333 84 405T166 537T285 631T427 667Q495 667 548 633T633 540T665 409Q665 325 635 249T552 115T432 24T291 -10ZM317 33Q369 33 415 64T497 146T553
263T573 395Q573 462 554 513T496 595T404 625Q350 625 303 595T221 514T166 399T146 267Q146 199 166 146T224 63T317 33ZM482 711Q473 711 447 719T392 739T342 764T321 785Q321 795 337 802Q351 809 379 809Q388 809 396 807Q408 800 424 787T457 760T484 735T495
721Q495 711 482 711Z" />
<glyph unicode="&#xd3;" glyph-name="Oacute" horiz-adv-x="650" d="M291 -10Q220 -10 167 25T84 121T55 259Q55 333 84 405T166 537T285 631T427 667Q495 667 548 633T633 540T665 409Q665 325 635 249T552 115T432 24T291 -10ZM317 33Q369 33 415 64T497 146T553
263T573 395Q573 462 554 513T496 595T404 625Q350 625 303 595T221 514T166 399T146 267Q146 199 166 146T224 63T317 33ZM415 711Q402 711 402 721Q402 724 413 735T440 759T472 786T501 807Q509 809 518 809Q546 809 561 802Q576 795 576 785Q576 776 555 764T505
740T450 719T415 711Z" />
<glyph unicode="&#xd4;" glyph-name="Ocircumflex" horiz-adv-x="650" d="M291 -10Q220 -10 167 25T84 121T55 259Q55 333 84 405T166 537T285 631T427 667Q495 667 548 633T633 540T665 409Q665 325 635 249T552 115T432 24T291 -10ZM317 33Q369 33 415 64T497
146T553 263T573 395Q573 462 554 513T496 595T404 625Q350 625 303 595T221 514T166 399T146 267Q146 199 166 146T224 63T317 33ZM327 728Q315 728 321 748Q334 761 354 773T398 804Q415 816 429 827T453 850Q463 858 466 858Q474 858 477 850Q486 834 494 822T509
802Q531 779 547 765T564 748Q558 728 549 728Q529 728 450 786Q430 774 404 761T355 738T327 728Z" />
<glyph unicode="&#xd5;" glyph-name="Otilde" horiz-adv-x="650" d="M291 -10Q220 -10 167 25T84 121T55 259Q55 333 84 405T166 537T285 631T427 667Q495 667 548 633T633 540T665 409Q665 325 635 249T552 115T432 24T291 -10ZM317 33Q369 33 415 64T497 146T553
263T573 395Q573 462 554 513T496 595T404 625Q350 625 303 595T221 514T166 399T146 267Q146 199 166 146T224 63T317 33ZM525 728Q494 728 450 755Q406 781 374 781Q358 781 332 759Q306 737 304 737Q296 737 301 754Q304 769 324 792Q363 832 404 832Q435 832
479 806Q523 779 554 779Q572 779 585 790T609 812T623 823Q631 823 626 806Q623 790 603 767Q567 728 525 728Z" />
<glyph unicode="&#xd6;" glyph-name="Odieresis" horiz-adv-x="650" d="M291 -10Q220 -10 167 25T84 121T55 259Q55 333 84 405T166 537T285 631T427 667Q495 667 548 633T633 540T665 409Q665 325 635 249T552 115T432 24T291 -10ZM317 33Q369 33 415 64T497
146T553 263T573 395Q573 462 554 513T496 595T404 625Q350 625 303 595T221 514T166 399T146 267Q146 199 166 146T224 63T317 33ZM522 729Q503 729 494 741T484 769Q484 790 499 809T541 829Q561 829 570 818T579 789Q579 768 564 749T522 729ZM353 729Q334 729
326 740T317 768Q317 789 331 809T373 829Q393 829 401 818T410 790Q410 769 396 749T353 729Z" />
<glyph unicode="&#xd7;" glyph-name="multiply" horiz-adv-x="394" d="M24 60Q20 60 14 78T7 108L161 243Q163 245 163 246Q163 250 162 251L61 388Q61 394 69 405T86 426T99 435L103 431L207 290Q209 288 211 288L213 289L371 430Q374 433 377 433Q382 433 388
416T394 384L241 248L239 246L240 244L340 108Q340 102 334 91T319 70T307 60Q302 60 300 63L197 203Q195 205 194 205Q192 205 190 203L29 63Q26 60 24 60Z" />
<glyph unicode="&#xd8;" glyph-name="Oslash" horiz-adv-x="650" d="M114 -13Q107 -10 98 -2T92 10L128 56Q93 93 74 145T55 259Q55 333 84 405T166 537T285 631T427 667Q467 667 503 654T569 617L608 667Q615 665 624 657T631 645L593 596Q626 561 645 513T665
409Q665 325 635 249T552 115T432 24T291 -10Q250 -10 215 2T152 35L114 -13ZM146 267Q146 180 178 120L527 563Q505 592 474 608T404 625Q350 625 303 595T221 514T166 399T146 267ZM317 33Q369 33 415 64T497 146T553 263T573 395Q573 477 544 534L196 92Q218
64 248 49T317 33Z" />
<glyph unicode="&#xd9;" glyph-name="Ugrave" horiz-adv-x="651" d="M291 0Q204 0 156 53T107 206Q107 225 110 251T121 312L160 512Q165 541 168 564T171 604Q171 612 161 618T137 627T115 631Q113 631 113 636Q113 650 121 658Q129 658 148 657T190 654T229
652Q254 652 291 655Q329 658 335 658V655Q335 631 328 631Q323 631 309 627T281 618T266 608Q252 578 240 515L199 298Q195 276 193 255T191 213Q191 136 224 93T322 49Q485 49 527 274L571 512Q578 547 580 569T583 602Q583 610 569 616T538 627T508 631Q506
631 506 637Q506 654 513 658Q521 658 540 657T582 654T621 652Q651 652 680 654T728 658Q728 631 721 631Q716 631 699 627T666 618T646 608Q642 603 635 579T619 510L574 276Q554 170 519 110T428 25T291 0ZM474 711Q465 711 439 719T384 739T334 764T313 785Q313
795 329 802Q343 809 371 809Q380 809 388 807Q400 800 416 787T449 760T476 735T487 721Q487 711 474 711Z" />
<glyph unicode="&#xda;" glyph-name="Uacute" horiz-adv-x="651" d="M291 0Q204 0 156 53T107 206Q107 225 110 251T121 312L160 512Q165 541 168 564T171 604Q171 612 161 618T137 627T115 631Q113 631 113 636Q113 650 121 658Q129 658 148 657T190 654T229
652Q254 652 291 655Q329 658 335 658V655Q335 631 328 631Q323 631 309 627T281 618T266 608Q252 578 240 515L199 298Q195 276 193 255T191 213Q191 136 224 93T322 49Q485 49 527 274L571 512Q578 547 580 569T583 602Q583 610 569 616T538 627T508 631Q506
631 506 637Q506 654 513 658Q521 658 540 657T582 654T621 652Q651 652 680 654T728 658Q728 631 721 631Q716 631 699 627T666 618T646 608Q642 603 635 579T619 510L574 276Q554 170 519 110T428 25T291 0ZM407 711Q394 711 394 721Q394 724 405 735T432 759T464
786T493 807Q501 809 510 809Q538 809 553 802Q568 795 568 785Q568 776 547 764T497 740T442 719T407 711Z" />
<glyph unicode="&#xdb;" glyph-name="Ucircumflex" horiz-adv-x="651" d="M291 0Q204 0 156 53T107 206Q107 225 110 251T121 312L160 512Q165 541 168 564T171 604Q171 612 161 618T137 627T115 631Q113 631 113 636Q113 650 121 658Q129 658 148 657T190 654T229
652Q254 652 291 655Q329 658 335 658V655Q335 631 328 631Q323 631 309 627T281 618T266 608Q252 578 240 515L199 298Q195 276 193 255T191 213Q191 136 224 93T322 49Q485 49 527 274L571 512Q578 547 580 569T583 602Q583 610 569 616T538 627T508 631Q506
631 506 637Q506 654 513 658Q521 658 540 657T582 654T621 652Q651 652 680 654T728 658Q728 631 721 631Q716 631 699 627T666 618T646 608Q642 603 635 579T619 510L574 276Q554 170 519 110T428 25T291 0ZM319 728Q307 728 313 748Q326 761 346 773T390 804Q407
816 421 827T445 850Q455 858 458 858Q466 858 469 850Q478 834 486 822T501 802Q523 779 539 765T556 748Q550 728 541 728Q521 728 442 786Q422 774 396 761T347 738T319 728Z" />
<glyph unicode="&#xdc;" glyph-name="Udieresis" horiz-adv-x="651" d="M291 0Q204 0 156 53T107 206Q107 225 110 251T121 312L160 512Q165 541 168 564T171 604Q171 612 161 618T137 627T115 631Q113 631 113 636Q113 650 121 658Q129 658 148 657T190 654T229
652Q254 652 291 655Q329 658 335 658V655Q335 631 328 631Q323 631 309 627T281 618T266 608Q252 578 240 515L199 298Q195 276 193 255T191 213Q191 136 224 93T322 49Q485 49 527 274L571 512Q578 547 580 569T583 602Q583 610 569 616T538 627T508 631Q506
631 506 637Q506 654 513 658Q521 658 540 657T582 654T621 652Q651 652 680 654T728 658Q728 631 721 631Q716 631 699 627T666 618T646 608Q642 603 635 579T619 510L574 276Q554 170 519 110T428 25T291 0ZM514 729Q495 729 486 741T476 769Q476 790 491 809T533
829Q553 829 562 818T571 789Q571 768 556 749T514 729ZM345 729Q326 729 318 740T309 768Q309 789 323 809T365 829Q385 829 393 818T402 790Q402 769 388 749T345 729Z" />
<glyph unicode="&#xdd;" glyph-name="Yacute" horiz-adv-x="593" d="M180 -3Q179 -2 179 4Q179 24 186 24Q194 24 207 27T234 35T250 46Q256 57 262 79T275 136L301 278Q302 281 281 349Q271 382 260 414T238 480L217 545Q202 591 178 609Q168 616 149 623T122
631Q120 631 120 636Q120 654 127 658Q135 658 156 657T201 654T244 652Q254 652 368 658V653Q368 631 361 631Q351 631 336 627T310 613T298 589Q298 578 302 567L371 355L417 414L467 480Q548 587 548 600Q547 613 527 622T486 631Q484 631 484 637Q484 654 491
658Q500 658 531 655Q547 654 560 653T583 652L702 658Q703 657 703 653Q703 631 696 631Q690 631 674 627T640 615T615 600Q611 596 593 573T549 515T495 442T442 369T401 311T384 285L356 139Q351 111 348 89T345 49Q345 41 358 35T386 26L399 24Q401 24 401
20Q401 9 395 -3Q349 -1 323 0T291 2L180 -3ZM407 711Q394 711 394 721Q394 724 405 735T432 759T464 786T493 807Q501 809 510 809Q538 809 553 802Q568 795 568 785Q568 776 547 764T497 740T442 719T407 711Z" />
<glyph unicode="&#xde;" glyph-name="Thorn" horiz-adv-x="521" d="M49 -3Q47 1 47 5Q47 26 54 26Q62 26 76 28T104 36T120 46Q128 63 133 85T144 135L220 523Q227 556 229 578T230 612Q230 618 219 622T194 630T172 633Q170 633 171 646Q173 657 178 662L289
657Q296 657 323 658T397 662Q397 650 396 647Q394 633 390 633Q384 633 370 630T342 622T326 612Q319 596 313 571T302 525T297 500Q297 497 299 497Q304 497 326 504T389 511Q428 511 464 496T523 449T547 369Q547 325 528 283T477 205T403 149T318 128Q278 128
264 139T248 156Q246 160 246 163Q246 166 247 170T250 179Q252 184 253 182Q280 171 308 171Q357 171 390 201T442 276T460 364Q460 467 366 467Q318 467 300 460Q287 456 281 423L226 139Q214 83 216 46Q217 42 228 37T252 29T272 26Q274 26 274 21Q274 20 274
17T273 11Q272 2 268 -3Q222 -1 196 0T161 2L49 -3Z" />
<glyph unicode="&#xdf;" glyph-name="germandbls" horiz-adv-x="495" d="M-7 -234Q-43 -234 -63 -221T-90 -191Q-83 -133 -51 -133Q-39 -133 -34 -142T-25 -164T-13 -185T12 -195Q28 -195 40 -177T61 -130T77 -67T90 -3L157 354Q158 361 154 361H89Q87 361 87
364Q87 370 94 380T113 399T135 407H164Q168 407 174 437Q183 480 197 525T235 608T291 670T372 694Q409 694 443 681T498 643T520 581Q520 543 501 512T454 457T399 419Q365 401 347 385T329 352Q329 337 341 322T368 296T387 280Q394 275 406 264T432 241T453
220Q468 204 474 185T480 147Q480 107 462 74T412 20T340 0Q298 0 265 14T228 42Q237 100 272 100Q284 100 290 90T302 66T316 43T343 32Q377 32 396 61T415 125Q415 138 412 150T397 175Q381 193 360 212T322 245T301 263Q291 274 282 286T272 324Q272 350 286
369T320 404T362 435Q444 496 444 589Q444 622 422 639T368 656Q341 656 318 634T277 574T251 493L165 46Q136 -103 96 -169Q55 -234 -7 -234Z" />
<glyph unicode="&#xe0;" glyph-name="agrave" horiz-adv-x="457" d="M321 -6Q305 -6 296 8T287 46Q287 54 288 67T294 99L299 125Q286 101 263 71T213 18T158 -5Q114 -5 89 34T63 130Q63 186 88 240T154 338T247 408T349 435Q389 435 422 422L364 121Q361 104
360 96T358 78Q358 56 368 56Q376 56 387 65T410 85T428 104L434 111Q436 111 441 102T447 88Q439 74 417 52T369 12T321 -6ZM188 53Q207 53 228 73T269 126T305 198T328 274L348 376Q336 389 307 389Q277 389 247 368T192 313T152 236T137 151Q137 53 188 53ZM342
482Q336 482 318 491T276 514T230 545T193 575T178 598Q178 613 194 619T227 626Q242 626 247 621L263 605L291 576Q355 506 355 500Q355 494 351 488T342 482Z" />
<glyph unicode="&#xe1;" glyph-name="aacute" horiz-adv-x="457" d="M321 -6Q305 -6 296 8T287 46Q287 54 288 67T294 99L299 125Q286 101 263 71T213 18T158 -5Q114 -5 89 34T63 130Q63 186 88 240T154 338T247 408T349 435Q389 435 422 422L364 121Q361 104
360 96T358 78Q358 56 368 56Q376 56 387 65T410 85T428 104L434 111Q436 111 441 102T447 88Q439 74 417 52T369 12T321 -6ZM188 53Q207 53 228 73T269 126T305 198T328 274L348 376Q336 389 307 389Q277 389 247 368T192 313T152 236T137 151Q137 53 188 53ZM305
494Q303 494 301 498T298 506Q298 509 310 524T340 560T378 600T413 632Q421 637 439 637Q478 637 478 613Q478 604 462 590T422 559T373 528T329 504T305 494Z" />
<glyph unicode="&#xe2;" glyph-name="acircumflex" horiz-adv-x="457" d="M321 -6Q305 -6 296 8T287 46Q287 54 288 67T294 99L299 125Q286 101 263 71T213 18T158 -5Q114 -5 89 34T63 130Q63 186 88 240T154 338T247 408T349 435Q389 435 422 422L364 121Q361
104 360 96T358 78Q358 56 368 56Q376 56 387 65T410 85T428 104L434 111Q436 111 441 102T447 88Q439 74 417 52T369 12T321 -6ZM188 53Q207 53 228 73T269 126T305 198T328 274L348 376Q336 389 307 389Q277 389 247 368T192 313T152 236T137 151Q137 53 188
53ZM241 496Q236 496 235 503T235 516L297 567Q335 597 351 618Q360 627 362 627Q365 627 371 618Q383 599 390 588T399 574Q418 549 432 534T447 516Q442 496 434 496Q416 496 348 554Q331 542 308 529T266 506T241 496Z" />
<glyph unicode="&#xe3;" glyph-name="atilde" horiz-adv-x="457" d="M321 -6Q305 -6 296 8T287 46Q287 54 288 67T294 99L299 125Q286 101 263 71T213 18T158 -5Q114 -5 89 34T63 130Q63 186 88 240T154 338T247 408T349 435Q389 435 422 422L364 121Q361 104
360 96T358 78Q358 56 368 56Q376 56 387 65T410 85T428 104L434 111Q436 111 441 102T447 88Q439 74 417 52T369 12T321 -6ZM188 53Q207 53 228 73T269 126T305 198T328 274L348 376Q336 389 307 389Q277 389 247 368T192 313T152 236T137 151Q137 53 188 53ZM432
504Q404 504 366 531Q326 557 299 557Q284 557 262 535Q240 513 238 513Q233 513 233 519Q233 536 246 556T281 592T326 608Q354 608 392 582Q430 555 458 555Q471 555 482 566T502 588T518 599Q522 599 522 590Q522 575 510 555T477 519T432 504Z" />
<glyph unicode="&#xe4;" glyph-name="adieresis" horiz-adv-x="457" d="M321 -6Q305 -6 296 8T287 46Q287 54 288 67T294 99L299 125Q286 101 263 71T213 18T158 -5Q114 -5 89 34T63 130Q63 186 88 240T154 338T247 408T349 435Q389 435 422 422L364 121Q361 104
360 96T358 78Q358 56 368 56Q376 56 387 65T410 85T428 104L434 111Q436 111 441 102T447 88Q439 74 417 52T369 12T321 -6ZM188 53Q207 53 228 73T269 126T305 198T328 274L348 376Q336 389 307 389Q277 389 247 368T192 313T152 236T137 151Q137 53 188 53ZM259
507Q240 507 231 518T222 546Q222 567 236 587T279 607Q298 607 306 596T315 568Q315 547 301 527T259 507ZM427 507Q408 507 399 518T390 546Q390 567 404 587T447 607Q466 607 474 596T483 568Q483 547 469 527T427 507Z" />
<glyph unicode="&#xe5;" glyph-name="aring" horiz-adv-x="457" d="M321 -6Q305 -6 296 8T287 46Q287 54 288 67T294 99L299 125Q286 101 263 71T213 18T158 -5Q114 -5 89 34T63 130Q63 186 88 240T154 338T247 408T349 435Q389 435 422 422L364 121Q361 104 360
96T358 78Q358 56 368 56Q376 56 387 65T410 85T428 104L434 111Q436 111 441 102T447 88Q439 74 417 52T369 12T321 -6ZM188 53Q207 53 228 73T269 126T305 198T328 274L348 376Q336 389 307 389Q277 389 247 368T192 313T152 236T137 151Q137 53 188 53ZM343
504Q312 504 290 525T267 581Q267 608 281 630T317 665T365 679Q397 679 418 657T440 603Q440 560 412 532T343 504ZM346 536Q372 536 389 554T406 600Q406 620 394 633T362 647Q339 647 321 628T302 583Q302 562 314 549T346 536Z" />
<glyph unicode="&#xe6;" glyph-name="ae" horiz-adv-x="560" d="M131 -7Q93 -7 67 13T40 76Q40 117 63 145T124 193Q161 213 193 224T257 241Q265 243 268 257L285 340Q285 342 285 345T286 356Q286 374 272 386T239 398Q213 398 191 375T162 316Q156 282 113
282Q87 282 87 295Q87 314 104 338T150 384T212 421T276 436Q312 436 328 420T353 372Q382 399 411 417T473 435Q519 435 539 412T560 360Q560 329 536 298T475 240T399 199T330 183Q326 183 326 148Q326 103 343 80T391 56Q418 56 439 72T481 108L484 111Q486
111 491 102T497 88Q488 72 465 50T414 11T358 -6Q327 -6 300 12T259 79Q242 46 214 20T131 -7ZM337 218Q355 218 380 231T430 265T471 313T488 364Q488 394 463 394Q439 394 416 375T375 327T345 269T333 222Q333 218 337 218ZM162 40Q186 40 203 55T232 95T248
145L256 191Q222 185 191 172T139 139T119 90Q119 69 131 55T162 40Z" />
<glyph unicode="&#xe7;" glyph-name="ccedilla" horiz-adv-x="349" d="M175 -6Q123 -6 96 34T68 146Q68 194 87 244T139 338T211 408T290 435Q337 435 377 401Q380 389 380 381Q380 370 373 354T346 338Q330 338 321 352T303 380T278 394Q250 394 218 363T164
280T142 162Q142 56 208 56Q230 56 252 70T292 102L301 111Q303 111 308 102T314 88Q305 74 284 52T234 12T175 -6ZM208 0L183 -27H211Q232 -27 242 -44T248 -85Q240 -125 206 -149T127 -174Q103 -174 92 -164V-147Q94 -141 99 -136T110 -131Q119 -131 127 -138T148
-146Q170 -146 185 -135T203 -107Q205 -97 202 -85T187 -68T146 -75Q144 -75 140 -69T138 -60Q140 -58 149 -46T170 -20T185 0H208Z" />
<glyph unicode="&#xe8;" glyph-name="egrave" horiz-adv-x="356" d="M173 -6Q121 -6 94 34T66 146Q66 194 86 244T139 338T211 408T288 435Q334 435 354 412T375 360Q375 317 330 273Q300 245 266 225T199 194T145 183Q141 183 141 148Q141 103 158 80T206 56Q233
56 254 72T296 108L299 111Q301 111 306 102T312 88Q303 72 280 50T229 11T173 -6ZM152 218Q170 218 195 231T245 265T286 313T303 364Q303 394 278 394Q254 394 231 375T190 327T160 269T148 222Q148 218 152 218ZM300 482Q294 482 276 491T234 514T188 545T151
575T136 598Q136 613 152 619T185 626Q200 626 205 621L221 605L249 576Q313 506 313 500Q313 494 309 488T300 482Z" />
<glyph unicode="&#xe9;" glyph-name="eacute" horiz-adv-x="356" d="M173 -6Q121 -6 94 34T66 146Q66 194 86 244T139 338T211 408T288 435Q334 435 354 412T375 360Q375 317 330 273Q300 245 266 225T199 194T145 183Q141 183 141 148Q141 103 158 80T206 56Q233
56 254 72T296 108L299 111Q301 111 306 102T312 88Q303 72 280 50T229 11T173 -6ZM152 218Q170 218 195 231T245 265T286 313T303 364Q303 394 278 394Q254 394 231 375T190 327T160 269T148 222Q148 218 152 218ZM263 494Q261 494 259 498T256 506Q256 509 268
524T298 560T336 600T371 632Q379 637 397 637Q436 637 436 613Q436 604 420 590T380 559T331 528T287 504T263 494Z" />
<glyph unicode="&#xea;" glyph-name="ecircumflex" horiz-adv-x="356" d="M173 -6Q121 -6 94 34T66 146Q66 194 86 244T139 338T211 408T288 435Q334 435 354 412T375 360Q375 317 330 273Q300 245 266 225T199 194T145 183Q141 183 141 148Q141 103 158 80T206
56Q233 56 254 72T296 108L299 111Q301 111 306 102T312 88Q303 72 280 50T229 11T173 -6ZM152 218Q170 218 195 231T245 265T286 313T303 364Q303 394 278 394Q254 394 231 375T190 327T160 269T148 222Q148 218 152 218ZM199 496Q194 496 193 503T193 516L255
567Q293 597 309 618Q318 627 320 627Q323 627 329 618Q341 599 348 588T357 574Q376 549 390 534T405 516Q400 496 392 496Q374 496 306 554Q289 542 266 529T224 506T199 496Z" />
<glyph unicode="&#xeb;" glyph-name="edieresis" horiz-adv-x="356" d="M173 -6Q121 -6 94 34T66 146Q66 194 86 244T139 338T211 408T288 435Q334 435 354 412T375 360Q375 317 330 273Q300 245 266 225T199 194T145 183Q141 183 141 148Q141 103 158 80T206
56Q233 56 254 72T296 108L299 111Q301 111 306 102T312 88Q303 72 280 50T229 11T173 -6ZM152 218Q170 218 195 231T245 265T286 313T303 364Q303 394 278 394Q254 394 231 375T190 327T160 269T148 222Q148 218 152 218ZM217 507Q198 507 189 518T180 546Q180
567 194 587T237 607Q256 607 264 596T273 568Q273 547 259 527T217 507ZM385 507Q366 507 357 518T348 546Q348 567 362 587T405 607Q424 607 432 596T441 568Q441 547 427 527T385 507Z" />
<glyph unicode="&#xec;" glyph-name="igrave" horiz-adv-x="266" d="M201 435Q217 435 226 421T235 383Q235 362 229 330L188 120Q187 114 185 101T182 79Q182 56 192 56Q200 56 211 65T234 85T252 104L258 111Q260 111 265 102T271 88Q263 74 241 52T192 12T145
-6Q129 -6 120 8T111 46Q111 54 112 67T118 99L159 308Q162 324 163 334T164 348Q164 373 154 373Q146 373 130 358T104 332L99 326Q97 326 92 335T86 349Q94 363 115 383T160 419T201 435ZM461 482Q455 482 437 491T395 514T349 545T312 575T297 598Q297 613 313
619T346 626Q361 626 366 621L382 605L410 576Q474 506 474 500Q474 494 470 488T461 482Z" />
<glyph unicode="&#xed;" glyph-name="iacute" horiz-adv-x="266" d="M201 435Q217 435 226 421T235 383Q235 362 229 330L188 120Q187 114 185 101T182 79Q182 56 192 56Q200 56 211 65T234 85T252 104L258 111Q260 111 265 102T271 88Q263 74 241 52T192 12T145
-6Q129 -6 120 8T111 46Q111 54 112 67T118 99L159 308Q162 324 163 334T164 348Q164 373 154 373Q146 373 130 358T104 332L99 326Q97 326 92 335T86 349Q94 363 115 383T160 419T201 435ZM168 494Q166 494 164 498T161 506Q161 509 173 524T203 560T241 600T276
632Q284 637 302 637Q341 637 341 613Q341 604 325 590T285 559T236 528T192 504T168 494Z" />
<glyph unicode="&#xee;" glyph-name="icircumflex" horiz-adv-x="266" d="M201 435Q217 435 226 421T235 383Q235 362 229 330L188 120Q187 114 185 101T182 79Q182 56 192 56Q200 56 211 65T234 85T252 104L258 111Q260 111 265 102T271 88Q263 74 241 52T192
12T145 -6Q129 -6 120 8T111 46Q111 54 112 67T118 99L159 308Q162 324 163 334T164 348Q164 373 154 373Q146 373 130 358T104 332L99 326Q97 326 92 335T86 349Q94 363 115 383T160 419T201 435ZM104 496Q99 496 98 503T98 516L160 567Q198 597 214 618Q223 627
225 627Q228 627 234 618Q246 599 253 588T262 574Q281 549 295 534T310 516Q305 496 297 496Q279 496 211 554Q194 542 171 529T129 506T104 496Z" />
<glyph unicode="&#xef;" glyph-name="idieresis" horiz-adv-x="266" d="M201 435Q217 435 226 421T235 383Q235 362 229 330L188 120Q187 114 185 101T182 79Q182 56 192 56Q200 56 211 65T234 85T252 104L258 111Q260 111 265 102T271 88Q263 74 241 52T192 12T145
-6Q129 -6 120 8T111 46Q111 54 112 67T118 99L159 308Q162 324 163 334T164 348Q164 373 154 373Q146 373 130 358T104 332L99 326Q97 326 92 335T86 349Q94 363 115 383T160 419T201 435ZM266 507Q250 507 241 520T232 551Q232 574 246 590T283 607Q298 607 309
595T320 567Q320 543 305 525T266 507ZM133 507Q117 507 108 520T99 551Q99 574 113 590T150 607Q165 607 176 595T187 567Q187 543 172 525T133 507Z" />
<glyph unicode="&#xf0;" glyph-name="eth" horiz-adv-x="435" d="M210 -7Q138 -7 102 41T66 159Q66 207 82 256T128 346T198 412T285 438Q335 438 353 407Q356 504 296 576L194 509Q179 535 185 541L274 599Q237 635 182 664Q183 670 189 679T200 688Q264 670
314 626L435 705Q451 680 445 674L337 603Q377 558 400 496T424 355Q424 317 416 269T390 173T348 84T288 18T210 -7ZM211 32Q244 32 269 60T310 129T334 214T342 287Q342 308 335 334T312 379T267 398Q234 398 211 372T173 306T151 227T144 163Q144 108 162 70T211
32Z" />
<glyph unicode="&#xf1;" glyph-name="ntilde" horiz-adv-x="489" d="M363 -6Q347 -6 338 8T329 46Q329 54 330 67T336 99L371 264Q375 281 376 294T378 318Q378 361 359 361Q343 361 316 337T258 273T204 182T167 78L150 0Q138 -4 119 -4Q100 -4 85 0L144 308Q148
326 148 336T149 348Q149 373 139 373Q135 373 129 369T114 357Q101 346 93 336T84 326Q82 326 77 335T71 349Q79 363 100 383T145 419T186 435Q202 435 211 421T220 383Q220 362 214 330L196 238Q201 247 212 262T240 300Q262 330 292 361T351 413T400 435Q450
435 450 369Q450 347 447 320T436 260L403 106Q400 94 400 81Q400 56 410 56Q418 56 429 65T452 85T470 104L476 111Q478 111 483 102T489 88Q481 74 459 52T410 12T363 -6ZM397 504Q369 504 331 531Q291 557 264 557Q249 557 227 535Q205 513 203 513Q198 513
198 519Q198 536 211 556T246 592T291 608Q319 608 357 582Q395 555 423 555Q436 555 447 566T467 588T483 599Q487 599 487 590Q487 575 475 555T442 519T397 504Z" />
<glyph unicode="&#xf2;" glyph-name="ograve" horiz-adv-x="412" d="M191 -5Q131 -5 100 34T68 145Q68 197 88 248T140 342T211 409T288 435Q347 435 379 394T412 281Q412 230 392 179T340 87T268 20T191 -5ZM209 36Q234 36 257 57T297 114T325 191T336 273Q336
332 320 363T276 394Q251 394 228 373T185 316T155 239T144 158Q144 100 162 68T209 36ZM304 482Q298 482 280 491T238 514T192 545T155 575T140 598Q140 613 156 619T189 626Q204 626 209 621L225 605L253 576Q317 506 317 500Q317 494 313 488T304 482Z" />
<glyph unicode="&#xf3;" glyph-name="oacute" horiz-adv-x="412" d="M191 -5Q131 -5 100 34T68 145Q68 197 88 248T140 342T211 409T288 435Q347 435 379 394T412 281Q412 230 392 179T340 87T268 20T191 -5ZM209 36Q234 36 257 57T297 114T325 191T336 273Q336
332 320 363T276 394Q251 394 228 373T185 316T155 239T144 158Q144 100 162 68T209 36ZM267 494Q265 494 263 498T260 506Q260 509 272 524T302 560T340 600T375 632Q383 637 401 637Q440 637 440 613Q440 604 424 590T384 559T335 528T291 504T267 494Z" />
<glyph unicode="&#xf4;" glyph-name="ocircumflex" horiz-adv-x="412" d="M191 -5Q131 -5 100 34T68 145Q68 197 88 248T140 342T211 409T288 435Q347 435 379 394T412 281Q412 230 392 179T340 87T268 20T191 -5ZM209 36Q234 36 257 57T297 114T325 191T336 273Q336
332 320 363T276 394Q251 394 228 373T185 316T155 239T144 158Q144 100 162 68T209 36ZM203 496Q198 496 197 503T197 516L259 567Q297 597 313 618Q322 627 324 627Q327 627 333 618Q345 599 352 588T361 574Q380 549 394 534T409 516Q404 496 396 496Q378 496
310 554Q293 542 270 529T228 506T203 496Z" />
<glyph unicode="&#xf5;" glyph-name="otilde" horiz-adv-x="412" d="M191 -5Q131 -5 100 34T68 145Q68 197 88 248T140 342T211 409T288 435Q347 435 379 394T412 281Q412 230 392 179T340 87T268 20T191 -5ZM209 36Q234 36 257 57T297 114T325 191T336 273Q336
332 320 363T276 394Q251 394 228 373T185 316T155 239T144 158Q144 100 162 68T209 36ZM394 504Q366 504 328 531Q288 557 261 557Q246 557 224 535Q202 513 200 513Q195 513 195 519Q195 536 208 556T243 592T288 608Q316 608 354 582Q392 555 420 555Q433 555
444 566T464 588T480 599Q484 599 484 590Q484 575 472 555T439 519T394 504Z" />
<glyph unicode="&#xf6;" glyph-name="odieresis" horiz-adv-x="412" d="M191 -5Q131 -5 100 34T68 145Q68 197 88 248T140 342T211 409T288 435Q347 435 379 394T412 281Q412 230 392 179T340 87T268 20T191 -5ZM209 36Q234 36 257 57T297 114T325 191T336 273Q336
332 320 363T276 394Q251 394 228 373T185 316T155 239T144 158Q144 100 162 68T209 36ZM221 507Q202 507 193 518T184 546Q184 567 198 587T241 607Q260 607 268 596T277 568Q277 547 263 527T221 507ZM389 507Q370 507 361 518T352 546Q352 567 366 587T409 607Q428
607 436 596T445 568Q445 547 431 527T389 507Z" />
<glyph unicode="&#xf7;" glyph-name="divide" horiz-adv-x="458" d="M256 390Q240 390 231 403T222 434Q222 457 236 473T273 490Q288 490 299 478T310 450Q310 426 295 408T256 390ZM5 215Q0 215 0 224Q0 250 22 278H452Q456 278 456 269Q456 238 435 215H5ZM182
4Q166 4 157 17T148 48Q148 71 162 87T199 104Q214 104 224 92T235 64Q235 40 220 22T182 4Z" />
<glyph unicode="&#xf8;" glyph-name="oslash" horiz-adv-x="413" d="M100 0Q76 12 81 20L103 49Q72 94 72 163Q72 216 90 264T137 351T204 412T281 435Q335 435 370 394L389 419Q412 407 408 400L386 371Q410 328 410 267Q410 214 393 166T345 79T278 18T202 -5Q155
-5 121 27L100 0ZM146 172Q146 139 152 112L325 336Q316 364 300 380T264 397Q239 397 218 377T180 324T155 251T146 172ZM218 34Q243 34 264 54T302 107T327 180T336 259Q336 282 333 302L162 80Q182 34 218 34Z" />
<glyph unicode="&#xf9;" glyph-name="ugrave" horiz-adv-x="472" d="M154 -6Q104 -6 104 60Q104 83 107 110T118 169L148 308Q152 326 152 336T153 348Q153 373 143 373Q139 373 133 369T118 357Q105 346 97 336T88 326Q86 326 81 335T75 349Q83 363 104 383T149
419T190 435Q206 435 215 421T224 383Q224 356 218 330L183 165Q180 151 178 138T176 111Q176 68 195 68Q209 68 233 89T290 153Q319 191 343 245T379 351L396 429Q408 433 427 433Q446 433 461 429L399 106Q396 94 396 81Q396 56 406 56Q414 56 425 65T448 85T466
104L472 111Q474 111 479 102T485 88Q477 74 455 52T406 12T359 -6Q343 -6 334 8T325 46Q325 54 326 67T332 99L350 191Q345 181 335 166T309 129Q289 101 260 70T203 16T154 -6ZM311 482Q305 482 287 491T245 514T199 545T162 575T147 598Q147 613 163 619T196
626Q211 626 216 621L232 605L260 576Q324 506 324 500Q324 494 320 488T311 482Z" />
<glyph unicode="&#xfa;" glyph-name="uacute" horiz-adv-x="472" d="M154 -6Q104 -6 104 60Q104 83 107 110T118 169L148 308Q152 326 152 336T153 348Q153 373 143 373Q139 373 133 369T118 357Q105 346 97 336T88 326Q86 326 81 335T75 349Q83 363 104 383T149
419T190 435Q206 435 215 421T224 383Q224 356 218 330L183 165Q180 151 178 138T176 111Q176 68 195 68Q209 68 233 89T290 153Q319 191 343 245T379 351L396 429Q408 433 427 433Q446 433 461 429L399 106Q396 94 396 81Q396 56 406 56Q414 56 425 65T448 85T466
104L472 111Q474 111 479 102T485 88Q477 74 455 52T406 12T359 -6Q343 -6 334 8T325 46Q325 54 326 67T332 99L350 191Q345 181 335 166T309 129Q289 101 260 70T203 16T154 -6ZM274 494Q272 494 270 498T267 506Q267 509 279 524T309 560T347 600T382 632Q390
637 408 637Q447 637 447 613Q447 604 431 590T391 559T342 528T298 504T274 494Z" />
<glyph unicode="&#xfb;" glyph-name="ucircumflex" horiz-adv-x="472" d="M154 -6Q104 -6 104 60Q104 83 107 110T118 169L148 308Q152 326 152 336T153 348Q153 373 143 373Q139 373 133 369T118 357Q105 346 97 336T88 326Q86 326 81 335T75 349Q83 363 104
383T149 419T190 435Q206 435 215 421T224 383Q224 356 218 330L183 165Q180 151 178 138T176 111Q176 68 195 68Q209 68 233 89T290 153Q319 191 343 245T379 351L396 429Q408 433 427 433Q446 433 461 429L399 106Q396 94 396 81Q396 56 406 56Q414 56 425 65T448
85T466 104L472 111Q474 111 479 102T485 88Q477 74 455 52T406 12T359 -6Q343 -6 334 8T325 46Q325 54 326 67T332 99L350 191Q345 181 335 166T309 129Q289 101 260 70T203 16T154 -6ZM210 496Q205 496 204 503T204 516L266 567Q304 597 320 618Q329 627 331
627Q334 627 340 618Q352 599 359 588T368 574Q387 549 401 534T416 516Q411 496 403 496Q385 496 317 554Q300 542 277 529T235 506T210 496Z" />
<glyph unicode="&#xfc;" glyph-name="udieresis" horiz-adv-x="472" d="M154 -6Q104 -6 104 60Q104 83 107 110T118 169L148 308Q152 326 152 336T153 348Q153 373 143 373Q139 373 133 369T118 357Q105 346 97 336T88 326Q86 326 81 335T75 349Q83 363 104 383T149
419T190 435Q206 435 215 421T224 383Q224 356 218 330L183 165Q180 151 178 138T176 111Q176 68 195 68Q209 68 233 89T290 153Q319 191 343 245T379 351L396 429Q408 433 427 433Q446 433 461 429L399 106Q396 94 396 81Q396 56 406 56Q414 56 425 65T448 85T466
104L472 111Q474 111 479 102T485 88Q477 74 455 52T406 12T359 -6Q343 -6 334 8T325 46Q325 54 326 67T332 99L350 191Q345 181 335 166T309 129Q289 101 260 70T203 16T154 -6ZM228 507Q209 507 200 518T191 546Q191 567 205 587T248 607Q267 607 275 596T284
568Q284 547 270 527T228 507ZM396 507Q377 507 368 518T359 546Q359 567 373 587T416 607Q435 607 443 596T452 568Q452 547 438 527T396 507Z" />
<glyph unicode="&#xfd;" glyph-name="yacute" horiz-adv-x="497" d="M33 -233Q7 -233 -10 -221T-27 -192Q-27 -160 -4 -148Q18 -161 63 -161Q145 -161 207 -72Q230 -37 230 62Q230 116 227 171T218 271T200 345T170 373Q164 373 154 365T133 346T115 326Q113 326
108 335T102 349Q105 357 118 371T150 399T186 424T216 435Q245 435 265 389T292 251Q297 196 299 158T302 90T303 28Q329 60 356 105T401 197T420 285Q420 345 395 392Q408 435 445 435Q489 435 489 356Q489 247 403 104Q360 32 310 -29T208 -136T112 -207T33
-233ZM298 494Q296 494 294 498T291 506Q291 509 303 524T333 560T371 600T406 632Q414 637 432 637Q471 637 471 613Q471 604 455 590T415 559T366 528T322 504T298 494Z" />
<glyph unicode="&#xfe;" glyph-name="thorn" horiz-adv-x="434" d="M-3 -235Q-6 -233 -6 -227Q-6 -211 -2 -206Q25 -206 38 -190Q50 -175 54 -147L186 539Q191 567 193 586T196 616Q195 628 169 631Q142 633 142 634Q142 634 144 640Q144 642 147 649T153 656Q235
665 281 694H283Q286 694 289 688T292 678Q275 648 264 591Q245 495 234 438T221 374Q251 401 279 418T347 435Q393 435 418 396T443 300Q443 232 399 159Q370 111 333 74T258 17T188 -4Q164 -4 148 4L120 -145Q117 -158 117 -173Q117 -191 131 -196Q145 -199 178
-199Q180 -199 180 -205Q180 -219 175 -227H157Q151 -226 147 -226T140 -226Q72 -226 -3 -235ZM207 42Q236 42 264 62T317 117T355 194T369 280Q369 377 307 377Q249 377 211 324L168 103Q164 80 172 61T207 42Z" />
<glyph unicode="&#xff;" glyph-name="ydieresis" horiz-adv-x="497" d="M33 -233Q7 -233 -10 -221T-27 -192Q-27 -160 -4 -148Q18 -161 63 -161Q145 -161 207 -72Q230 -37 230 62Q230 116 227 171T218 271T200 345T170 373Q164 373 154 365T133 346T115 326Q113
326 108 335T102 349Q105 357 118 371T150 399T186 424T216 435Q245 435 265 389T292 251Q297 196 299 158T302 90T303 28Q329 60 356 105T401 197T420 285Q420 345 395 392Q408 435 445 435Q489 435 489 356Q489 247 403 104Q360 32 310 -29T208 -136T112 -207T33
-233ZM252 507Q233 507 224 518T215 546Q215 567 229 587T272 607Q291 607 299 596T308 568Q308 547 294 527T252 507ZM420 507Q401 507 392 518T383 546Q383 567 397 587T440 607Q459 607 467 596T476 568Q476 547 462 527T420 507Z" />
<glyph unicode="&#x2013;" glyph-name="endash" horiz-adv-x="486" d="M70 200Q64 200 64 213Q64 224 71 240T86 262H502Q508 262 508 249Q508 238 501 222T486 200H70Z" />
<glyph unicode="&#x2014;" glyph-name="emdash" horiz-adv-x="993" d="M70 200Q64 200 64 213Q64 224 71 240T86 262H938Q944 262 944 249Q944 238 937 222T922 200H70Z" />
<glyph unicode="&#x2018;" glyph-name="quoteleft" horiz-adv-x="148" d="M141 482Q132 482 123 485Q113 507 122 555Q129 596 162 635Q190 667 216 686T254 706Q265 706 268 688Q230 666 210 640T185 597Q184 584 198 562Q213 539 210 525Q206 507 185 495T141 482Z" />
<glyph unicode="&#x2019;" glyph-name="quoteright" horiz-adv-x="148" d="M129 484Q117 484 114 502Q147 521 169 547T198 593Q200 607 186 629Q171 652 174 665Q178 683 198 695T242 708Q251 708 260 705Q270 684 260 635Q256 614 246 595T220 556Q192 523 166
504T129 484Z" />
<glyph unicode="&#x201a;" glyph-name="quotesinglbase" horiz-adv-x="209" d="M16 -98Q4 -98 1 -80Q34 -61 56 -35T85 11Q86 23 72 47Q57 70 60 83Q64 101 85 113T129 126Q138 126 147 123Q157 102 147 53Q143 32 133 13T107 -26Q79 -59 53 -78T16 -98Z" />
<glyph unicode="&#x201c;" glyph-name="quotedblleft" horiz-adv-x="360" d="M275 482Q266 482 257 485Q247 507 256 555Q263 596 296 635Q324 667 350 686T388 706Q399 706 402 688Q364 666 344 640T319 597Q318 584 332 562Q347 539 344 525Q340 507 319 495T275
482ZM141 482Q132 482 123 485Q113 507 122 555Q129 596 162 635Q190 667 216 686T254 706Q265 706 268 688Q230 666 210 640T185 597Q184 584 198 562Q213 539 210 525Q206 507 185 495T141 482Z" />
<glyph unicode="&#x201d;" glyph-name="quotedblright" horiz-adv-x="361" d="M262 484Q250 484 247 502Q280 521 302 547T331 593Q333 607 319 629Q304 652 307 665Q311 683 331 695T375 708Q384 708 393 705Q403 684 393 635Q389 614 379 595T353 556Q325 523
299 504T262 484ZM129 484Q117 484 114 502Q147 521 169 547T198 593Q200 607 186 629Q171 652 174 665Q178 683 198 695T242 708Q251 708 260 705Q270 684 260 635Q256 614 246 595T220 556Q192 523 166 504T129 484Z" />
<glyph unicode="&#x201e;" glyph-name="quotedblbase" horiz-adv-x="209" d="M271 -98Q259 -98 256 -80Q289 -61 311 -35T340 11Q341 23 327 47Q312 70 315 83Q319 101 340 113T384 126Q393 126 402 123Q412 102 402 53Q398 32 388 13T362 -26Q334 -59 308 -78T271
-98ZM148 -98Q136 -98 133 -80Q166 -61 188 -35T217 11Q218 23 204 47Q189 70 192 83Q196 101 217 113T261 126Q270 126 279 123Q289 102 279 53Q275 32 265 13T239 -26Q211 -59 185 -78T148 -98Z" />
<glyph unicode="&#x2022;" glyph-name="bullet" horiz-adv-x="376" d="M136 242Q136 276 154 305T200 353T259 372Q295 372 317 346T340 284Q340 251 322 221T276 173T217 154Q181 154 159 180T136 242Z" />
<glyph unicode="&#x2039;" glyph-name="guilsinglleft" horiz-adv-x="298" d="M252 73Q246 82 224 105T168 161T91 227Q87 230 87 237Q87 255 100 268Q154 299 200 330T278 387T321 423Q340 417 340 407Q340 402 337 398T328 389Q312 373 297 361T269 338Q262
332 246 318T214 288T185 261T170 247L233 157Q240 147 250 134T269 109T277 94Q277 81 258 76L252 73Z" />
<glyph unicode="&#x203a;" glyph-name="guilsinglright" horiz-adv-x="298" d="M76 73Q58 79 58 88Q58 93 61 97T69 108Q71 111 83 120T108 141T126 157L225 247L196 290Q183 308 175 320T161 338Q117 396 117 400Q117 412 143 423Q149 412 171 387T228 330T303
268Q308 260 308 252Q308 232 296 227Q137 129 76 73Z" />
</font>
</defs>
</svg>
