<?xml version="1.0" standalone="no"?>
<!DOCTYPE svg PUBLIC "-//W3C//DTD SVG 1.1//EN" "http://www.w3.org/Graphics/SVG/1.1/DTD/svg11.dtd">
<svg xmlns="http://www.w3.org/2000/svg">
<defs >
<font id="CrimsonText" horiz-adv-x="508" ><font-face
    font-family="Crimson Text"
    units-per-em="1024"
    panose-1="0 0 0 0 0 0 0 0 0 0"
    ascent="972"
    descent="-359"
    alphabetic="0" />
<glyph unicode=" " glyph-name="space" horiz-adv-x="190" />
<glyph unicode="!" glyph-name="exclam" horiz-adv-x="230" d="M85 190Q79 190 79 212Q80 236 83 275T89 360T97 450T104 527T111 575Q117 605 138 623T185 642Q208 642 222 624T230 574Q220 521 122 221Q112 190 85 190ZM57 -10Q29 -10 15 8T0 51Q0 86 25 113T83
140Q106 140 123 125T140 83Q140 59 128 38T97 3T57 -10Z" />
<glyph unicode="&quot;" glyph-name="quotedbl" horiz-adv-x="286" d="M77 434Q71 434 66 437T62 447Q66 489 66 517T64 572T62 636Q64 648 75 662T102 687T135 698Q158 698 164 688Q169 676 163 633Q160 618 153 595T132 541Q119 510 111 487T98 449Q94 434 77
434ZM231 434Q225 434 220 437T216 447Q220 489 220 517T218 572T216 636Q218 648 229 662T256 687T289 698Q312 698 318 688Q323 676 317 633Q314 618 307 595T286 541Q273 510 265 487T252 449Q248 434 231 434Z" />
<glyph unicode="#" glyph-name="numbersign" horiz-adv-x="442" d="M60 16Q33 16 33 21L86 170H15Q8 170 8 176Q8 186 12 200T22 225T33 237H105L134 311H63Q56 311 56 317Q56 327 60 341T70 366T81 378H153L204 524Q207 532 247 532Q269 532 269 526L216 378H293L344
524Q347 532 387 532Q409 532 409 526L356 378H427Q434 378 434 373Q434 364 430 349T421 323T409 311H337L308 237H379Q386 237 386 231Q386 222 382 208T373 182T361 170H289L238 24Q235 16 200 16Q173 16 173 21L226 170H149L98 24Q95 16 60 16ZM168 237H245L274
311H197L168 237Z" />
<glyph unicode="$" glyph-name="dollar" horiz-adv-x="448" d="M122 -69Q120 -74 108 -74Q91 -74 72 -58L92 -4Q52 3 0 15Q2 36 3 57T5 100L4 175Q4 183 28 183Q46 183 52 175Q52 144 68 111T115 60L190 267Q184 272 179 276T168 284Q140 307 117 328T80 374T66
434Q66 479 87 517T144 585T220 630T303 646Q314 646 327 645L345 694Q347 700 358 700Q382 700 398 682L381 635Q399 631 417 627T454 619Q429 448 425 448H411Q402 448 396 451T389 464Q389 487 381 514T354 563L287 381L364 321Q384 306 396 284T409 220Q409
167 388 125T332 52T254 6T165 -10Q155 -10 144 -9L122 -69ZM242 416L244 415L307 591Q301 592 293 592Q261 592 240 575T209 535T199 492Q199 450 242 416ZM272 163Q272 182 261 199T233 232L164 45H168Q194 45 218 59T257 101T272 163Z" />
<glyph unicode="%" glyph-name="percent" horiz-adv-x="627" d="M28 -4Q12 -4 3 1T-6 10L563 632Q577 646 583 646Q612 646 629 629L61 7Q50 -4 28 -4ZM177 337Q122 337 90 373T57 459Q57 505 82 546T147 615T236 642Q289 642 322 607T356 519Q356 473 331 432T266
364T177 337ZM191 375Q212 375 227 392T250 435T263 488T267 535Q267 605 220 605Q197 605 183 586T160 540T149 486T146 444Q146 375 191 375ZM388 1Q333 1 301 37T268 123Q268 169 293 210T358 279T447 306Q500 306 533 271T567 183Q567 137 542 96T477 28T388
1ZM402 38Q425 38 439 56T462 102T474 155T478 198Q478 268 431 268Q408 268 394 250T371 204T360 151T357 108Q357 38 402 38Z" />
<glyph unicode="&amp;" glyph-name="ampersand" horiz-adv-x="649" d="M272 -14Q204 -14 146 12T53 86T17 196Q17 238 36 275T87 341T150 381L123 414Q107 434 104 448T100 479Q100 529 128 563T201 616T294 635Q340 635 374 610T409 543Q409 524 399 505T375
473T349 460Q335 460 335 469Q343 501 343 514Q343 545 323 564T272 584Q228 584 199 549T170 466Q170 426 199 400Q223 407 239 407Q266 407 287 394T309 360Q309 341 289 331T244 320Q206 320 182 341Q137 304 137 204Q137 135 175 88T284 40Q337 40 378 67T444
139T468 237Q468 274 454 301T408 329Q386 329 368 316T349 282Q349 270 360 265T385 254T410 240T421 212Q421 167 378 157Q363 157 345 171T313 208T299 256Q299 293 319 322T373 369T445 386Q485 385 499 385T521 384Q554 384 578 400T603 444Q603 457 594 465T570
474Q557 474 546 463T521 452Q503 452 491 466T479 499Q479 530 501 546Q646 546 646 444Q646 399 618 371T539 342Q536 342 530 342T513 344Q570 293 570 224Q570 175 546 132T479 56T383 5T272 -14Z" />
<glyph unicode="&apos;" glyph-name="quotesingle" horiz-adv-x="132" d="M77 434Q71 434 66 437T62 447Q66 489 66 517T64 572T62 636Q64 648 75 662T102 687T135 698Q158 698 164 688Q169 676 163 633Q160 618 153 595T132 541Q119 510 111 487T98 449Q94 434 77 434Z" />
<glyph unicode="(" glyph-name="parenleft" horiz-adv-x="353" d="M29 200Q29 260 42 319T79 433T131 531Q171 590 215 639T298 718T356 748Q363 748 363 729Q363 721 360 718Q333 700 303 660T243 562T191 435T153 291T139 141Q139 47 159 -24Q178 -92 199 -106Q200
-107 200 -111Q200 -118 195 -127T184 -137Q180 -137 156 -118T102 -58T51 47T29 200Z" />
<glyph unicode=")" glyph-name="parenright" horiz-adv-x="344" d="M319 408Q319 322 291 236T220 84Q181 24 136 -26T53 -106T-7 -137Q-14 -137 -14 -118V-112Q-14 -107 -11 -106Q14 -93 48 -43T117 75Q142 124 163 189T196 327T209 471Q209 561 192 629T149
718Q148 719 148 721Q149 728 154 738T165 748Q183 748 208 721T257 655Q283 612 301 546T319 408Z" />
<glyph unicode="*" glyph-name="asterisk" horiz-adv-x="376" d="M148 301Q136 301 126 311T116 334Q116 356 150 405Q184 452 184 464Q184 480 170 477T136 462T93 439T56 428Q43 428 34 437T24 458Q24 476 38 492T86 508Q94 508 105 507T130 504Q144 502 153
501T166 500Q178 500 183 501T188 510Q188 519 162 556Q135 592 135 616Q135 635 148 650T179 665Q204 665 208 643T212 584V575Q211 565 211 551T213 527T221 516Q232 516 246 534T276 575T309 617T341 635Q368 635 368 602Q368 585 348 570T303 542T257 517T237
492Q237 479 255 472T297 460T339 447T358 424Q358 407 344 393T313 378Q301 378 288 390T263 420T239 449T218 462Q211 462 207 448T202 414T198 374T192 339Q181 301 148 301Z" />
<glyph unicode="+" glyph-name="plus" horiz-adv-x="485" d="M170 12Q159 12 154 15Q150 18 151 21L187 209Q187 214 183 214H12Q8 214 8 232Q8 260 34 286H199Q203 286 203 290Q206 304 210 326T219 377L236 470Q238 476 252 480T283 486T308 488Q320 488 318
479L283 291Q281 286 286 286H459Q463 286 463 268Q463 240 437 214H271Q268 214 267 210L232 30Q232 26 221 22T195 15T170 12Z" />
<glyph unicode="," glyph-name="comma" horiz-adv-x="243" d="M-42 -168Q-58 -156 -58 -134Q-41 -121 -29 -111T-5 -88Q7 -74 15 -53T24 -9Q24 0 16 24Q8 48 8 61Q8 93 34 113T99 134Q124 134 134 126Q135 122 135 115T135 95Q135 30 106 -20Q86 -54 67 -78T22
-122T-42 -168Z" />
<glyph unicode="-" glyph-name="hyphen" horiz-adv-x="330" d="M34 193Q29 193 29 208Q29 216 33 229T43 255T53 267L280 279Q286 279 286 267Q286 260 282 245T271 218T260 204L34 193Z" />
<glyph unicode="." glyph-name="period" horiz-adv-x="202" d="M37 -11Q9 -11 -5 7T-20 50Q-20 85 5 112T63 139Q86 139 103 124T120 82Q120 58 108 37T77 2T37 -11Z" />
<glyph unicode="/" glyph-name="slash" horiz-adv-x="486" d="M4 -35Q0 -35 -5 -34T-11 -28L413 739Q425 761 463 761Q487 761 496 755L72 -12Q69 -18 48 -26T4 -35Z" />
<glyph unicode="0" glyph-name="zero" horiz-adv-x="501" d="M156 -3Q114 -3 84 18T33 73T3 147T-7 228Q-7 298 17 368T81 497T173 590T279 625Q326 625 362 595T418 513T438 395Q438 322 414 252T350 124T259 32T156 -3ZM168 49Q193 49 213 73T251 136T280 223T301
318T314 404T318 466Q318 483 316 509T303 555T270 575Q242 575 218 545T175 466T144 363T124 259T117 177Q117 163 118 142T125 99T140 64T168 49Z" />
<glyph unicode="1" glyph-name="one" horiz-adv-x="311" d="M263 643Q272 643 272 624Q259 596 245 530L167 126Q163 107 162 92T160 66Q160 50 176 40T209 30Q210 30 210 27Q210 9 203 -4Q197 -3 173 -2T123 2T83 4Q69 4 42 2T-10 -1T-42 -4Q-43 -3 -43 3Q-43
30 -35 30Q-27 30 -14 34T12 44T27 56Q31 64 35 78T43 113L109 452Q113 467 113 481Q113 502 100 502Q88 502 29 469Q17 477 20 493Q20 501 24 505Q248 643 263 643Z" />
<glyph unicode="2" glyph-name="two" horiz-adv-x="452" d="M208 559Q186 559 166 548T128 522T99 493T81 474Q75 474 71 482T67 499L71 516Q85 533 107 554T157 596T213 629T268 642Q327 642 363 607T400 511Q400 456 374 404T306 304T217 215T127 140Q106 124
100 117T93 105Q93 102 96 102H242Q259 102 277 106T307 121Q323 138 328 149T340 174Q345 182 363 182Q378 182 383 174Q379 165 371 145T348 92Q334 60 324 37T309 0L166 1Q66 2 15 1T-40 0Q-45 8 -45 19Q-45 23 -45 26T-44 33Q11 86 63 144T157 258T227 365T262
451Q265 468 265 483Q265 517 251 538T208 559Z" />
<glyph unicode="3" glyph-name="three" horiz-adv-x="430" d="M61 -4Q-8 -4 -40 28Q-43 36 -43 56Q-43 78 -28 91T5 104Q25 104 53 76Q81 48 105 48Q140 48 163 68T201 118T221 178T227 228Q227 269 208 294T150 319Q132 319 116 318T83 314Q80 319 80 328Q80
331 82 339T88 359Q131 365 161 383T210 426T237 475T246 518Q246 542 232 557T201 572Q159 572 127 554T75 524Q67 524 67 544Q67 557 70 560Q106 601 152 621T273 642Q307 642 334 620T361 553Q361 501 328 457T250 378Q272 378 296 361T338 315T356 245Q356
196 332 152T265 72T171 17T61 -4Z" />
<glyph unicode="4" glyph-name="four" horiz-adv-x="464" d="M439 646Q444 646 449 643T453 634L378 252Q376 244 385 244H415Q423 244 423 229Q423 221 419 207T411 184L407 174H369Q364 174 362 166L330 4Q306 -5 267 -5Q213 -5 216 8L247 168Q247 173 239 173L16
174Q9 182 9 198Q9 207 12 222L410 630Q426 646 439 646ZM264 253L300 445Q301 452 298 452Q296 452 294 450L106 256Q104 254 104 251Q104 244 109 244H253Q263 247 264 253Z" />
<glyph unicode="5" glyph-name="five" horiz-adv-x="445" d="M99 -4Q30 -4 -2 28Q-5 36 -5 56Q-5 78 10 91T43 104Q63 104 91 76Q119 48 143 48Q175 48 199 67T240 118T262 183Q275 248 252 288T186 328Q166 328 145 325T109 318T90 314Q82 314 76 328L102 406Q116
446 129 485T157 562Q184 638 189 638Q296 638 355 639T426 643Q431 631 427 609Q418 556 402 535H317Q279 535 255 535T221 534Q201 532 198 523L159 412Q198 422 236 422Q284 422 324 397T386 329T398 235Q385 167 341 113T234 27T99 -4Z" />
<glyph unicode="6" glyph-name="six" horiz-adv-x="467" d="M231 344Q231 352 248 359T287 367Q321 367 348 347T392 293T409 218Q409 175 390 135T337 63T264 13T181 -6Q109 -6 64 38T18 161Q18 237 55 309T155 446T296 561T455 645Q460 643 463 632T465 611Q268
527 186 334Q144 235 144 120Q144 46 193 46Q219 46 239 72T271 140T283 224Q283 282 265 300Q253 312 232 318Q231 321 231 344Z" />
<glyph unicode="7" glyph-name="seven" horiz-adv-x="436" d="M41 -11Q30 -11 22 -3T14 14Q14 24 18 28L365 513H145Q98 513 58 434Q54 433 51 433T47 433Q30 433 24 440Q40 482 52 509T75 559T94 603Q99 615 114 615H415Q420 615 435 615T464 617T478 618Q483
618 483 613Q483 606 474 589T444 542L48 -10Q46 -11 41 -11Z" />
<glyph unicode="8" glyph-name="eight" horiz-adv-x="457" d="M131 -6Q62 -6 17 25T-29 121Q-29 241 114 315Q120 318 115 323Q84 358 68 383T52 448Q52 506 83 547T161 610T257 633Q300 633 335 619T391 579T413 514Q413 417 280 341Q275 338 279 334L289 325Q316
301 341 267T366 191Q366 155 347 120T296 57T221 11T131 -6ZM233 383Q237 383 240 386Q293 457 293 524Q293 580 249 580Q222 580 206 560T184 516T177 475Q177 444 190 426T223 388Q228 383 233 383ZM148 46Q178 46 197 64T225 108T234 154Q234 183 213 215T165
270Q158 276 155 277T146 274Q136 267 124 241T104 183T96 122Q96 46 148 46Z" />
<glyph unicode="9" glyph-name="nine" horiz-adv-x="467" d="M233 295Q233 287 216 280T177 272Q144 272 116 292T72 347T55 421Q55 464 74 504T127 576T200 626T283 645Q355 645 400 601T446 478Q446 402 409 330T309 193T168 78T9 -6Q4 -4 1 7T-1 28Q196 112
278 305Q320 404 320 519Q320 593 271 593Q246 593 226 567T193 500T181 415Q181 357 199 339Q211 327 232 321Q233 318 233 295Z" />
<glyph unicode=":" glyph-name="colon" horiz-adv-x="226" d="M67 -10Q39 -10 25 8T10 51Q10 86 35 113T93 140Q116 140 133 125T150 83Q150 59 138 38T107 3T67 -10ZM127 299Q99 299 85 317T70 360Q70 395 95 422T153 449Q176 449 193 434T210 392Q210 368 198
347T167 312T127 299Z" />
<glyph unicode=";" glyph-name="semicolon" horiz-adv-x="262" d="M200 82Q184 94 184 116Q201 129 213 139T237 162Q249 176 257 197T266 241Q266 250 258 274Q250 298 250 311Q250 343 276 363T341 384Q366 384 376 376Q377 372 377 365T377 345Q377 280 348
230Q328 196 309 172T264 128T200 82ZM163 299Q135 299 121 317T106 360Q106 395 131 422T189 449Q212 449 229 434T246 392Q246 368 234 347T203 312T163 299Z" />
<glyph unicode="&lt;" glyph-name="less" horiz-adv-x="427" d="M334 -15L18 177Q5 187 9 217Q12 232 30 241L414 428L419 430Q423 430 423 386L419 364L93 209L359 51L360 45Q360 41 355 26T343 -2T334 -15Z" />
<glyph unicode="=" glyph-name="equal" horiz-adv-x="531" d="M55 251L50 261Q67 323 76 323H494Q499 323 497 318Q495 305 489 290T475 257L469 251H55ZM27 109L23 119Q28 136 32 150T42 176Q43 181 48 181H462Q469 181 469 178V176Q463 146 448 115Q448 114
440 109H27Z" />
<glyph unicode="&gt;" glyph-name="greater" horiz-adv-x="441" d="M4 -15Q2 -15 1 -2T0 27T0 45L4 51L332 209L66 364L65 373Q88 430 92 430L96 428L407 241Q422 232 419 217Q415 188 394 177L9 -13Q3 -15 4 -15Z" />
<glyph unicode="?" glyph-name="question" horiz-adv-x="346" d="M166 195Q154 195 135 204T96 229T64 263T50 300Q50 341 71 366T118 404L219 449Q271 471 271 515Q271 567 222 567Q207 567 185 545Q162 522 147 522Q125 522 113 535T98 569T104 609Q134 646
187 646Q231 646 267 627T326 576T348 500Q348 459 326 420T272 363Q250 350 224 338T169 312Q130 296 130 271Q130 254 155 236Q179 218 179 215Q179 202 166 195ZM63 -10Q35 -10 21 8T6 51Q6 86 31 113T89 140Q112 140 129 125T146 83Q146 59 134 38T103 3T63
-10Z" />
<glyph unicode="@" glyph-name="at" horiz-adv-x="749" d="M291 -171Q219 -171 161 -138T70 -54Q37 -2 24 61T23 185Q41 275 83 347T187 471T321 549T476 577Q542 577 591 549T671 472T712 361T709 233Q692 146 658 92T580 12T492 -13Q445 -13 418 12T396 69Q368
32 326 13T249 -7Q217 -7 196 14T168 70T168 141Q179 194 207 242T277 328T372 388T485 410Q501 410 524 409T562 404L577 401Q572 385 568 372T560 348L501 143Q470 34 512 34Q545 34 568 52T607 98T632 158T647 214Q664 301 647 370T581 479T455 519Q370 519
296 482T170 378T101 223Q81 117 99 39T179 -83T351 -126Q385 -126 418 -113V-122Q415 -141 381 -156Q347 -171 291 -171ZM287 53Q302 53 321 68T360 105T394 149T412 182L454 322Q458 335 457 347T432 359Q406 359 373 332T312 257T271 143Q268 126 265 105T265
69T287 53Z" />
<glyph unicode="A" glyph-name="A" horiz-adv-x="656" d="M-32 -4Q-33 -3 -33 4Q-33 30 -28 30Q-21 30 -3 37T33 53T57 71Q66 85 96 134L392 626Q394 630 398 634T406 645Q422 667 434 667Q443 667 446 659L551 141Q553 128 556 110T565 66Q567 56 578 48T604
35T625 30Q627 30 627 25Q627 4 620 -4L570 -1Q546 1 528 2T498 3Q488 3 454 2T360 -4Q359 -3 359 3Q359 21 364 27T377 34T396 38T415 52Q420 57 421 61T423 69Q423 74 418 108T401 207Q401 211 395 211Q377 212 355 212T304 213Q278 213 257 213T219 212Q216
212 210 210T202 207L157 131Q117 71 128 51T189 30Q191 30 191 26Q191 8 186 -4Q182 -3 161 -2T117 1T86 3Q80 3 64 2T27 0T-9 -2T-32 -4ZM316 273Q335 273 352 273T383 275Q387 275 387 280L355 458L247 280Q246 279 246 278T248 276Q275 273 316 273Z" />
<glyph unicode="B" glyph-name="B" horiz-adv-x="561" d="M-11 -4Q-13 -2 -13 5Q-13 10 -11 20T-5 30Q2 30 14 34T39 43T54 55Q65 75 79 143L152 521Q164 584 162 599Q162 605 152 611T129 623T111 628Q109 628 109 635Q109 655 116 662Q185 659 247 659Q267 659
295 659T351 660T391 661Q445 661 485 642T546 591T568 521Q568 472 543 429T474 357L459 347Q485 340 509 309T533 226Q533 160 497 109T400 29T262 0Q253 0 233 0T188 1T141 1T104 2Q88 2 65 1T22 -2T-11 -4ZM302 371Q360 371 394 410T428 529Q428 571 410 588T355
606Q342 606 321 605T296 590L256 385Q253 371 302 371ZM268 55Q329 55 360 104T392 224Q392 315 300 315Q243 315 240 301L196 76V72Q196 59 218 57T268 55Z" />
<glyph unicode="C" glyph-name="C" horiz-adv-x="587" d="M298 -7Q211 -7 147 27T47 122T11 259Q11 340 43 413T130 544T253 634T391 667Q491 667 598 638Q598 632 597 610T594 562T590 514T588 490Q586 483 578 479T560 475L546 478Q528 611 385 611Q328 611
286 578T214 490T171 371T156 247Q156 157 193 102T305 47Q347 47 388 57T452 83Q457 87 467 100T488 129T506 156T515 168Q541 168 544 155Q543 148 538 132T527 96T514 62T504 44Q447 -7 298 -7Z" />
<glyph unicode="D" glyph-name="D" horiz-adv-x="678" d="M-11 -4Q-13 -2 -13 5Q-13 10 -11 20T-5 30Q2 30 14 34T39 43T54 55Q65 75 79 143L152 521Q164 584 162 599Q162 605 152 611T129 623T111 628Q109 628 109 635Q109 655 116 662Q185 659 247 659H398Q495
659 556 625T646 532T675 404Q675 336 648 265T570 133T446 35T279 -3Q259 -3 227 -2T162 1T108 2Q91 2 68 1T23 -2T-11 -4ZM305 53Q357 53 399 86T470 174T516 292T532 418Q532 471 520 513T479 579T403 603Q320 603 307 587Q299 577 294 562T283 524L208 136Q196
70 202 66Q218 53 305 53Z" />
<glyph unicode="E" glyph-name="E" horiz-adv-x="542" d="M-11 -4Q-13 -2 -13 5Q-13 10 -11 20T-5 30Q2 30 14 34T39 43T54 55Q65 75 79 143L152 521Q164 584 162 599Q162 605 152 611T129 623T111 628Q109 628 109 635Q109 655 116 662Q171 660 214 660T301 660T397
662Q446 663 483 663T548 664Q548 654 548 638T547 594T546 516Q541 511 524 511Q513 511 512 518Q501 556 469 583T400 610H365Q349 610 328 610T302 597Q296 581 292 562T282 519L252 365Q252 364 267 362T291 359H370Q399 359 407 377T428 421Q431 428 444 428Q460
428 463 423L427 234Q423 230 406 230Q395 230 393 238Q394 271 387 285T361 301T307 304Q240 304 238 295L209 141Q205 121 203 107T201 82Q201 58 219 56T262 54H286Q417 54 480 170Q483 176 494 176Q517 176 521 170Q514 157 503 135T478 87T453 38T437 -2Q411
-2 368 -2T266 0Q233 1 192 1T111 2T37 -1Q0 -4 -11 -4Z" />
<glyph unicode="F" glyph-name="F" horiz-adv-x="538" d="M-10 -4Q-12 -2 -12 5Q-12 10 -10 20T-4 30Q3 30 15 34T40 43T55 55Q66 75 80 143L153 521Q165 584 163 599Q163 605 153 611T130 623T112 628Q110 628 110 635Q110 655 117 662Q197 659 248 659Q272 659
312 660T398 661T484 663T548 664Q547 649 547 627T546 573V516Q541 511 524 511Q513 511 512 518Q501 556 469 583T400 610H365Q349 610 329 609T302 597Q294 581 291 562T282 519L252 365Q252 364 267 362T291 359H370Q393 359 400 368Q409 377 428 421Q431 428
444 428Q460 428 463 423L427 234Q423 230 406 230Q395 230 393 238Q392 282 382 292Q370 304 307 304Q240 304 238 295L209 141Q200 96 200 74Q200 55 216 46T252 33T283 30Q287 30 284 14Q281 1 279 -4Q214 0 174 1T120 3Q103 3 79 2T31 -1T-10 -4Z" />
<glyph unicode="G" glyph-name="G" horiz-adv-x="655" d="M303 -8Q219 -8 154 26T52 120T15 254Q15 338 47 412T134 544T257 634T395 667Q495 667 602 638Q602 630 601 608T598 560T595 514T592 490Q589 475 563 475Q559 475 550 478Q540 547 500 579T389 611Q332
611 289 577T217 488T174 370T159 247Q159 161 198 104T315 47Q358 47 401 59L428 188Q434 217 434 239Q434 249 420 255T390 264T363 267Q361 267 361 274Q361 297 368 301L518 295Q535 295 649 301Q649 280 646 272T636 263T616 261T585 251Q568 240 564 223L540
112Q538 100 536 90T534 72Q534 65 522 54T494 34Q410 -8 303 -8Z" />
<glyph unicode="H" glyph-name="H" horiz-adv-x="714" d="M-12 -4Q-13 -3 -13 2Q-13 9 -11 19T-7 30Q4 30 25 36T52 52Q60 65 66 86T77 135L152 523Q161 571 161 596Q161 611 143 619T113 628Q112 628 112 632Q112 656 118 662Q133 661 157 660T204 657T240 656Q258
656 372 662V657Q372 649 370 639T364 628Q359 628 346 624T320 615T305 604Q301 598 296 580T287 545T281 519L254 376Q254 373 275 372T323 370T366 369Q477 369 478 375L506 523Q511 550 513 569T515 600Q515 628 467 628Q465 628 465 634Q465 654 473 662L605
656L726 662V656Q726 647 724 638T717 628Q713 628 700 624T675 615T660 604Q648 581 636 519L562 139Q557 111 554 91T551 59Q551 52 561 45T583 33T602 25Q602 9 594 -4Q590 -4 573 -3T535 -1T496 2T471 3Q455 3 427 2T375 -1T342 -4Q341 -3 341 2Q341 10 342
20T346 30Q357 30 379 37T406 53Q411 61 417 81T430 135L464 304V305Q464 311 354 311Q242 311 240 303L208 139Q203 113 201 93T198 59Q198 53 207 46T228 35T246 30Q248 30 248 25Q248 6 241 -4Q227 -3 202 -2T152 1T114 3Q98 3 71 2T20 -1T-12 -4Z" />
<glyph unicode="I" glyph-name="I" horiz-adv-x="360" d="M-12 -4Q-13 -3 -13 2Q-13 9 -11 19T-7 30Q4 30 25 36T52 52Q60 65 66 86T77 135L152 523Q161 571 161 596Q161 611 143 619T113 628Q112 628 112 632Q112 656 118 662Q133 661 157 660T204 657T240 656Q258
656 372 662V657Q372 649 370 639T364 628Q359 628 346 624T320 615T305 604Q301 598 296 580T287 545T281 519L208 139Q203 113 201 93T198 59Q198 53 207 46T228 35T246 30Q248 30 248 25Q248 6 241 -4Q236 -4 220 -3T184 -1T146 2T121 3Q109 3 82 2T27 -2T-12
-4Z" />
<glyph unicode="J" glyph-name="J" horiz-adv-x="345" d="M-44 -218Q-58 -212 -58 -194Q-58 -182 -56 -176Q-17 -144 11 -103T59 -4T95 135L170 523Q179 571 179 596Q179 611 161 619T131 628Q130 628 130 632Q130 656 136 662Q151 661 174 660T221 657T258 656Q276
656 390 662V657Q390 649 388 639T382 628Q377 628 364 624T338 615T323 604Q319 598 314 580T305 545T299 519L226 143Q201 14 139 -77T-44 -218Z" />
<glyph unicode="K" glyph-name="K" horiz-adv-x="687" d="M-12 -4Q-13 -3 -13 2Q-13 9 -11 19T-7 30Q4 30 25 36T52 52Q60 65 66 86T77 135L152 523Q161 571 161 596Q161 611 143 619T113 628Q112 628 112 632Q112 656 118 662Q133 661 157 660T204 657T240 656Q258
656 372 662V657Q372 649 370 639T364 628Q359 628 346 624T320 615T305 604Q301 598 296 580T287 545T281 519L245 333Q287 360 339 409Q365 433 410 477T520 586Q532 598 532 610Q532 616 522 620T500 627T480 630Q477 630 477 641Q477 655 481 662Q532 659 563
657T605 656L723 662Q723 653 721 642T715 630Q640 623 604 585L391 363Q381 353 381 343Q381 339 384 334L539 112Q572 65 598 48T656 30Q659 30 659 22Q659 10 652 0Q638 -3 609 -3T552 -2T509 2Q475 8 452 27T409 76L245 333L208 139Q203 113 201 93T198 59Q198
53 207 46T228 35T246 30Q248 30 248 25Q248 6 241 -4Q227 -3 202 -2T152 1T114 3Q98 3 71 2T20 -1T-12 -4Z" />
<glyph unicode="L" glyph-name="L" horiz-adv-x="522" d="M-11 -4Q-13 2 -13 5Q-13 11 -11 20T-6 30Q1 30 14 34T41 44T56 56Q66 78 77 135L152 523Q161 571 161 596Q161 611 143 619T113 628Q112 628 112 632Q112 656 118 662Q133 661 157 660T204 657T240 656Q258
656 372 662V657Q372 649 370 639T364 628Q359 628 346 624T320 615T305 604Q301 598 296 580T287 545T281 519L208 139Q204 118 202 94T211 60Q215 56 231 55T286 54Q417 54 480 170Q483 176 494 176Q517 176 521 170Q514 157 503 135T478 87T453 38T437 -2Q411
-2 370 -2T272 0Q216 1 178 1T120 2Q96 2 64 1T10 -2L-11 -4Z" />
<glyph unicode="M" glyph-name="M" horiz-adv-x="861" d="M-11 -4Q-14 2 -12 16T-6 30Q6 30 29 36T73 54T98 80L104 101L225 566Q229 582 230 591T232 602Q232 611 220 616T193 625T166 628Q165 628 165 635Q165 654 173 662Q215 660 241 659T279 658Q290 658
315 659T378 662Q381 632 393 570Q399 538 407 492T424 397T442 303T456 230Q456 229 458 229Q460 229 460 231L627 546L681 662Q697 660 721 659T776 658Q787 658 811 659T873 662Q873 628 866 628Q833 628 818 611Q802 592 794 524Q785 447 777 369T763 224T753
116T749 68Q749 55 759 47T781 34T802 30Q804 30 804 25Q804 4 797 -4L748 -1Q726 1 709 2T679 3Q666 3 648 2T603 -1L544 -4Q542 2 542 7Q542 12 544 21T549 30Q556 30 569 34T595 45T612 58Q622 75 624 91T631 145L658 402Q659 411 659 423T660 450Q660 461 656
461Q654 461 650 454L420 31Q415 22 402 10T377 -2L369 0L276 480Q275 484 273 484Q271 484 269 479Q224 318 199 222T166 93Q163 78 163 70Q163 61 180 52T218 37T246 30Q248 30 248 24Q248 5 242 -4Q228 -3 203 -2T152 1T114 3Q98 3 71 2T21 -1T-11 -4Z" />
<glyph unicode="N" glyph-name="N" horiz-adv-x="713" d="M550 -5Q538 -5 525 18L248 524L174 141Q170 121 168 108T166 86Q166 66 182 54T217 36T246 30Q248 30 248 25Q248 8 242 -4Q228 -3 203 -2T153 1T115 3Q99 3 72 2T21 -1T-11 -4Q-14 2 -12 16T-7 30Q5
30 24 34T62 47T92 71Q99 79 104 97T115 144L191 537Q197 569 197 596Q197 606 184 613T153 624T124 628Q121 628 121 636Q121 658 128 662Q181 660 211 659T252 657Q279 657 302 658T345 662Q354 628 388 564Q412 519 443 463T505 351T559 251Q560 254 562 264T569
292L613 524Q624 580 604 604T539 628Q537 628 537 635Q537 656 543 662Q596 660 628 659T673 657Q689 657 720 658T797 662Q797 628 789 628Q779 628 762 624T727 612T698 592Q681 575 671 519L597 139Q593 119 588 84T574 -1Q570 -5 550 -5Z" />
<glyph unicode="O" glyph-name="O" horiz-adv-x="649" d="M275 -10Q205 -10 151 24T66 119T35 256Q35 333 65 406T147 538T266 632T406 667Q477 667 531 633T616 538T647 400Q647 325 617 252T535 120T416 26T275 -10ZM297 46Q340 46 374 73T432 144T473 240T496
344T504 435Q504 611 382 611Q342 611 306 583T241 504T196 386T180 238Q180 186 191 143T228 73T297 46Z" />
<glyph unicode="P" glyph-name="P" horiz-adv-x="525" d="M-12 -4Q-13 -1 -13 3T-13 12Q-10 30 -7 30Q42 30 54 55Q64 74 76 135L152 523Q156 542 158 560T160 595Q160 605 151 612T130 623T112 628Q110 628 110 633Q110 640 113 650T118 662Q171 660 202 659T245
657Q277 657 311 660T377 662Q463 661 510 626T558 510Q558 452 529 400T449 314T328 281Q307 281 290 287T264 302Q263 303 263 309Q263 316 266 323T272 331Q278 331 288 330T304 328Q361 328 389 382T417 520Q417 554 400 580T344 607Q323 607 310 603T294 588L208
141Q203 115 201 98T199 74Q199 55 215 46T252 33T282 30Q286 30 283 14Q280 1 278 -4Q214 0 177 1T129 3Q116 3 97 2T49 -1L-12 -4Z" />
<glyph unicode="Q" glyph-name="Q" horiz-adv-x="693" d="M567 -200Q503 -200 426 -177Q389 -166 342 -150T245 -116T145 -82T55 -56Q55 -52 63 -41T77 -27Q110 -20 150 -15T238 -7Q178 2 132 38T61 130T35 256Q35 333 65 406T147 538T266 632T406 667Q477 667
531 633T616 538T647 400Q647 304 612 230T522 103T404 18T285 -27Q298 -29 336 -40T436 -73Q562 -114 629 -114Q666 -114 703 -98T760 -65Q766 -66 775 -72T785 -85Q775 -99 752 -118T698 -156T633 -187T567 -200ZM301 46Q350 46 384 74T442 147T479 246T498 349T504
435Q504 611 382 611Q342 611 306 583T241 504T196 386T180 238Q180 186 191 143T229 73T301 46Z" />
<glyph unicode="R" glyph-name="R" horiz-adv-x="632" d="M568 -6Q513 -6 461 15T380 91Q374 101 361 128T333 188T304 246T283 279Q269 293 251 293Q238 293 235 277L208 139Q203 113 201 93T198 59Q198 53 207 46T228 35T246 30Q248 30 248 25Q248 6 241 -4Q227
-3 202 -2T152 1T114 3Q98 3 71 2T20 -1T-12 -4Q-13 -3 -13 2Q-13 9 -11 19T-7 30Q4 30 25 36T52 52Q60 65 66 86T77 135L153 523Q158 549 160 566T162 594Q162 609 144 618T113 628Q111 628 111 633Q111 640 114 650T119 662Q172 660 203 659T246 657Q275 657
311 659T377 662Q419 662 462 648T534 602T563 523Q563 482 543 440T489 364T413 317Q408 315 411 307Q434 237 461 183T520 90Q568 29 614 29Q614 10 604 -4Q597 -5 588 -5T568 -6ZM316 348Q337 348 356 367T389 415T411 474T419 525Q419 607 349 607Q336 607
325 606T308 603Q297 598 294 582L254 375Q254 374 254 372T253 368Q253 357 264 353T290 348T316 348Z" />
<glyph unicode="S" glyph-name="S" horiz-adv-x="449" d="M167 -10Q103 -10 2 16Q4 38 5 60T7 104L6 182Q6 190 30 190Q48 190 54 182Q54 152 68 121T108 68T170 47Q196 47 220 62T259 104T274 169Q274 194 257 216T216 258T170 295Q142 319 119 340T82 388T68
450Q68 497 89 537T146 606T222 653T305 670Q340 670 379 660T456 642Q431 465 427 465H413Q404 465 398 468T391 482Q391 508 381 539T349 592T295 614Q263 614 242 597T211 555T201 511Q201 467 244 432L366 333Q386 317 398 295T411 228Q411 173 390 129T334
54T256 7T167 -10Z" />
<glyph unicode="T" glyph-name="T" horiz-adv-x="542" d="M85 -4Q84 -3 84 2Q84 9 86 19T90 30Q101 30 122 36T149 52Q163 76 174 135L244 497Q251 531 254 550T257 577Q257 598 244 602Q229 607 182 607Q144 607 115 585T63 509Q60 504 53 504Q47 504 38 506T28
511L77 674Q116 663 139 663Q168 663 204 662T276 659T341 657Q371 657 407 658T481 661T547 663Q568 663 614 674L599 510Q597 508 587 506T571 503Q563 503 563 508Q561 561 540 584T482 607Q451 607 428 605T400 589Q387 559 375 500L305 139Q300 113 298 93T295
59Q295 53 304 46T325 35T343 30Q345 30 345 25Q345 6 338 -4Q325 -3 300 -2T251 1T213 3Q197 3 170 2T118 -1T85 -4Z" />
<glyph unicode="U" glyph-name="U" horiz-adv-x="644" d="M257 -5Q166 -5 119 36T60 148T67 311L108 522Q115 556 116 575T116 600Q114 606 104 611T82 621T63 625Q60 625 63 642Q66 660 68 662L202 656Q219 656 333 662V644Q330 625 325 625Q320 625 305 621T276
612T260 601Q253 587 248 566T237 516L191 279Q173 187 201 131T295 75Q369 75 420 127T493 286L539 524Q541 535 542 542T544 552L546 568Q547 585 541 596Q537 604 524 610T496 621T474 625Q471 626 471 634T474 652T479 662Q521 658 551 656T600 654Q611 654
627 655T664 658L717 662Q719 655 717 644Q716 639 713 632T708 625Q693 625 667 617T625 592Q608 575 598 519L553 291Q534 194 491 128T388 29T257 -5Z" />
<glyph unicode="V" glyph-name="V" horiz-adv-x="608" d="M242 -10Q227 -10 223 3L131 510L123 551Q120 565 119 575T116 592Q114 604 103 611T78 621T55 625Q52 625 52 634Q52 649 60 662Q171 656 192 656Q232 656 334 662Q335 661 335 656Q335 647 333 636T327
625Q317 625 302 621T274 609T259 589Q256 580 267 523L328 193L523 522Q537 545 545 562T555 590Q558 605 541 615T496 625Q494 625 494 632Q494 650 500 662Q546 660 572 659T606 657L716 662Q717 660 717 656T717 647Q713 626 711 626Q694 626 665 615T614 568L289
27Q279 9 265 0T242 -10Z" />
<glyph unicode="W" glyph-name="W" horiz-adv-x="945" d="M238 -13Q233 -13 231 -8L83 527Q76 553 69 572T55 604Q50 614 33 619T3 625Q0 625 3 644Q6 660 8 662L139 656Q153 656 267 662V657Q267 648 265 637T260 625Q216 625 210 591Q209 584 215 560Q319 192
319 192Q319 192 327 202T348 228T371 258T387 280L409 310L349 527Q331 592 324 600Q306 625 275 625Q272 625 275 644Q278 660 280 662L408 656Q418 656 532 662V656Q532 647 530 636T525 625Q510 625 495 618T476 593Q475 586 481 562L513 447L575 542Q603 585
604 594Q607 607 595 614T567 623T542 626Q540 626 540 637Q540 656 548 662Q592 659 619 657T657 656L775 662Q776 656 774 641T768 626Q754 626 730 616T694 596Q678 580 661 559T625 510L533 372L585 197Q586 197 599 217T634 269T682 339T735 417T783 490T819
544Q842 579 845 594Q847 606 836 613T809 623T785 626Q783 626 783 639Q783 656 791 662Q878 656 901 656Q915 656 937 657T982 659T1018 662Q1018 626 1011 626Q997 626 974 617T940 598Q924 584 907 562T869 510L544 19Q534 4 523 -4T506 -13Q499 -13 497 -8L429
233L276 19Q266 5 255 -4T238 -13Z" />
<glyph unicode="X" glyph-name="X" horiz-adv-x="739" d="M-12 -4L-13 2V10Q-8 33 -5 33Q3 33 21 37T57 49T83 67L314 332L229 537Q201 603 193 610Q177 625 147 625Q146 625 146 637Q146 654 154 662L208 659Q258 656 284 656Q305 656 419 662V654Q419 645 416
635T410 625Q396 625 378 620T357 604Q356 592 360 582L431 414Q447 431 470 456T517 506T558 551T578 573Q587 585 589 594Q591 606 571 615T526 625Q525 625 525 636Q525 654 533 662Q635 656 647 656Q658 656 772 662Q773 661 773 655Q773 646 770 636T764 625Q751
625 722 616T673 586L455 356Q511 225 541 155T577 76Q590 54 613 44T648 33Q650 29 648 22T646 11L640 -4Q529 2 506 2Q495 2 483 2T459 1L358 -4Q357 -3 357 5Q357 13 360 23T367 33Q375 33 388 36T412 46T424 61Q426 66 424 72L341 269Q320 244 292 212T237
149T188 91Q180 81 176 75T171 66Q168 51 189 42T234 33Q237 33 234 12Q233 8 232 4T229 -4Q184 -1 154 1T108 2L-12 -4Z" />
<glyph unicode="Y" glyph-name="Y" horiz-adv-x="641" d="M91 -4Q88 1 90 12Q93 33 97 33Q104 33 118 37T146 47T163 58Q168 72 174 92T186 139L219 309Q220 315 202 373Q193 402 184 429T165 483L147 537Q128 596 111 610Q102 616 88 620T64 625Q62 625 62 634Q62
641 65 650T72 662L126 659Q174 656 202 656Q221 656 335 662Q336 661 336 653Q336 644 333 635Q330 625 328 625Q314 625 295 620T274 604Q273 594 277 582L340 403Q410 492 446 542T485 603Q486 613 473 619Q458 625 430 625Q428 625 428 634Q428 654 436 662Q520
656 548 656Q573 656 654 662Q654 647 653 644Q650 626 646 626Q629 626 606 617T566 590Q554 577 529 546T473 475T415 399T368 336T348 304L317 145Q307 93 308 58Q308 54 318 48T342 38T360 33Q363 33 360 14Q357 1 355 -4Q351 -4 338 -3T300 0Q275 2 257 3T227
4Q211 4 182 2T126 -1T91 -4Z" />
<glyph unicode="Z" glyph-name="Z" horiz-adv-x="615" d="M-8 0Q-16 12 -11 26Q-10 32 -8 36T-4 43L447 599H288Q243 599 217 586T175 549T141 495L135 484Q132 478 122 478Q95 478 92 482Q136 595 155 662Q176 656 304 656H406Q449 656 503 658T623 666Q626 665
627 653T626 633Q624 627 514 492L180 82Q172 72 170 67Q169 57 181 57H329Q394 57 442 91T516 174Q519 180 529 180Q553 180 557 174Q545 149 529 118T497 55T473 0H-8Z" />
<glyph unicode="[" glyph-name="bracketleft" horiz-adv-x="391" d="M218 -133Q157 -122 105 -116T10 -110Q-4 -110 -4 -87L159 747Q160 752 165 761T181 770Q232 770 286 776T398 793Q402 793 402 784Q402 759 386 752Q370 744 349 737T308 725T276 720Q268 720
266 711L118 -52Q116 -60 124 -60Q140 -60 170 -69T222 -92Q229 -96 228 -113T218 -133Z" />
<glyph unicode="\" glyph-name="backslash" horiz-adv-x="250" d="M177 -39L155 -37L18 755Q26 761 38 761Q85 761 89 739L216 7Q216 -17 203 -28T177 -39Z" />
<glyph unicode="]" glyph-name="bracketright" horiz-adv-x="385" d="M-12 -133Q-15 -131 -15 -126Q-15 -99 0 -92Q18 -83 39 -76T81 -65T111 -60Q118 -60 120 -52L269 711Q271 720 262 720Q244 720 214 730T164 752Q157 760 160 776T168 793Q221 782 273 776T377
770Q390 770 390 753V747L228 -87Q228 -92 222 -101T206 -110Q163 -110 108 -116T-12 -133Z" />
<glyph unicode="^" glyph-name="asciicircum" horiz-adv-x="352" d="M50 469Q44 469 44 499Q47 506 65 520T102 552Q123 572 152 605T206 677Q209 682 212 686T221 690Q229 690 235 676T248 639T265 595Q268 588 278 573T299 541T319 512T327 500Q325 494 319
482T309 469Q301 469 282 486T240 529T201 582Q177 556 145 530T86 486T50 469Z" />
<glyph unicode="_" glyph-name="underscore" horiz-adv-x="519" d="M27 -45L22 -35Q31 17 45 17H463Q465 17 465 9Q465 -6 450 -39Q449 -45 442 -45H27Z" />
<glyph unicode="`" glyph-name="grave" horiz-adv-x="228" d="M242 497Q233 497 208 508T154 537T104 573T83 603Q83 617 99 632T139 647Q148 647 152 644Q163 634 180 615T214 575T244 538T256 519Q256 514 251 506T242 497Z" />
<glyph unicode="a" glyph-name="a" horiz-adv-x="462" d="M125 -8Q70 -8 39 33T8 140Q8 193 32 247T100 347T201 421T323 449Q355 449 380 442T417 427L364 155Q360 132 359 123T357 105Q357 81 367 81Q377 81 391 91T420 114T440 134Q442 134 450 124T459 110Q453
97 434 77T388 38T334 5T285 -8Q262 -8 247 6T232 46Q232 54 232 61T234 76Q188 -8 125 -8ZM162 68Q184 68 205 100T245 183T274 288L292 378Q285 385 265 385Q235 385 210 357T168 286T141 199T131 124Q131 68 162 68Z" />
<glyph unicode="b" glyph-name="b" horiz-adv-x="444" d="M158 -10Q110 -10 78 23T45 107Q45 131 51 162L125 544Q134 591 134 603Q134 625 85 625Q82 625 82 633Q82 647 91 656Q103 656 125 660T172 670T220 682T256 695Q266 691 266 673Q266 666 262 644T249
584L203 346L207 352Q219 370 236 392T278 432T333 449Q435 449 435 303Q435 237 408 177T339 77Q297 37 249 14T158 -10ZM193 47Q224 47 252 90Q281 132 297 189T313 296Q313 363 283 363Q262 363 239 334T196 260T168 167Q161 139 161 112T168 66T193 47Z" />
<glyph unicode="c" glyph-name="c" horiz-adv-x="371" d="M154 -6Q80 -6 45 37T9 156Q9 231 43 299Q77 367 133 408T252 449Q324 449 364 404Q371 384 371 371Q371 346 358 328T324 310Q305 310 296 322T282 352T268 381T241 394Q220 394 201 370T167 310T144
235T135 169Q135 68 199 68Q219 68 239 78T276 102T300 126Q302 126 310 116T319 102Q313 88 296 70T254 34T204 6T154 -6Z" />
<glyph unicode="d" glyph-name="d" horiz-adv-x="465" d="M122 -8Q68 -8 37 33T5 140Q5 190 27 242T87 339Q125 383 180 415T297 448H302L321 541Q326 568 328 583T330 603Q330 625 281 625Q278 625 278 633Q278 647 287 656Q299 656 321 660T369 670T417 682T452
695Q462 691 462 673Q462 665 459 648T451 614T445 586L360 151Q356 131 355 122T354 105Q354 81 364 81Q374 81 389 91T418 114T437 134Q440 134 448 124T456 110Q451 97 432 77T386 38T331 5T282 -8Q260 -8 245 6T229 46Q229 51 230 61T232 76Q184 -8 122 -8ZM159
68Q181 68 203 99T243 181T272 288L286 360Q288 373 280 379T262 385Q232 385 208 357T165 286T138 199T128 124Q128 68 159 68Z" />
<glyph unicode="e" glyph-name="e" horiz-adv-x="393" d="M154 -6Q82 -6 46 36T9 157Q9 230 43 297Q76 365 132 407T251 449Q303 449 341 424T379 356Q379 320 352 288T285 232T205 193T139 179Q135 179 135 169Q135 110 152 89T199 68Q219 68 239 78T276 102T300
126Q302 126 310 116T319 102Q313 88 296 70T254 34T204 6T154 -6ZM150 229Q182 229 208 249T249 299T265 356Q265 395 241 395Q228 395 212 380T180 341T156 288T146 233Q146 229 150 229Z" />
<glyph unicode="f" glyph-name="f" horiz-adv-x="392" d="M-83 -218Q-119 -218 -144 -206T-173 -179Q-173 -92 -117 -92Q-102 -92 -94 -102T-79 -127T-65 -152T-42 -163Q-6 -163 15 -118T50 2L122 363V365Q122 370 118 370H59Q54 370 54 380Q54 388 62 399T84
420T111 430H128Q134 430 137 446Q152 522 189 578T281 664T401 695Q466 695 494 662Q494 562 435 562Q420 562 412 574T397 601T383 628T360 640Q328 640 299 583Q269 526 251 434V433Q251 429 254 429H369Q379 429 379 414Q379 395 365 370H245Q240 370 238 364L179
60Q164 -18 133 -75T63 -163Q25 -192 -11 -205T-83 -218Z" />
<glyph unicode="g" glyph-name="g" horiz-adv-x="465" d="M151 -218Q105 -218 67 -204T7 -167T-15 -115Q-15 -89 4 -71T50 -43T100 -27Q81 -22 62 -7T43 32Q43 50 78 73T160 116Q74 139 74 247Q74 301 103 347T179 421T283 449Q312 449 345 436T416 422H469Q478
422 478 409Q478 388 468 371H417Q411 371 411 365Q411 360 413 340T415 312Q415 205 321 144Q310 137 287 128T238 108T194 86T176 66Q176 62 195 57T240 47T286 38Q327 30 361 8T395 -48Q395 -74 383 -101T344 -156Q317 -183 267 -200T151 -218ZM226 166Q247
166 261 182T283 225T295 279T299 331Q299 357 289 372T261 388Q242 388 228 371T206 328T193 272T188 217Q188 166 226 166ZM183 -169Q239 -169 262 -148T286 -97Q286 -85 262 -74T204 -55T143 -45Q85 -61 85 -99Q85 -130 107 -149T183 -169Z" />
<glyph unicode="h" glyph-name="h" horiz-adv-x="490" d="M305 -8Q282 -8 267 6T252 49Q252 63 255 82T262 123L285 242Q287 251 291 270T295 300Q295 341 266 341Q254 341 237 317T201 256T169 179T147 105L126 0Q107 -6 70 -6Q35 -6 9 0Q67 297 95 448T124 603Q124
625 75 625Q72 625 72 633Q72 647 81 656Q93 656 115 660T162 670T210 682T246 695Q256 691 256 673Q256 665 253 648T245 612T239 584Q185 307 185 304Q202 339 227 372T279 427T329 449Q373 449 394 418T415 340Q415 328 411 301T399 233L379 128Q377 120 377
105Q377 81 387 81Q397 81 411 91T440 114T460 134Q462 134 470 124T479 110Q473 97 454 77T408 38T354 5T305 -8Z" />
<glyph unicode="i" glyph-name="i" horiz-adv-x="285" d="M184 540Q156 540 142 557T128 598Q128 619 138 639T167 673T212 687Q241 687 254 670T268 629Q268 609 258 588T230 554T184 540ZM176 449Q199 449 214 435T229 392Q229 385 227 369T222 339T218 318L202
233Q192 179 187 154T181 118T180 99Q180 81 190 81Q200 81 215 91T244 114T263 134Q266 134 274 124T282 110Q276 97 257 77T211 38T157 5T108 -8Q86 -8 71 6T55 49Q55 57 57 72T61 103T65 123L102 313Q103 318 103 323T104 336Q104 360 94 360Q85 360 70 350T41
328T21 307Q19 307 11 317T2 331Q8 345 27 364T73 403T127 436T176 449Z" />
<glyph unicode="j" glyph-name="j" horiz-adv-x="292" d="M252 689Q278 689 294 671T310 626Q310 593 287 567T232 541Q207 541 191 559T174 604Q174 637 197 663T252 689ZM207 449Q230 449 245 435T260 392Q260 385 258 369T254 339T250 318L212 120Q185 -22
126 -102Q108 -127 76 -152T13 -194T-38 -218Q-41 -218 -46 -204T-51 -181Q-18 -151 5 -125T43 -68T69 2T92 100L131 301Q133 310 134 321T135 339Q135 360 125 360Q116 360 101 350T72 328T52 307Q50 307 42 317T33 331Q39 345 58 364T104 403T158 436T207 449Z"
/>
<glyph unicode="k" glyph-name="k" horiz-adv-x="462" d="M59 -8Q32 -8 -2 0L103 544Q112 591 112 603Q112 625 63 625Q60 625 60 633Q60 647 69 656Q81 656 103 660T150 670T198 682T234 695Q244 691 244 673Q244 665 241 648T233 612T227 584L182 346Q191 366
208 390T254 431T320 449Q367 449 403 424T440 357Q440 332 424 306T381 257T327 219T276 200Q288 171 305 140T340 88T372 67Q384 67 399 76T428 98T448 119Q450 119 461 109T473 96Q466 78 444 55T393 14T337 -4Q310 -4 286 11T242 49T209 91Q197 111 189 124T175
151T158 183L152 196L114 0Q95 -8 59 -8ZM198 241Q247 241 278 262Q295 274 305 293T315 333Q315 348 305 362T278 376Q259 376 239 362T202 327T175 286T165 253Q165 241 198 241Z" />
<glyph unicode="l" glyph-name="l" horiz-adv-x="295" d="M91 -8Q69 -8 54 6T38 49Q38 60 43 89T52 140L130 544Q139 591 139 603Q139 625 90 625Q87 625 87 633Q87 647 96 656Q108 656 130 660T178 670T226 682T261 695Q271 691 271 673Q271 666 268 648T260
612T254 584L165 128Q164 123 164 118T163 105Q163 81 173 81Q183 81 198 91T227 114T246 134Q249 134 257 124T265 110Q260 97 241 77T195 38T140 5T91 -8Z" />
<glyph unicode="m" glyph-name="m" horiz-adv-x="748" d="M566 -8Q544 -8 529 6T513 49Q513 63 515 82T523 123L546 242Q551 267 553 281T556 300Q558 341 527 341Q515 341 498 317T462 256T430 179T408 105L387 0Q368 -6 328 -6Q290 -6 269 0L317 242Q327 283
327 300Q327 341 297 341Q285 341 268 317T232 256T200 179T178 105L157 0Q138 -6 101 -6Q66 -6 42 0L102 313Q103 318 103 323T104 336Q104 360 94 360Q85 360 70 350T41 328T21 307Q19 307 11 317T2 331Q8 345 27 364T73 403T127 436T176 449Q199 449 214 435T229
392Q229 386 227 370T221 328L217 302Q235 338 260 371T311 427T360 449Q404 449 425 418T446 340Q446 333 446 326T444 308Q462 342 488 374T541 428T590 449Q634 449 655 418T676 340Q676 328 672 301T660 233L640 128Q638 120 638 105Q638 81 648 81Q658 81
673 91T702 114T721 134Q724 134 732 124T740 110Q734 97 715 77T669 38T615 5T566 -8Z" />
<glyph unicode="n" glyph-name="n" horiz-adv-x="519" d="M342 -8Q320 -8 305 6T289 49Q289 63 291 82T299 123L322 242Q327 267 329 281T332 300Q332 341 303 341Q291 341 274 317T238 256T206 179T184 105L163 0Q144 -6 107 -6Q72 -6 48 0L108 313Q109 318 109
323T110 336Q110 360 100 360Q91 360 76 350T47 328T27 307Q25 307 17 317T8 331Q14 345 33 364T79 403T133 436T182 449Q205 449 220 435T235 392Q235 386 233 370T227 328Q227 327 223 302Q241 338 266 371T317 427T366 449Q410 449 431 418T452 340Q452 328
448 301T436 233Q426 179 421 154T415 118T414 99Q414 81 424 81Q434 81 449 91T478 114T497 134Q500 134 508 124T516 110Q510 97 491 77T445 38T391 5T342 -8Z" />
<glyph unicode="o" glyph-name="o" horiz-adv-x="407" d="M156 -6Q78 -6 44 38T9 156Q9 206 27 257T77 352T154 422T250 449Q327 449 362 405T397 287Q397 232 379 180T328 86T251 19T156 -6ZM166 47Q188 47 205 68T235 122T257 194T270 269T273 332Q272 396 240
396Q219 396 202 376T172 323T150 252T137 176T133 110Q135 47 166 47Z" />
<glyph unicode="p" glyph-name="p" horiz-adv-x="444" d="M-68 -221Q-71 -219 -71 -212Q-71 -192 -66 -187Q-31 -186 -17 -169Q-14 -165 -5 -122L59 204L21 173Q10 187 10 202Q10 211 17 218L71 269L105 443Q135 449 163 449Q193 449 221 443L207 379Q225 403
233 410T255 428Q281 449 320 449Q356 449 380 428T418 372T431 299Q431 240 407 183T344 85Q307 45 261 20T173 -6Q150 -6 136 6L112 -116Q111 -123 111 -128T110 -137Q110 -169 132 -173Q147 -177 167 -177Q174 -177 174 -189Q174 -206 170 -211Q128 -211 100
-211T57 -212Q-4 -214 -68 -221ZM182 54Q205 54 227 81T268 149T297 235T308 316Q308 337 298 354T273 372Q250 372 229 349T193 299L155 102Q150 76 156 65T182 54Z" />
<glyph unicode="q" glyph-name="q" horiz-adv-x="416" d="M119 -221Q115 -216 115 -207Q115 -187 120 -187Q141 -187 163 -172T194 -116L230 66Q222 49 205 32T168 3T127 -8Q71 -8 40 31T8 134Q8 194 33 250T102 351T202 422T320 449Q375 449 415 427L314 -96Q311
-114 310 -122T309 -141Q309 -160 319 -168T361 -176Q367 -176 367 -194Q367 -206 363 -211L314 -210Q267 -210 218 -213T119 -221ZM159 69Q176 69 193 88T224 137T250 195T265 246L292 377Q287 385 262 385Q235 385 211 358T169 290T141 205T131 128Q131 69 159
69Z" />
<glyph unicode="r" glyph-name="r" horiz-adv-x="437" d="M109 -6Q80 -6 51 0L111 313Q112 318 112 323T113 336Q113 360 103 360Q94 360 79 350T50 328T30 307Q28 307 20 317T11 331Q17 345 36 364T82 403T136 436T185 449Q208 449 223 435T238 392Q238 377 237
364T233 338L225 294Q254 362 294 405T385 449Q421 449 451 410Q451 371 437 341T390 310Q374 310 355 332Q336 354 320 354Q308 354 289 329T248 264T210 177T184 89L166 0Q138 -6 109 -6Z" />
<glyph unicode="s" glyph-name="s" horiz-adv-x="334" d="M110 -8Q48 -8 10 24Q1 35 1 58Q1 86 12 102T41 118Q58 118 69 107T89 80T108 53T135 41Q154 41 162 51T170 84Q170 105 152 135T108 198T65 264T46 323Q46 360 69 388T130 432T214 449Q277 449 312 420Q323
406 323 383Q323 355 312 339T283 323Q264 323 254 334T235 361T217 388T189 400Q170 400 162 390T154 357Q154 336 172 306T216 243T259 177T278 118Q278 82 255 54T194 9T110 -8Z" />
<glyph unicode="t" glyph-name="t" horiz-adv-x="300" d="M76 -8Q53 -8 38 6T23 49Q23 57 25 72T29 103T33 123L81 370H25Q21 370 21 382Q21 393 25 408T35 429H93L112 527Q113 532 132 535T164 539Q184 541 202 541T231 536L208 429H295Q305 429 305 412Q305
388 293 370H197L153 143Q150 129 149 121T148 105Q148 81 158 81Q168 81 182 91T211 114T231 134Q233 134 241 124T250 110Q244 97 225 77T179 38T125 5T76 -8Z" />
<glyph unicode="u" glyph-name="u" horiz-adv-x="513" d="M151 -8Q107 -8 86 23T65 101Q65 113 69 140T81 208L99 304Q101 314 102 322T103 342Q103 360 93 360Q84 360 69 350T40 328T20 307Q18 307 10 317T1 331Q7 345 26 364T72 403T126 436T175 449Q198 449
213 435T228 392Q228 378 226 360T218 318L195 199Q194 194 192 182T187 158T185 141Q185 100 214 100Q226 100 243 124T279 185T311 262T333 336L354 441Q374 447 410 447Q445 447 469 441L409 128Q408 123 408 118T407 105Q407 81 417 81Q427 81 442 91T471 114T490
134Q493 134 501 124T509 110Q503 97 484 77T438 38T384 5T335 -8Q313 -8 298 6T282 49Q282 57 284 73T290 113Q290 114 294 139Q277 104 252 70T200 14T151 -8Z" />
<glyph unicode="v" glyph-name="v" horiz-adv-x="443" d="M161 -4Q119 -4 91 20T62 89Q62 102 63 115T67 141L101 313Q102 318 102 323T103 336Q103 360 93 360Q84 360 69 350T40 328T20 307Q18 307 10 317T1 331Q7 345 26 364T72 403T126 436T175 449Q198 449
213 435T228 392Q228 378 226 362T220 328L188 165Q185 150 185 128Q185 88 211 88Q233 88 258 109T305 162T341 229T355 288Q355 315 337 340Q319 366 319 390Q319 417 339 433T390 449Q414 449 428 438Q438 422 438 380Q438 336 425 289T388 199T337 119Q294
65 246 31T161 -4Z" />
<glyph unicode="w" glyph-name="w" horiz-adv-x="686" d="M161 -4Q119 -4 91 20T62 89Q62 102 63 115T67 141L101 313Q102 318 102 323T103 336Q103 360 93 360Q84 360 69 350T40 328T20 307Q18 307 10 317T1 331Q7 345 26 364T72 403T126 436T175 449Q198 449
213 435T228 392Q228 378 226 362T220 328L188 165Q185 150 185 128Q185 88 211 88Q268 88 312 165Q317 216 324 266T342 358T369 424T411 449Q442 449 454 431T466 379Q466 328 428 182Q427 175 427 167T426 148Q426 112 432 100Q437 88 454 88Q476 88 501 109T548
162T584 229T598 288Q598 311 580 341Q561 369 561 395Q561 421 582 435T630 449Q658 449 671 438Q681 422 681 380Q681 336 668 289T631 199T580 119Q537 65 489 31T404 -4Q362 -4 334 18T304 83Q225 -4 161 -4Z" />
<glyph unicode="x" glyph-name="x" horiz-adv-x="483" d="M56 -6Q15 -6 -15 12Q-22 23 -22 41Q-22 64 -9 81T31 98Q54 98 64 89T90 80Q112 80 121 97L183 207L147 332Q140 360 123 360Q114 360 99 350T70 328T50 307Q48 307 40 317T31 331Q37 345 56 364T102 403T156
436T205 449Q239 449 261 371L276 318L314 385Q333 418 357 433T409 449Q450 449 480 431Q487 420 487 402Q487 379 474 362T434 345Q414 345 403 354T375 363Q365 363 356 358T339 336L295 251L334 112Q341 84 358 84Q368 84 383 94T412 117T431 137Q434 137 442
127T450 113Q444 100 425 80T379 41T325 8T276 -5Q242 -5 220 74L201 142L151 58Q132 25 107 10T56 -6Z" />
<glyph unicode="y" glyph-name="y" horiz-adv-x="528" d="M45 -218Q19 -218 2 -206T-15 -165Q-15 -139 3 -120Q47 -132 79 -132Q125 -132 150 -118T194 -81Q215 -54 215 8Q215 46 209 99T191 212T162 332Q155 360 138 360Q129 360 114 350T85 328T65 307Q62 307
54 317T46 331Q52 345 70 364T113 403T163 436T208 449Q229 449 243 435T268 399T284 355T295 316Q311 252 319 187T332 66Q340 76 354 100T382 156T407 219T417 273Q417 300 405 334T381 389Q381 412 401 430T446 449Q469 449 485 429T502 362Q502 311 482 250T431
129T367 20T307 -56Q224 -141 159 -179T45 -218Z" />
<glyph unicode="z" glyph-name="z" horiz-adv-x="431" d="M9 -4Q0 -4 -6 5T-13 23L292 337Q273 328 255 328Q228 328 204 339T148 350Q136 350 122 338T95 312T75 299Q69 299 62 307T50 324Q62 352 82 380T125 429T171 449Q215 449 260 438T349 427Q368 427 386
438T424 449Q443 449 443 415L139 108Q148 110 162 114T186 119Q216 119 247 108T309 97Q321 97 335 109T361 134T380 147Q392 147 401 119Q387 91 369 63T327 15T273 -4Q229 -4 185 8T97 20Q70 20 49 8T9 -4Z" />
<glyph unicode="{" glyph-name="braceleft" horiz-adv-x="354" d="M192 -125Q154 -125 117 -104T56 -47T32 31Q32 64 57 139Q82 213 82 235Q82 261 61 274Q47 281 37 283T15 291Q14 295 16 308T23 328Q105 366 112 388Q116 399 117 410T120 433Q121 455 123 495T132
572Q143 627 184 668Q225 710 272 730T362 750Q364 750 364 746Q364 739 361 729T353 717Q336 716 315 702T278 666T255 613Q248 579 246 528Q245 503 243 480T236 434Q230 403 213 374T176 327T137 308Q158 308 174 282T191 217Q191 181 178 142T151 65T137 -6Q137
-41 156 -65T196 -92Q200 -93 200 -101T198 -117T192 -125Z" />
<glyph unicode="|" glyph-name="bar" horiz-adv-x="242" d="M6 -126Q1 -126 -2 -122T-5 -115Q45 152 87 370T165 757Q185 776 224 776Q249 776 248 766L78 -106Q70 -113 47 -119T6 -126Z" />
<glyph unicode="}" glyph-name="braceright" horiz-adv-x="346" d="M-11 -125Q-14 -125 -14 -117T-10 -101T-3 -92Q14 -90 35 -76T73 -37T97 18Q101 35 102 55T105 99Q106 143 114 187Q120 219 136 246T174 291T212 308Q191 308 175 336T158 403Q158 442 186 525Q214
606 214 637Q214 671 195 693T155 717Q151 718 151 726T153 742T159 750Q199 750 236 732T298 680T323 602Q323 568 296 490Q268 412 268 389Q268 363 285 350T334 328Q335 327 335 321Q335 302 327 291Q311 287 289 279T261 266Q238 250 233 215T227 141Q224 88
218 58Q211 22 187 -11T129 -69T59 -110T-11 -125Z" />
<glyph unicode="~" glyph-name="asciitilde" horiz-adv-x="500" d="M337 245Q294 245 232 272Q169 298 126 298Q101 298 79 285T33 254Q29 255 29 269Q29 286 43 302T79 331T124 351T166 359Q208 359 271 333Q333 306 375 306Q401 306 423 320T468 350Q472 349
472 335Q472 313 451 293T399 259T337 245Z" />
<glyph unicode="&#xa0;" glyph-name="uni00A0" horiz-adv-x="190" />
<glyph unicode="&#xa1;" glyph-name="exclamdown" horiz-adv-x="230" d="M174 442Q202 442 216 424T231 381Q231 347 206 320T148 292Q125 292 108 307T91 349Q91 373 103 394T134 429T174 442ZM146 242Q152 242 152 220Q151 196 148 154T141 62T132 -35T124 -119T117
-170Q111 -200 90 -218T43 -237Q20 -237 6 -219T-2 -169Q3 -141 31 -40T109 211Q119 242 146 242Z" />
<glyph unicode="&#xa2;" glyph-name="cent" horiz-adv-x="412" d="M165 -58Q160 -60 147 -61T127 -63Q117 -63 111 -60T106 -54L125 0Q71 13 39 53T7 156Q7 213 30 265T92 359T178 425T273 449Q279 449 284 449L301 496Q313 502 338 502Q345 502 354 499T361 491L343
440Q383 429 405 404Q412 384 412 371Q412 346 399 328T365 310Q345 310 334 325T313 357L210 69Q215 68 220 68Q246 68 268 78T307 102T331 126Q333 126 341 116T350 102Q343 84 317 60T255 17T184 -6L165 -58ZM133 169Q133 145 140 127T159 95L265 394H262Q242
394 220 374T178 320T146 248T133 169Z" />
<glyph unicode="&#xa3;" glyph-name="sterling" horiz-adv-x="489" d="M29 -7Q15 -4 8 4T0 20Q0 23 5 26Q58 68 84 112T119 230Q120 235 121 248T124 276T126 297Q126 301 122 301H50Q47 309 47 319Q47 330 52 344T65 358H124Q127 358 127 362Q126 398 136 447Q154
537 221 589T381 642Q420 642 453 633T494 607Q486 569 469 547T427 524Q412 524 403 533T387 554T372 576T350 585Q262 585 237 449Q233 419 234 361Q234 358 237 358H388Q396 358 396 343Q396 316 381 301H238Q234 301 234 298Q234 290 233 278T227 248Q212 178
144 96Q170 111 225 111Q251 111 290 97Q326 82 343 82Q358 82 373 88T406 113L431 139Q436 139 441 135T446 124Q446 119 445 118Q431 90 409 62T360 14T304 -5Q273 -5 214 10Q153 24 134 24Q112 24 98 21T68 12T29 -7Z" />
<glyph unicode="&#xa4;" glyph-name="currency" horiz-adv-x="475" d="M341 98L308 148Q258 119 204 119Q143 119 102 157L44 108Q42 106 40 106Q32 106 23 123T12 156L69 204Q56 234 56 269Q56 354 120 424L85 476Q84 477 84 479Q84 485 93 493T115 510T138 520L173
467Q224 497 278 497Q336 497 377 462L434 510Q436 512 438 512Q446 512 455 495T465 462L411 416Q426 382 426 346Q426 261 361 190L394 142Q395 141 395 139Q395 134 386 125T365 109T341 98ZM221 164Q255 164 277 203Q300 242 308 285T316 367Q316 452 259 452Q225
452 203 412Q180 372 173 329T165 248Q165 164 221 164Z" />
<glyph unicode="&#xa5;" glyph-name="yen" horiz-adv-x="670" d="M102 -4Q101 -3 101 2Q101 9 103 19T107 30Q114 30 127 34T152 43T167 55Q171 62 176 77T186 114H97Q88 114 88 129Q88 152 100 167H196L206 217H115Q106 217 106 232Q106 251 118 270H216Q219
279 221 291T222 309L152 546Q137 596 111 616Q95 628 66 628Q63 628 63 638Q63 656 71 662Q87 661 113 660T164 657T203 656Q243 656 357 662V657Q357 650 354 639T348 628Q335 628 317 621T299 598Q299 594 305 576L355 430Q357 423 358 421T361 419Q363 419
367 423T373 430Q442 507 473 549T505 604Q505 616 484 622T438 628Q436 628 436 634Q436 656 444 662Q546 656 571 656Q585 656 606 657T649 659T683 662Q683 629 676 629Q670 629 653 624T617 610T590 594Q578 582 551 551T490 481T426 402T373 333T350 292L346
270H444Q452 270 452 256Q452 230 436 217H336L327 167H424Q432 167 432 153Q432 127 416 114H317Q315 99 314 86T312 59Q312 53 321 46T341 35T359 30Q361 30 361 25Q361 7 355 -4Q327 -2 299 0T243 2Q231 2 102 -4Z" />
<glyph unicode="&#xa6;" glyph-name="brokenbar" horiz-adv-x="240" d="M103 377Q98 377 95 381T92 388Q93 401 110 492T163 752Q183 771 222 771Q229 771 237 768T246 760L175 398Q166 391 143 384T103 377ZM5 -126Q0 -126 -3 -122T-6 -115Q-5 -102 12 -12T65
248Q88 268 125 268Q132 268 140 265T148 257L77 -106Q69 -113 46 -119T5 -126Z" />
<glyph unicode="&#xa7;" glyph-name="section" horiz-adv-x="396" d="M107 -41Q75 -41 52 -29T24 -4Q24 7 29 23T44 52T68 65Q85 65 106 41Q126 17 148 17Q173 17 194 31T215 81Q215 103 203 117T176 141T152 156Q139 164 126 173T99 192Q72 210 54 238T35 301Q35
321 43 350T71 410T124 463Q122 469 122 482Q122 535 145 572T208 630T292 651Q323 651 345 639T373 613L372 604Q372 585 363 564T329 543Q317 543 306 555T279 580T241 593Q216 593 200 579T184 537Q184 512 196 497T224 472T249 458L303 425Q329 407 348 380T367
318Q367 287 353 253T318 190T275 148Q276 143 276 138T277 125Q277 71 253 34T191 -22T107 -41ZM264 185Q290 209 290 244Q290 276 271 296T225 333T172 370T135 424Q111 406 111 359Q111 327 130 308T175 274T227 238T264 185Z" />
<glyph unicode="&#xa8;" glyph-name="dieresis" horiz-adv-x="375" d="M377 646Q402 646 418 628T435 584Q435 551 412 525T357 499Q332 499 316 517T299 562Q299 595 322 620T377 646ZM157 646Q182 646 198 628T215 583Q215 550 192 525T137 499Q112 499 96 517T79
561Q79 594 102 620T157 646Z" />
<glyph unicode="&#xa9;" glyph-name="copyright" horiz-adv-x="574" d="M239 69Q179 69 133 97T60 174T34 286Q34 351 60 410T130 515T230 588T346 615Q407 615 453 587T525 510T552 398Q552 334 526 275T456 169T355 96T239 69ZM248 113Q298 113 344 135T428
197T487 285T509 388Q509 441 487 481T427 545T337 569Q287 569 241 547T157 486T98 398T76 295Q76 243 98 202T159 137T248 113ZM262 199Q218 199 190 230T162 309Q162 351 183 390T241 455T321 481Q365 481 408 469Q409 469 409 462Q409 418 404 401Q403 397
396 397Q392 397 384 399Q383 417 368 434T317 451Q291 451 271 430T240 375T228 305Q228 229 286 229Q321 229 339 244Q345 249 354 259T367 273H369Q378 273 381 268Q381 264 376 253T365 232T354 219Q316 199 262 199Z" />
<glyph unicode="&#xaa;" glyph-name="ordfeminine" horiz-adv-x="323" d="M128 242Q89 242 65 269T41 346Q41 383 59 421T108 491T180 542T266 562Q289 562 309 558T337 547L304 367Q301 351 300 344T299 332Q299 323 301 319T313 315Q325 315 336 324T353 342Q355
342 360 335T366 325Q362 316 348 302T314 274T275 251T240 242Q224 242 213 252T202 280Q202 285 202 290T204 301Q171 242 128 242ZM153 301Q169 301 184 322T212 378T232 450L244 513Q239 518 226 518Q205 518 189 498T161 447T143 385T137 334Q137 301 153
301Z" />
<glyph unicode="&#xab;" glyph-name="guillemotleft" horiz-adv-x="499" d="M252 73Q247 81 229 100T186 142T136 189T91 227Q85 230 87 241Q90 258 100 268Q120 280 148 297T203 333T247 364Q266 378 288 396T317 420L321 423Q327 422 338 414T349 398Q347 389
265 319L183 248L236 177Q291 105 290 98Q289 90 274 82T252 73ZM452 73Q447 81 429 100T386 142T336 189T291 227Q285 230 287 241Q290 258 300 268Q320 280 348 297T403 333T447 364Q466 378 488 396T517 420L521 423Q527 422 538 414T549 398Q547 389 465 319L383
248L436 177Q491 105 490 98Q489 90 474 82T452 73Z" />
<glyph unicode="&#xac;" glyph-name="logicalnot" horiz-adv-x="510" d="M381 153Q375 153 370 155T365 163L401 345Q404 356 393 356H31L28 366Q44 427 53 427H471Q482 427 480 416L433 163Q414 153 381 153Z" />
<glyph unicode="&#xae;" glyph-name="registered" horiz-adv-x="568" d="M244 136Q184 136 138 164T65 241T39 353Q39 418 65 477T135 582T235 655T351 682Q412 682 458 654T530 577T557 465Q557 401 531 342T461 236T360 163T244 136ZM253 180Q303 180 349 202T433
264T492 352T514 455Q514 508 492 548T432 612T342 636Q292 636 246 614T162 553T103 465T81 362Q81 310 103 269T164 204T253 180ZM402 272Q357 272 337 291T302 341Q297 352 289 371T279 394Q276 399 271 399Q268 399 266 393Q258 354 255 337T251 314T250 305Q250
298 255 294T267 288Q271 288 271 286Q271 278 267 273L244 275Q222 277 208 277T181 275T151 273V280Q151 288 153 288Q157 288 167 292T179 299Q184 308 186 316T189 332L220 496Q223 510 223 518T224 529Q224 532 216 536T203 540Q202 540 202 544Q202 552 205
555Q223 554 238 554T266 553L321 554Q350 555 374 541T399 497Q399 469 380 442T336 403Q341 388 348 373T363 342Q392 288 417 288Q417 280 414 274Q410 272 402 272ZM290 425Q312 425 323 447T334 495Q334 532 308 532Q294 532 290 518Q282 478 279 461T275
439T274 433Q274 425 290 425Z" />
<glyph unicode="&#xaf;" glyph-name="overscore" horiz-adv-x="270" d="M73 541Q86 599 98 599H329Q336 599 333 589Q325 556 314 538L308 530H76Q69 530 73 541Z" />
<glyph unicode="&#xb0;" glyph-name="degree" horiz-adv-x="215" d="M193 437Q160 437 140 459T119 516Q119 548 135 574T178 617T232 634Q265 634 285 612T306 555Q306 525 290 498T247 454T193 437ZM202 482Q228 482 245 503T263 549Q263 567 253 578T223 590Q197
590 180 569T162 523Q162 505 172 494T202 482Z" />
<glyph unicode="&#xb1;" glyph-name="plusminus" horiz-adv-x="488" d="M252 146Q247 146 241 148T237 155L273 343Q275 348 269 348H98Q94 348 94 366Q94 394 120 420H285Q288 420 289 424Q293 441 296 461T305 511L322 604Q323 610 337 614T369 620T394 622Q406
622 404 613L369 425Q367 420 372 420H545Q549 420 549 402Q549 374 523 348H357Q354 348 353 344L318 164Q317 160 306 156T279 149T252 146ZM39 39Q35 39 35 57Q35 85 61 111H486Q490 111 490 93Q490 65 464 39H39Z" />
<glyph unicode="&#xb2;" glyph-name="uni00B2" horiz-adv-x="274" d="M42 365Q29 380 37 400Q202 547 220 640Q224 661 215 679T183 698Q166 698 148 687T116 664T101 652Q98 652 94 659T90 673Q90 682 93 686Q103 700 123 716T168 744T222 756Q267 756 289 726T302
646Q295 608 266 569T197 496T113 434Q107 428 113 428H219Q232 428 240 432T254 441Q261 449 265 455T279 476Q282 480 286 480Q301 480 304 475L256 365L161 366L42 365Z" />
<glyph unicode="&#xb3;" glyph-name="uni00B3" horiz-adv-x="261" d="M114 356Q68 356 50 376Q49 382 50 394Q52 409 56 414T68 420Q77 420 88 413T112 399T140 392Q179 392 199 421T220 481Q220 508 205 529T158 550H138Q135 558 135 565Q135 573 139 580Q176
588 202 613T228 673Q228 689 220 697T201 706Q181 706 166 697T144 679T135 669Q129 669 123 677T120 690Q140 715 176 735T244 755Q267 755 287 741T308 698Q308 674 294 651T259 610T220 582Q237 582 255 574T287 550T301 509Q301 469 275 434T207 378T114 356Z"
/>
<glyph unicode="&#xb4;" glyph-name="acute" horiz-adv-x="228" d="M81 497Q77 497 72 505T67 519Q67 522 79 538T108 575T143 615T171 644Q176 647 184 647Q207 647 223 632T240 603Q240 591 219 573T169 538T115 509T81 497Z" />
<glyph unicode="&#xb5;" glyph-name="uni00B5" horiz-adv-x="467" d="M67 -227Q13 -227 13 -127Q13 -99 33 -16T95 204Q97 214 100 234T107 274T110 298L135 426Q142 437 159 440T194 441T225 430T234 409Q220 344 191 266L177 223Q167 165 174 127Q181 90 205
90Q267 90 301 204L349 433Q371 448 395 446Q424 444 441 432Q458 420 455 409Q451 385 438 345T403 246L394 223Q379 163 381 120Q383 78 409 78Q424 78 442 89T469 109Q474 109 477 96Q479 88 476 76Q461 43 433 20T379 -4Q349 -3 335 36T324 128Q307 98 286
66T239 13T181 -9Q163 -9 154 8T142 45T139 76Q139 71 134 51T123 5T113 -42Q108 -67 107 -95T108 -149T121 -191Q115 -199 97 -213T67 -227Z" />
<glyph unicode="&#xb6;" glyph-name="paragraph" horiz-adv-x="478" d="M121 -4Q120 1 123 14T129 28Q135 28 146 31T168 40T181 50Q184 56 188 75T202 138T225 256Q227 262 221 262T208 263Q142 263 108 304T73 409Q73 475 101 530T179 619T292 652Q304 652 324
651T365 649T394 648L508 654Q509 653 509 649Q509 642 506 632T499 622Q487 622 468 618T444 604Q441 598 436 572T423 511T410 441T399 380T392 348Q391 346 392 344T396 343L437 352Q439 343 436 333Q431 314 413 304Q408 301 395 297T381 290Q377 271 371 236T358
162T347 94T342 53Q342 45 360 38T388 30Q390 30 390 26Q390 15 387 7T381 -4Q370 -3 343 -2T286 0T233 2Q221 2 199 1T156 -1T121 -4ZM304 327Q312 327 322 330T334 340Q379 577 382 596V597Q382 606 369 606Q354 606 351 594L298 332Q296 327 304 327ZM260 44Q273
44 276 58Q281 81 293 134T321 270Q322 274 318 274Q308 274 293 270Q286 269 284 261L246 55Q245 50 249 47T260 44Z" />
<glyph unicode="&#xb7;" glyph-name="middot" horiz-adv-x="189" d="M78 189Q50 189 36 207T21 250Q21 285 46 312T104 339Q127 339 144 324T161 282Q161 258 149 237T118 202T78 189Z" />
<glyph unicode="&#xb8;" glyph-name="cedilla" horiz-adv-x="193" d="M40 -1H76L54 -32Q61 -31 66 -31T76 -31Q97 -31 110 -45T124 -81Q124 -103 110 -127T67 -167T-2 -183Q-42 -183 -56 -175Q-61 -163 -61 -150Q-61 -140 -54 -132T-39 -124Q-27 -124 -16 -134T13
-145Q37 -145 50 -132T64 -103Q64 -78 43 -78Q24 -78 9 -85Q7 -85 1 -78T-3 -67Q-1 -64 9 -49T28 -19T40 -1Z" />
<glyph unicode="&#xb9;" glyph-name="uni00B9" horiz-adv-x="293" d="M78 365Q76 367 79 380T84 394Q92 394 110 399T134 410Q148 427 151 443L190 642Q196 673 184 673Q179 673 140 656Q137 657 133 663T130 676Q130 683 132 685Q291 761 295 761H296Q299 761
303 753T308 741Q298 718 291 697T279 656L238 444Q233 417 240 408Q244 402 260 398T284 394Q285 394 285 388T285 379Q280 366 279 365Q254 365 229 367T178 370Q153 370 128 368T78 365Z" />
<glyph unicode="&#xba;" glyph-name="ordmasculine" horiz-adv-x="338" d="M169 245Q114 245 90 276T66 358Q66 393 78 429T114 495T168 544T235 563Q289 563 313 532T338 450Q338 399 316 352T255 275T169 245ZM179 294Q196 294 209 314T230 363T243 423T246
473Q245 514 225 514Q209 514 197 495T175 446T162 387T158 334Q160 294 179 294Z" />
<glyph unicode="&#xbb;" glyph-name="guillemotright" horiz-adv-x="494" d="M88 73Q82 74 71 82T60 98Q62 107 144 177L225 248L171 319Q116 391 117 398Q118 406 133 414T155 423L162 414Q180 392 221 350T316 268Q322 258 318 241Q316 230 309 227Q283 211
248 189T177 143T118 101T88 73ZM283 73Q277 74 266 82T255 98Q257 107 339 177L420 248L366 319Q311 391 312 398Q313 406 328 414T350 423L357 414Q375 392 416 350T511 268Q517 258 513 241Q511 230 504 227Q478 211 443 189T372 143T313 101T283 73Z" />
<glyph unicode="&#xbc;" glyph-name="onequarter" horiz-adv-x="660" d="M56 251Q54 253 57 266T62 280Q70 280 88 285T112 296Q126 313 129 329L168 528Q174 559 162 559Q157 559 118 542Q115 543 111 549T108 562Q108 569 110 571Q269 647 273 647H274Q277 647
281 639T286 627Q276 604 269 583T257 542L216 330Q211 303 218 294Q222 288 238 284T262 280Q263 280 263 274T263 265Q258 252 257 251Q232 251 207 253T156 256Q131 256 106 254T56 251ZM206 -13Q198 -14 184 -8T170 6Q170 10 172 12L615 644Q622 646 637 638T652
622Q652 617 651 616Q651 616 540 459T206 -13ZM639 -5Q600 -2 600 1L619 94V95Q619 98 614 98H469Q462 102 466 121L724 386Q733 395 743 395Q748 395 753 394T759 389L714 157Q714 154 718 154H737Q743 154 743 138Q743 114 730 98H706Q704 98 702 93L683 0Q672
-2 661 -3T639 -5ZM625 154Q630 154 631 158L651 259Q651 263 652 264T648 264L548 160Q548 154 551 154H625Z" />
<glyph unicode="&#xbd;" glyph-name="onehalf" horiz-adv-x="748" d="M56 251Q54 253 57 266T62 280Q70 280 88 285T112 296Q126 313 129 329L168 528Q174 559 162 559Q157 559 118 542Q115 543 111 549T108 562Q108 569 110 571Q269 647 273 647H274Q277 647
281 639T286 627Q276 604 269 583T257 542L216 330Q211 303 218 294Q222 288 238 284T262 280Q263 280 263 274T263 265Q258 252 257 251Q232 251 207 253T156 256Q131 256 106 254T56 251ZM206 -13Q198 -14 184 -8T170 6Q170 10 172 12L615 644Q622 646 637 638T652
622Q652 617 651 616Q651 616 540 459T206 -13ZM445 -1Q432 14 440 34Q605 181 623 274Q627 295 618 313T586 332Q569 332 551 321T519 298T504 286Q501 286 497 293T493 307Q493 316 496 320Q506 334 526 350T571 378T625 390Q670 390 692 360T705 280Q698 242
669 203T600 130T516 68Q510 62 516 62H622Q635 62 643 66T657 75Q664 83 668 89T682 110Q685 114 689 114Q704 114 707 109L659 -1L564 0L445 -1Z" />
<glyph unicode="&#xbe;" glyph-name="threequarters" horiz-adv-x="628" d="M92 243Q46 243 28 263Q27 269 28 281Q30 296 34 301T46 307Q55 307 66 300T90 286T118 279Q157 279 177 308T198 368Q198 395 183 416T136 437H116Q113 445 113 452Q113 460 117 467Q154
475 180 500T206 560Q206 576 198 584T179 593Q159 593 144 584T122 566T113 556Q107 556 101 564T98 577Q118 602 154 622T222 642Q245 642 265 628T286 585Q286 561 272 538T237 497T198 469Q215 469 233 461T265 437T279 396Q279 356 253 321T185 265T92 243ZM174
-13Q166 -14 152 -8T138 6Q138 10 140 12L583 644Q590 646 605 638T620 622Q620 617 619 616Q619 616 508 459T174 -13ZM607 -5Q568 -2 568 1L587 94V95Q587 98 582 98H437Q430 102 434 121L692 386Q701 395 711 395Q716 395 721 394T727 389L682 157Q682 154 686
154H705Q711 154 711 138Q711 114 698 98H674Q672 98 670 93L651 0Q640 -2 629 -3T607 -5ZM593 154Q598 154 599 158L619 259Q619 263 620 264T616 264L516 160Q516 154 519 154H593Z" />
<glyph unicode="&#xbf;" glyph-name="questiondown" horiz-adv-x="346" d="M275 450Q303 450 317 432T332 389Q332 355 307 328T249 300Q226 300 209 315T192 357Q192 381 204 402T235 437T275 450ZM172 245Q184 245 203 236T242 211T274 177T288 140Q288 99 267
74T220 36L119 -9Q67 -31 67 -75Q67 -127 116 -127Q131 -127 153 -105Q176 -82 191 -82Q213 -82 225 -95T240 -129T234 -169Q204 -206 151 -206Q108 -206 71 -187T12 -135T-10 -60Q-10 -19 12 20T66 77Q89 90 114 102T169 128Q208 145 208 169Q208 186 183 204Q159
222 159 225Q159 238 172 245Z" />
<glyph unicode="&#xc0;" glyph-name="Agrave" horiz-adv-x="656" d="M-32 -4Q-33 -3 -33 4Q-33 30 -28 30Q-21 30 -3 37T33 53T57 71Q66 85 96 134L392 626Q394 630 398 634T406 645Q422 667 434 667Q443 667 446 659L551 141Q553 128 556 110T565 66Q567 56 578
48T604 35T625 30Q627 30 627 25Q627 4 620 -4L570 -1Q546 1 528 2T498 3Q488 3 454 2T360 -4Q359 -3 359 3Q359 21 364 27T377 34T396 38T415 52Q420 57 421 61T423 69Q423 74 418 108T401 207Q401 211 395 211Q377 212 355 212T304 213Q278 213 257 213T219 212Q216
212 210 210T202 207L157 131Q117 71 128 51T189 30Q191 30 191 26Q191 8 186 -4Q182 -3 161 -2T117 1T86 3Q80 3 64 2T27 0T-9 -2T-32 -4ZM316 273Q335 273 352 273T383 275Q387 275 387 280L355 458L247 280Q246 279 246 278T248 276Q275 273 316 273ZM538 716Q530
716 508 722T457 737T401 757T357 778T339 796Q339 816 362 825T409 834Q429 834 441 826Q449 822 467 809T504 781T538 753T552 735Q552 731 548 724T538 716Z" />
<glyph unicode="&#xc1;" glyph-name="Aacute" horiz-adv-x="656" d="M-32 -4Q-33 -3 -33 4Q-33 30 -28 30Q-21 30 -3 37T33 53T57 71Q66 85 96 134L392 626Q394 630 398 634T406 645Q422 667 434 667Q443 667 446 659L551 141Q553 128 556 110T565 66Q567 56 578
48T604 35T625 30Q627 30 627 25Q627 4 620 -4L570 -1Q546 1 528 2T498 3Q488 3 454 2T360 -4Q359 -3 359 3Q359 21 364 27T377 34T396 38T415 52Q420 57 421 61T423 69Q423 74 418 108T401 207Q401 211 395 211Q377 212 355 212T304 213Q278 213 257 213T219 212Q216
212 210 210T202 207L157 131Q117 71 128 51T189 30Q191 30 191 26Q191 8 186 -4Q182 -3 161 -2T117 1T86 3Q80 3 64 2T27 0T-9 -2T-32 -4ZM316 273Q335 273 352 273T383 275Q387 275 387 280L355 458L247 280Q246 279 246 278T248 276Q275 273 316 273ZM399 715Q394
715 390 722T385 734Q385 738 399 751T432 779T470 808T496 825Q510 833 528 833Q552 833 575 824T598 795Q598 788 581 778T536 757T481 737T430 721T399 715Z" />
<glyph unicode="&#xc2;" glyph-name="Acircumflex" horiz-adv-x="656" d="M-32 -4Q-33 -3 -33 4Q-33 30 -28 30Q-21 30 -3 37T33 53T57 71Q66 85 96 134L392 626Q394 630 398 634T406 645Q422 667 434 667Q443 667 446 659L551 141Q553 128 556 110T565 66Q567
56 578 48T604 35T625 30Q627 30 627 25Q627 4 620 -4L570 -1Q546 1 528 2T498 3Q488 3 454 2T360 -4Q359 -3 359 3Q359 21 364 27T377 34T396 38T415 52Q420 57 421 61T423 69Q423 74 418 108T401 207Q401 211 395 211Q377 212 355 212T304 213Q278 213 257 213T219
212Q216 212 210 210T202 207L157 131Q117 71 128 51T189 30Q191 30 191 26Q191 8 186 -4Q182 -3 161 -2T117 1T86 3Q80 3 64 2T27 0T-9 -2T-32 -4ZM316 273Q335 273 352 273T383 275Q387 275 387 280L355 458L247 280Q246 279 246 278T248 276Q275 273 316 273ZM316
727Q305 727 309 746Q325 756 348 772T401 811Q418 825 432 837T456 859Q467 868 472 868Q476 868 485 859L518 815Q538 791 554 774T582 746Q578 727 567 727Q562 727 541 737T495 763T455 789Q440 780 418 770T374 750T336 734T316 727Z" />
<glyph unicode="&#xc3;" glyph-name="Atilde" horiz-adv-x="656" d="M-32 -4Q-33 -3 -33 4Q-33 30 -28 30Q-21 30 -3 37T33 53T57 71Q66 85 96 134L392 626Q394 630 398 634T406 645Q422 667 434 667Q443 667 446 659L551 141Q553 128 556 110T565 66Q567 56 578
48T604 35T625 30Q627 30 627 25Q627 4 620 -4L570 -1Q546 1 528 2T498 3Q488 3 454 2T360 -4Q359 -3 359 3Q359 21 364 27T377 34T396 38T415 52Q420 57 421 61T423 69Q423 74 418 108T401 207Q401 211 395 211Q377 212 355 212T304 213Q278 213 257 213T219 212Q216
212 210 210T202 207L157 131Q117 71 128 51T189 30Q191 30 191 26Q191 8 186 -4Q182 -3 161 -2T117 1T86 3Q80 3 64 2T27 0T-9 -2T-32 -4ZM316 273Q335 273 352 273T383 275Q387 275 387 280L355 458L247 280Q246 279 246 278T248 276Q275 273 316 273ZM535 729Q499
729 453 763Q407 797 370 797Q352 797 324 769Q293 740 290 740Q283 740 287 762Q291 787 313 812Q358 863 405 863Q442 863 488 829Q534 795 570 795Q587 795 616 824Q643 852 648 852Q656 852 652 830Q648 805 625 779Q583 729 535 729Z" />
<glyph unicode="&#xc4;" glyph-name="Adieresis" horiz-adv-x="656" d="M-32 -4Q-33 -3 -33 4Q-33 30 -28 30Q-21 30 -3 37T33 53T57 71Q66 85 96 134L392 626Q394 630 398 634T406 645Q422 667 434 667Q443 667 446 659L551 141Q553 128 556 110T565 66Q567 56
578 48T604 35T625 30Q627 30 627 25Q627 4 620 -4L570 -1Q546 1 528 2T498 3Q488 3 454 2T360 -4Q359 -3 359 3Q359 21 364 27T377 34T396 38T415 52Q420 57 421 61T423 69Q423 74 418 108T401 207Q401 211 395 211Q377 212 355 212T304 213Q278 213 257 213T219
212Q216 212 210 210T202 207L157 131Q117 71 128 51T189 30Q191 30 191 26Q191 8 186 -4Q182 -3 161 -2T117 1T86 3Q80 3 64 2T27 0T-9 -2T-32 -4ZM316 273Q335 273 352 273T383 275Q387 275 387 280L355 458L247 280Q246 279 246 278T248 276Q275 273 316 273ZM546
724Q518 724 504 741T490 783Q490 804 500 824T529 858T574 872Q603 872 616 855T630 813Q630 793 620 772T592 738T546 724ZM332 724Q304 724 290 741T276 783Q276 804 286 824T315 858T360 872Q389 872 402 855T416 813Q416 793 406 772T378 738T332 724Z" />
<glyph unicode="&#xc5;" glyph-name="Aring" horiz-adv-x="656" d="M-32 -4Q-33 -3 -33 4Q-33 30 -28 30Q-21 30 -3 37T33 53T57 71Q66 85 96 134L392 626Q394 630 398 634T406 645Q422 667 434 667Q443 667 446 659L551 141Q553 128 556 110T565 66Q567 56 578
48T604 35T625 30Q627 30 627 25Q627 4 620 -4L570 -1Q546 1 528 2T498 3Q488 3 454 2T360 -4Q359 -3 359 3Q359 21 364 27T377 34T396 38T415 52Q420 57 421 61T423 69Q423 74 418 108T401 207Q401 211 395 211Q377 212 355 212T304 213Q278 213 257 213T219 212Q216
212 210 210T202 207L157 131Q117 71 128 51T189 30Q191 30 191 26Q191 8 186 -4Q182 -3 161 -2T117 1T86 3Q80 3 64 2T27 0T-9 -2T-32 -4ZM316 273Q335 273 352 273T383 275Q387 275 387 280L355 458L247 280Q246 279 246 278T248 276Q275 273 316 273ZM440 655Q404
655 379 678T354 742Q354 772 370 797T411 837T465 852Q500 852 524 828T549 767Q549 719 518 687T440 655ZM446 701Q469 701 485 718T501 761Q501 781 490 793T459 806Q437 806 420 788T403 747Q403 727 415 714T446 701Z" />
<glyph unicode="&#xc6;" glyph-name="AE" horiz-adv-x="931" d="M-10 -4Q-11 -3 -11 8Q-11 13 -9 21T-5 29Q8 29 35 38T78 67L451 494Q486 535 505 560T527 598Q530 612 522 616T504 622T494 634Q494 640 496 650T500 660L510 659Q521 658 542 658T591 657Q611
657 650 658T748 661Q864 664 915 664Q913 620 912 583T911 516Q906 511 889 511Q878 511 877 518Q871 560 838 585T765 610H714Q655 610 652 597Q648 584 645 565T639 519L623 368V367Q623 359 663 359H712Q756 359 765 365Q777 373 794 421Q797 428 810 428Q826
428 829 423L810 234Q806 230 790 230Q778 230 776 238Q774 254 771 269T762 292Q756 300 736 302T684 304Q618 304 616 295L600 141Q595 94 600 70Q603 54 662 54H687Q752 54 798 80T875 170Q878 176 889 176Q912 176 916 170Q882 95 864 52T842 -2Q816 -2 775
-2T678 0Q622 1 584 2T525 2L394 -4Q391 4 392 13Q393 32 398 32Q405 32 416 35T438 44T451 55Q454 66 457 86T462 130T466 175T469 207Q470 211 463 211Q446 212 425 212T378 213Q347 213 324 213T284 212Q279 212 275 207L207 131Q202 126 190 112T167 84T156
60Q156 46 169 42Q201 30 221 30Q223 30 223 26Q223 17 215 -4Q206 -4 187 -3T147 0T115 2Q103 2 79 1T30 -1T-10 -4ZM407 273Q427 273 444 273T476 275Q479 275 481 280L503 469L338 280Q336 278 337 276Q363 273 407 273Z" />
<glyph unicode="&#xc7;" glyph-name="Ccedilla" horiz-adv-x="587" d="M298 -7Q211 -7 147 27T47 122T11 259Q11 340 43 413T130 544T253 634T391 667Q491 667 598 638Q598 632 597 610T594 562T590 514T588 490Q586 483 578 479T560 475L546 478Q528 611 385
611Q328 611 286 578T214 490T171 371T156 247Q156 157 193 102T305 47Q347 47 388 57T452 83Q457 87 467 100T488 129T506 156T515 168Q541 168 544 155Q543 148 538 132T527 96T514 62T504 44Q447 -7 298 -7ZM271 -1H307L285 -32Q292 -31 297 -31T307 -31Q328
-31 341 -45T355 -81Q355 -103 341 -127T298 -167T229 -183Q189 -183 175 -175Q170 -163 170 -150Q170 -140 177 -132T192 -124Q204 -124 215 -134T244 -145Q268 -145 281 -132T295 -103Q295 -78 274 -78Q255 -78 240 -85Q238 -85 232 -78T228 -67Q230 -64 240
-49T259 -19T271 -1Z" />
<glyph unicode="&#xc8;" glyph-name="Egrave" horiz-adv-x="542" d="M-11 -4Q-13 -2 -13 5Q-13 10 -11 20T-5 30Q2 30 14 34T39 43T54 55Q65 75 79 143L152 521Q164 584 162 599Q162 605 152 611T129 623T111 628Q109 628 109 635Q109 655 116 662Q171 660 214
660T301 660T397 662Q446 663 483 663T548 664Q548 654 548 638T547 594T546 516Q541 511 524 511Q513 511 512 518Q501 556 469 583T400 610H365Q349 610 328 610T302 597Q296 581 292 562T282 519L252 365Q252 364 267 362T291 359H370Q399 359 407 377T428 421Q431
428 444 428Q460 428 463 423L427 234Q423 230 406 230Q395 230 393 238Q394 271 387 285T361 301T307 304Q240 304 238 295L209 141Q205 121 203 107T201 82Q201 58 219 56T262 54H286Q417 54 480 170Q483 176 494 176Q517 176 521 170Q514 157 503 135T478 87T453
38T437 -2Q411 -2 368 -2T266 0Q233 1 192 1T111 2T37 -1Q0 -4 -11 -4ZM457 716Q449 716 427 722T376 737T320 757T276 778T258 796Q258 816 281 825T328 834Q348 834 360 826Q368 822 386 809T423 781T457 753T471 735Q471 731 467 724T457 716Z" />
<glyph unicode="&#xc9;" glyph-name="Eacute" horiz-adv-x="542" d="M-11 -4Q-13 -2 -13 5Q-13 10 -11 20T-5 30Q2 30 14 34T39 43T54 55Q65 75 79 143L152 521Q164 584 162 599Q162 605 152 611T129 623T111 628Q109 628 109 635Q109 655 116 662Q171 660 214
660T301 660T397 662Q446 663 483 663T548 664Q548 654 548 638T547 594T546 516Q541 511 524 511Q513 511 512 518Q501 556 469 583T400 610H365Q349 610 328 610T302 597Q296 581 292 562T282 519L252 365Q252 364 267 362T291 359H370Q399 359 407 377T428 421Q431
428 444 428Q460 428 463 423L427 234Q423 230 406 230Q395 230 393 238Q394 271 387 285T361 301T307 304Q240 304 238 295L209 141Q205 121 203 107T201 82Q201 58 219 56T262 54H286Q417 54 480 170Q483 176 494 176Q517 176 521 170Q514 157 503 135T478 87T453
38T437 -2Q411 -2 368 -2T266 0Q233 1 192 1T111 2T37 -1Q0 -4 -11 -4ZM318 715Q313 715 309 722T304 734Q304 738 318 751T351 779T389 808T415 825Q429 833 447 833Q471 833 494 824T517 795Q517 788 500 778T455 757T400 737T349 721T318 715Z" />
<glyph unicode="&#xca;" glyph-name="Ecircumflex" horiz-adv-x="542" d="M-11 -4Q-13 -2 -13 5Q-13 10 -11 20T-5 30Q2 30 14 34T39 43T54 55Q65 75 79 143L152 521Q164 584 162 599Q162 605 152 611T129 623T111 628Q109 628 109 635Q109 655 116 662Q171 660
214 660T301 660T397 662Q446 663 483 663T548 664Q548 654 548 638T547 594T546 516Q541 511 524 511Q513 511 512 518Q501 556 469 583T400 610H365Q349 610 328 610T302 597Q296 581 292 562T282 519L252 365Q252 364 267 362T291 359H370Q399 359 407 377T428
421Q431 428 444 428Q460 428 463 423L427 234Q423 230 406 230Q395 230 393 238Q394 271 387 285T361 301T307 304Q240 304 238 295L209 141Q205 121 203 107T201 82Q201 58 219 56T262 54H286Q417 54 480 170Q483 176 494 176Q517 176 521 170Q514 157 503 135T478
87T453 38T437 -2Q411 -2 368 -2T266 0Q233 1 192 1T111 2T37 -1Q0 -4 -11 -4ZM235 727Q224 727 228 746Q244 756 267 772T320 811Q337 825 351 837T375 859Q386 868 391 868Q395 868 404 859L437 815Q457 791 473 774T501 746Q497 727 486 727Q481 727 460 737T414
763T374 789Q359 780 337 770T293 750T255 734T235 727Z" />
<glyph unicode="&#xcb;" glyph-name="Edieresis" horiz-adv-x="542" d="M-11 -4Q-13 -2 -13 5Q-13 10 -11 20T-5 30Q2 30 14 34T39 43T54 55Q65 75 79 143L152 521Q164 584 162 599Q162 605 152 611T129 623T111 628Q109 628 109 635Q109 655 116 662Q171 660
214 660T301 660T397 662Q446 663 483 663T548 664Q548 654 548 638T547 594T546 516Q541 511 524 511Q513 511 512 518Q501 556 469 583T400 610H365Q349 610 328 610T302 597Q296 581 292 562T282 519L252 365Q252 364 267 362T291 359H370Q399 359 407 377T428
421Q431 428 444 428Q460 428 463 423L427 234Q423 230 406 230Q395 230 393 238Q394 271 387 285T361 301T307 304Q240 304 238 295L209 141Q205 121 203 107T201 82Q201 58 219 56T262 54H286Q417 54 480 170Q483 176 494 176Q517 176 521 170Q514 157 503 135T478
87T453 38T437 -2Q411 -2 368 -2T266 0Q233 1 192 1T111 2T37 -1Q0 -4 -11 -4ZM465 724Q437 724 423 741T409 783Q409 804 419 824T448 858T493 872Q522 872 535 855T549 813Q549 793 539 772T511 738T465 724ZM251 724Q223 724 209 741T195 783Q195 804 205 824T234
858T279 872Q308 872 321 855T335 813Q335 793 325 772T297 738T251 724Z" />
<glyph unicode="&#xcc;" glyph-name="Igrave" horiz-adv-x="360" d="M-12 -4Q-13 -3 -13 2Q-13 9 -11 19T-7 30Q4 30 25 36T52 52Q60 65 66 86T77 135L152 523Q161 571 161 596Q161 611 143 619T113 628Q112 628 112 632Q112 656 118 662Q133 661 157 660T204
657T240 656Q258 656 372 662V657Q372 649 370 639T364 628Q359 628 346 624T320 615T305 604Q301 598 296 580T287 545T281 519L208 139Q203 113 201 93T198 59Q198 53 207 46T228 35T246 30Q248 30 248 25Q248 6 241 -4Q236 -4 220 -3T184 -1T146 2T121 3Q109
3 82 2T27 -2T-12 -4ZM350 716Q342 716 320 722T269 737T213 757T169 778T151 796Q151 816 174 825T221 834Q241 834 253 826Q261 822 279 809T316 781T350 753T364 735Q364 731 360 724T350 716Z" />
<glyph unicode="&#xcd;" glyph-name="Iacute" horiz-adv-x="360" d="M-12 -4Q-13 -3 -13 2Q-13 9 -11 19T-7 30Q4 30 25 36T52 52Q60 65 66 86T77 135L152 523Q161 571 161 596Q161 611 143 619T113 628Q112 628 112 632Q112 656 118 662Q133 661 157 660T204
657T240 656Q258 656 372 662V657Q372 649 370 639T364 628Q359 628 346 624T320 615T305 604Q301 598 296 580T287 545T281 519L208 139Q203 113 201 93T198 59Q198 53 207 46T228 35T246 30Q248 30 248 25Q248 6 241 -4Q236 -4 220 -3T184 -1T146 2T121 3Q109
3 82 2T27 -2T-12 -4ZM211 715Q206 715 202 722T197 734Q197 738 211 751T244 779T282 808T308 825Q322 833 340 833Q364 833 387 824T410 795Q410 788 393 778T348 757T293 737T242 721T211 715Z" />
<glyph unicode="&#xce;" glyph-name="Icircumflex" horiz-adv-x="360" d="M-12 -4Q-13 -3 -13 2Q-13 9 -11 19T-7 30Q4 30 25 36T52 52Q60 65 66 86T77 135L152 523Q161 571 161 596Q161 611 143 619T113 628Q112 628 112 632Q112 656 118 662Q133 661 157 660T204
657T240 656Q258 656 372 662V657Q372 649 370 639T364 628Q359 628 346 624T320 615T305 604Q301 598 296 580T287 545T281 519L208 139Q203 113 201 93T198 59Q198 53 207 46T228 35T246 30Q248 30 248 25Q248 6 241 -4Q236 -4 220 -3T184 -1T146 2T121 3Q109
3 82 2T27 -2T-12 -4ZM128 727Q117 727 121 746Q137 756 160 772T213 811Q230 825 244 837T268 859Q279 868 284 868Q288 868 297 859L330 815Q350 791 366 774T394 746Q390 727 379 727Q374 727 353 737T307 763T267 789Q252 780 230 770T186 750T148 734T128
727Z" />
<glyph unicode="&#xcf;" glyph-name="Idieresis" horiz-adv-x="360" d="M-12 -4Q-13 -3 -13 2Q-13 9 -11 19T-7 30Q4 30 25 36T52 52Q60 65 66 86T77 135L152 523Q161 571 161 596Q161 611 143 619T113 628Q112 628 112 632Q112 656 118 662Q133 661 157 660T204
657T240 656Q258 656 372 662V657Q372 649 370 639T364 628Q359 628 346 624T320 615T305 604Q301 598 296 580T287 545T281 519L208 139Q203 113 201 93T198 59Q198 53 207 46T228 35T246 30Q248 30 248 25Q248 6 241 -4Q236 -4 220 -3T184 -1T146 2T121 3Q109
3 82 2T27 -2T-12 -4ZM358 724Q330 724 316 741T302 783Q302 804 312 824T341 858T386 872Q415 872 428 855T442 813Q442 793 432 772T404 738T358 724ZM144 724Q116 724 102 741T88 783Q88 804 98 824T127 858T172 872Q201 872 214 855T228 813Q228 793 218 772T190
738T144 724Z" />
<glyph unicode="&#xd0;" glyph-name="Eth" horiz-adv-x="678" d="M-11 -4Q-13 -2 -13 5Q-13 10 -11 20T-5 30Q2 30 14 34T39 43T54 55Q65 75 79 143L105 279H52L49 289Q60 328 67 346Q68 351 74 351H119L152 521Q164 584 162 599Q162 605 152 611T129 623T111
628Q109 628 109 635Q109 655 116 662Q185 659 247 659H398Q495 659 556 625T646 532T675 404Q675 336 648 265T570 133T446 35T279 -3Q259 -3 227 -2T162 1T108 2Q91 2 68 1T23 -2T-11 -4ZM305 53Q357 53 399 86T470 174T516 292T532 418Q532 471 520 513T479
579T403 603Q320 603 307 587Q299 577 294 562T283 524L250 351H384Q391 351 390 344Q385 321 369 285Q368 279 362 279H236L208 136Q196 70 202 66Q218 53 305 53Z" />
<glyph unicode="&#xd1;" glyph-name="Ntilde" horiz-adv-x="713" d="M550 -5Q538 -5 525 18L248 524L174 141Q170 121 168 108T166 86Q166 66 182 54T217 36T246 30Q248 30 248 25Q248 8 242 -4Q228 -3 203 -2T153 1T115 3Q99 3 72 2T21 -1T-11 -4Q-14 2 -12 16T-7
30Q5 30 24 34T62 47T92 71Q99 79 104 97T115 144L191 537Q197 569 197 596Q197 606 184 613T153 624T124 628Q121 628 121 636Q121 658 128 662Q181 660 211 659T252 657Q279 657 302 658T345 662Q354 628 388 564Q412 519 443 463T505 351T559 251Q560 254 562
264T569 292L613 524Q624 580 604 604T539 628Q537 628 537 635Q537 656 543 662Q596 660 628 659T673 657Q689 657 720 658T797 662Q797 628 789 628Q779 628 762 624T727 612T698 592Q681 575 671 519L597 139Q593 119 588 84T574 -1Q570 -5 550 -5ZM565 729Q529
729 483 763Q437 797 400 797Q382 797 354 769Q323 740 320 740Q313 740 317 762Q321 787 343 812Q388 863 435 863Q472 863 518 829Q564 795 600 795Q617 795 646 824Q673 852 678 852Q686 852 682 830Q678 805 655 779Q613 729 565 729Z" />
<glyph unicode="&#xd2;" glyph-name="Ograve" horiz-adv-x="649" d="M275 -10Q205 -10 151 24T66 119T35 256Q35 333 65 406T147 538T266 632T406 667Q477 667 531 633T616 538T647 400Q647 325 617 252T535 120T416 26T275 -10ZM297 46Q340 46 374 73T432 144T473
240T496 344T504 435Q504 611 382 611Q342 611 306 583T241 504T196 386T180 238Q180 186 191 143T228 73T297 46ZM510 716Q502 716 480 722T429 737T373 757T329 778T311 796Q311 816 334 825T381 834Q401 834 413 826Q421 822 439 809T476 781T510 753T524 735Q524
731 520 724T510 716Z" />
<glyph unicode="&#xd3;" glyph-name="Oacute" horiz-adv-x="649" d="M275 -10Q205 -10 151 24T66 119T35 256Q35 333 65 406T147 538T266 632T406 667Q477 667 531 633T616 538T647 400Q647 325 617 252T535 120T416 26T275 -10ZM297 46Q340 46 374 73T432 144T473
240T496 344T504 435Q504 611 382 611Q342 611 306 583T241 504T196 386T180 238Q180 186 191 143T228 73T297 46ZM371 715Q366 715 362 722T357 734Q357 738 371 751T404 779T442 808T468 825Q482 833 500 833Q524 833 547 824T570 795Q570 788 553 778T508 757T453
737T402 721T371 715Z" />
<glyph unicode="&#xd4;" glyph-name="Ocircumflex" horiz-adv-x="649" d="M275 -10Q205 -10 151 24T66 119T35 256Q35 333 65 406T147 538T266 632T406 667Q477 667 531 633T616 538T647 400Q647 325 617 252T535 120T416 26T275 -10ZM297 46Q340 46 374 73T432
144T473 240T496 344T504 435Q504 611 382 611Q342 611 306 583T241 504T196 386T180 238Q180 186 191 143T228 73T297 46ZM288 727Q277 727 281 746Q297 756 320 772T373 811Q390 825 404 837T428 859Q439 868 444 868Q448 868 457 859L490 815Q510 791 526 774T554
746Q550 727 539 727Q534 727 513 737T467 763T427 789Q412 780 390 770T346 750T308 734T288 727Z" />
<glyph unicode="&#xd5;" glyph-name="Otilde" horiz-adv-x="649" d="M275 -10Q205 -10 151 24T66 119T35 256Q35 333 65 406T147 538T266 632T406 667Q477 667 531 633T616 538T647 400Q647 325 617 252T535 120T416 26T275 -10ZM297 46Q340 46 374 73T432 144T473
240T496 344T504 435Q504 611 382 611Q342 611 306 583T241 504T196 386T180 238Q180 186 191 143T228 73T297 46ZM507 729Q471 729 425 763Q379 797 342 797Q324 797 296 769Q265 740 262 740Q255 740 259 762Q263 787 285 812Q330 863 377 863Q414 863 460 829Q506
795 542 795Q559 795 588 824Q615 852 620 852Q628 852 624 830Q620 805 597 779Q555 729 507 729Z" />
<glyph unicode="&#xd6;" glyph-name="Odieresis" horiz-adv-x="649" d="M275 -10Q205 -10 151 24T66 119T35 256Q35 333 65 406T147 538T266 632T406 667Q477 667 531 633T616 538T647 400Q647 325 617 252T535 120T416 26T275 -10ZM297 46Q340 46 374 73T432
144T473 240T496 344T504 435Q504 611 382 611Q342 611 306 583T241 504T196 386T180 238Q180 186 191 143T228 73T297 46ZM518 724Q490 724 476 741T462 783Q462 804 472 824T501 858T546 872Q575 872 588 855T602 813Q602 793 592 772T564 738T518 724ZM304 724Q276
724 262 741T248 783Q248 804 258 824T287 858T332 872Q361 872 374 855T388 813Q388 793 378 772T350 738T304 724Z" />
<glyph unicode="&#xd7;" glyph-name="multiply" horiz-adv-x="421" d="M44 54Q40 54 34 64T22 88T17 109L168 243Q170 245 170 246Q170 250 169 251L73 380Q73 387 83 400T104 426T120 438Q125 438 129 434L226 302Q229 298 232 301L383 435Q386 438 389 438Q393
438 399 428T411 404T417 382L270 250Q268 248 269 245L364 112Q364 104 353 89T328 64T309 60L212 192Q210 194 209 194Q207 194 205 192L54 59Q49 54 44 54Z" />
<glyph unicode="&#xd8;" glyph-name="Oslash" horiz-adv-x="649" d="M106 0Q98 -1 84 5T70 19Q70 24 72 26L101 67Q70 103 53 151T35 256Q35 333 65 406T147 538T266 632T406 667Q460 667 506 646L522 669Q529 671 544 663T559 646Q559 641 558 640L546 622Q593
587 620 530T647 400Q647 325 617 252T535 120T416 26T275 -10Q234 -10 198 2T132 37L106 0ZM180 238Q180 209 183 185L461 582Q431 611 382 611Q342 611 306 583T241 504T196 386T180 238ZM297 46Q340 46 374 73T432 144T473 240T496 344T504 435Q504 499 488
540L196 127Q208 90 232 68T297 46Z" />
<glyph unicode="&#xd9;" glyph-name="Ugrave" horiz-adv-x="644" d="M257 -5Q166 -5 119 36T60 148T67 311L108 522Q115 556 116 575T116 600Q114 606 104 611T82 621T63 625Q60 625 63 642Q66 660 68 662L202 656Q219 656 333 662V644Q330 625 325 625Q320 625
305 621T276 612T260 601Q253 587 248 566T237 516L191 279Q173 187 201 131T295 75Q369 75 420 127T493 286L539 524Q541 535 542 542T544 552L546 568Q547 585 541 596Q537 604 524 610T496 621T474 625Q471 626 471 634T474 652T479 662Q521 658 551 656T600
654Q611 654 627 655T664 658L717 662Q719 655 717 644Q716 639 713 632T708 625Q693 625 667 617T625 592Q608 575 598 519L553 291Q534 194 491 128T388 29T257 -5ZM512 716Q504 716 482 722T431 737T375 757T331 778T313 796Q313 816 336 825T383 834Q403 834
415 826Q423 822 441 809T478 781T512 753T526 735Q526 731 522 724T512 716Z" />
<glyph unicode="&#xda;" glyph-name="Uacute" horiz-adv-x="644" d="M257 -5Q166 -5 119 36T60 148T67 311L108 522Q115 556 116 575T116 600Q114 606 104 611T82 621T63 625Q60 625 63 642Q66 660 68 662L202 656Q219 656 333 662V644Q330 625 325 625Q320 625
305 621T276 612T260 601Q253 587 248 566T237 516L191 279Q173 187 201 131T295 75Q369 75 420 127T493 286L539 524Q541 535 542 542T544 552L546 568Q547 585 541 596Q537 604 524 610T496 621T474 625Q471 626 471 634T474 652T479 662Q521 658 551 656T600
654Q611 654 627 655T664 658L717 662Q719 655 717 644Q716 639 713 632T708 625Q693 625 667 617T625 592Q608 575 598 519L553 291Q534 194 491 128T388 29T257 -5ZM373 715Q368 715 364 722T359 734Q359 738 373 751T406 779T444 808T470 825Q484 833 502 833Q526
833 549 824T572 795Q572 788 555 778T510 757T455 737T404 721T373 715Z" />
<glyph unicode="&#xdb;" glyph-name="Ucircumflex" horiz-adv-x="644" d="M257 -5Q166 -5 119 36T60 148T67 311L108 522Q115 556 116 575T116 600Q114 606 104 611T82 621T63 625Q60 625 63 642Q66 660 68 662L202 656Q219 656 333 662V644Q330 625 325 625Q320
625 305 621T276 612T260 601Q253 587 248 566T237 516L191 279Q173 187 201 131T295 75Q369 75 420 127T493 286L539 524Q541 535 542 542T544 552L546 568Q547 585 541 596Q537 604 524 610T496 621T474 625Q471 626 471 634T474 652T479 662Q521 658 551 656T600
654Q611 654 627 655T664 658L717 662Q719 655 717 644Q716 639 713 632T708 625Q693 625 667 617T625 592Q608 575 598 519L553 291Q534 194 491 128T388 29T257 -5ZM290 727Q279 727 283 746Q299 756 322 772T375 811Q392 825 406 837T430 859Q441 868 446 868Q450
868 459 859L492 815Q512 791 528 774T556 746Q552 727 541 727Q536 727 515 737T469 763T429 789Q414 780 392 770T348 750T310 734T290 727Z" />
<glyph unicode="&#xdc;" glyph-name="Udieresis" horiz-adv-x="644" d="M257 -5Q166 -5 119 36T60 148T67 311L108 522Q115 556 116 575T116 600Q114 606 104 611T82 621T63 625Q60 625 63 642Q66 660 68 662L202 656Q219 656 333 662V644Q330 625 325 625Q320
625 305 621T276 612T260 601Q253 587 248 566T237 516L191 279Q173 187 201 131T295 75Q369 75 420 127T493 286L539 524Q541 535 542 542T544 552L546 568Q547 585 541 596Q537 604 524 610T496 621T474 625Q471 626 471 634T474 652T479 662Q521 658 551 656T600
654Q611 654 627 655T664 658L717 662Q719 655 717 644Q716 639 713 632T708 625Q693 625 667 617T625 592Q608 575 598 519L553 291Q534 194 491 128T388 29T257 -5ZM520 724Q492 724 478 741T464 783Q464 804 474 824T503 858T548 872Q577 872 590 855T604 813Q604
793 594 772T566 738T520 724ZM306 724Q278 724 264 741T250 783Q250 804 260 824T289 858T334 872Q363 872 376 855T390 813Q390 793 380 772T352 738T306 724Z" />
<glyph unicode="&#xdd;" glyph-name="Yacute" horiz-adv-x="641" d="M91 -4Q88 1 90 12Q93 33 97 33Q104 33 118 37T146 47T163 58Q168 72 174 92T186 139L219 309Q220 315 202 373Q193 402 184 429T165 483L147 537Q128 596 111 610Q102 616 88 620T64 625Q62
625 62 634Q62 641 65 650T72 662L126 659Q174 656 202 656Q221 656 335 662Q336 661 336 653Q336 644 333 635Q330 625 328 625Q314 625 295 620T274 604Q273 594 277 582L340 403Q410 492 446 542T485 603Q486 613 473 619Q458 625 430 625Q428 625 428 634Q428
654 436 662Q520 656 548 656Q573 656 654 662Q654 647 653 644Q650 626 646 626Q629 626 606 617T566 590Q554 577 529 546T473 475T415 399T368 336T348 304L317 145Q307 93 308 58Q308 54 318 48T342 38T360 33Q363 33 360 14Q357 1 355 -4Q351 -4 338 -3T300
0Q275 2 257 3T227 4Q211 4 182 2T126 -1T91 -4ZM356 715Q351 715 347 722T342 734Q342 738 356 751T389 779T427 808T453 825Q467 833 485 833Q509 833 532 824T555 795Q555 788 538 778T493 757T438 737T387 721T356 715Z" />
<glyph unicode="&#xde;" glyph-name="Thorn" horiz-adv-x="537" d="M-10 -4Q-11 -3 -11 6Q-11 30 -5 30Q44 30 56 55Q63 69 68 89T78 135Q92 201 106 275T133 416T154 531T163 594Q163 602 162 603Q159 611 142 619T114 628Q109 630 112 645Q113 649 115 653T119
662L247 656Q259 656 373 662Q373 628 366 628Q361 628 347 624T321 615T306 604Q301 592 296 574T287 539T283 519Q283 514 285 514Q287 514 299 515T327 518T354 520Q404 520 442 500T503 444T525 363Q525 292 490 242T400 167T280 141Q257 141 240 143T216 145Q210
145 206 126Q204 113 202 95T200 55Q200 51 210 45T231 35T247 30Q250 28 248 14T243 -4Q231 -3 207 -2T158 2T121 4Q103 4 75 2T23 -1T-10 -4ZM283 192Q311 192 333 218T369 286T383 371Q383 469 332 469Q273 469 265 430L228 240Q226 230 226 225T225 217Q225
192 283 192Z" />
<glyph unicode="&#xdf;" glyph-name="germandbls" horiz-adv-x="556" d="M-33 -218Q-69 -218 -94 -206T-123 -179Q-124 -144 -111 -113T-64 -82Q-48 -82 -40 -94T-27 -122T-14 -151T8 -163Q30 -163 44 -137T68 -73T84 1L154 362Q155 366 155 369Q155 372 151 372H92Q86
372 86 382Q86 390 95 401T117 421T144 430H161Q167 430 170 446Q180 497 206 542T269 621T346 676T428 696Q485 696 525 666T566 586Q566 539 542 505T465 442Q440 428 424 412T408 361Q408 313 467 271Q495 253 518 219T541 149Q541 113 520 77T465 17T388 -7Q370
-7 340 -3T283 12T248 36Q248 51 251 73T264 112T298 130Q319 130 329 119T345 92T361 65T391 53Q408 53 416 64T427 91T430 118Q430 139 419 154T391 183T361 210Q342 230 326 251T310 305Q310 340 325 366T360 412T395 445Q424 472 440 508T456 578Q456 642 395
642Q367 642 349 625T320 581T303 527T292 475L204 21Q182 -92 122 -155T-33 -218Z" />
<glyph unicode="&#xe0;" glyph-name="agrave" horiz-adv-x="462" d="M125 -8Q70 -8 39 33T8 140Q8 193 32 247T100 347T201 421T323 449Q355 449 380 442T417 427L364 155Q360 132 359 123T357 105Q357 81 367 81Q377 81 391 91T420 114T440 134Q442 134 450 124T459
110Q453 97 434 77T388 38T334 5T285 -8Q262 -8 247 6T232 46Q232 54 232 61T234 76Q188 -8 125 -8ZM162 68Q184 68 205 100T245 183T274 288L292 378Q285 385 265 385Q235 385 210 357T168 286T141 199T131 124Q131 68 162 68ZM377 497Q368 497 343 508T289 537T239
573T218 603Q218 617 234 632T274 647Q283 647 287 644Q298 634 315 615T349 575T379 538T391 519Q391 514 386 506T377 497Z" />
<glyph unicode="&#xe1;" glyph-name="aacute" horiz-adv-x="462" d="M125 -8Q70 -8 39 33T8 140Q8 193 32 247T100 347T201 421T323 449Q355 449 380 442T417 427L364 155Q360 132 359 123T357 105Q357 81 367 81Q377 81 391 91T420 114T440 134Q442 134 450 124T459
110Q453 97 434 77T388 38T334 5T285 -8Q262 -8 247 6T232 46Q232 54 232 61T234 76Q188 -8 125 -8ZM162 68Q184 68 205 100T245 183T274 288L292 378Q285 385 265 385Q235 385 210 357T168 286T141 199T131 124Q131 68 162 68ZM275 497Q271 497 266 505T261 519Q261
522 273 538T302 575T337 615T365 644Q370 647 378 647Q401 647 417 632T434 603Q434 591 413 573T363 538T309 509T275 497Z" />
<glyph unicode="&#xe2;" glyph-name="acircumflex" horiz-adv-x="462" d="M125 -8Q70 -8 39 33T8 140Q8 193 32 247T100 347T201 421T323 449Q355 449 380 442T417 427L364 155Q360 132 359 123T357 105Q357 81 367 81Q377 81 391 91T420 114T440 134Q442 134
450 124T459 110Q453 97 434 77T388 38T334 5T285 -8Q262 -8 247 6T232 46Q232 54 232 61T234 76Q188 -8 125 -8ZM162 68Q184 68 205 100T245 183T274 288L292 378Q285 385 265 385Q235 385 210 357T168 286T141 199T131 124Q131 68 162 68ZM203 507Q199 507 194
515T190 529Q194 533 212 552T259 600Q275 616 287 631T309 658Q314 663 319 665T327 667Q333 667 337 657Q345 641 352 628T363 606Q382 576 396 554T412 528Q402 507 393 507Q389 507 374 520T342 550T310 579Q294 567 271 550T228 520T203 507Z" />
<glyph unicode="&#xe3;" glyph-name="atilde" horiz-adv-x="462" d="M125 -8Q70 -8 39 33T8 140Q8 193 32 247T100 347T201 421T323 449Q355 449 380 442T417 427L364 155Q360 132 359 123T357 105Q357 81 367 81Q377 81 391 91T420 114T440 134Q442 134 450 124T459
110Q453 97 434 77T388 38T334 5T285 -8Q262 -8 247 6T232 46Q232 54 232 61T234 76Q188 -8 125 -8ZM162 68Q184 68 205 100T245 183T274 288L292 378Q285 385 265 385Q235 385 210 357T168 286T141 199T131 124Q131 68 162 68ZM383 511Q360 511 338 526T293 556T247
571Q234 571 209 546Q183 520 181 520Q176 520 176 539Q176 556 193 577T234 614T277 630Q300 630 322 615T367 585T412 569Q427 569 451 594Q475 618 476 618Q482 615 482 602Q482 593 473 578T448 548T415 522T383 511Z" />
<glyph unicode="&#xe4;" glyph-name="adieresis" horiz-adv-x="462" d="M125 -8Q70 -8 39 33T8 140Q8 193 32 247T100 347T201 421T323 449Q355 449 380 442T417 427L364 155Q360 132 359 123T357 105Q357 81 367 81Q377 81 391 91T420 114T440 134Q442 134 450
124T459 110Q453 97 434 77T388 38T334 5T285 -8Q262 -8 247 6T232 46Q232 54 232 61T234 76Q188 -8 125 -8ZM162 68Q184 68 205 100T245 183T274 288L292 378Q285 385 265 385Q235 385 210 357T168 286T141 199T131 124Q131 68 162 68ZM427 646Q452 646 468 628T485
584Q485 551 462 525T407 499Q382 499 366 517T349 562Q349 595 372 620T427 646ZM207 646Q232 646 248 628T265 583Q265 550 242 525T187 499Q162 499 146 517T129 561Q129 594 152 620T207 646Z" />
<glyph unicode="&#xe5;" glyph-name="aring" horiz-adv-x="462" d="M125 -8Q70 -8 39 33T8 140Q8 193 32 247T100 347T201 421T323 449Q355 449 380 442T417 427L364 155Q360 132 359 123T357 105Q357 81 367 81Q377 81 391 91T420 114T440 134Q442 134 450 124T459
110Q453 97 434 77T388 38T334 5T285 -8Q262 -8 247 6T232 46Q232 54 232 61T234 76Q188 -8 125 -8ZM162 68Q184 68 205 100T245 183T274 288L292 378Q285 385 265 385Q235 385 210 357T168 286T141 199T131 124Q131 68 162 68ZM292 502Q256 502 231 525T206 589Q206
619 222 644T263 684T317 699Q352 699 376 675T401 614Q401 566 370 534T292 502ZM298 548Q321 548 337 565T353 608Q353 628 342 640T311 653Q289 653 272 635T255 594Q255 574 267 561T298 548Z" />
<glyph unicode="&#xe6;" glyph-name="ae" horiz-adv-x="621" d="M146 -8Q88 -8 54 23T20 101Q20 132 31 151T56 181T81 196Q118 211 144 218T194 231T249 245Q257 248 259 259L268 307Q271 325 271 342Q271 389 245 389Q223 389 201 366T172 306Q170 296 153 287T116
278Q73 278 73 317Q73 340 91 363T139 405T204 437T274 449Q338 449 366 406Q427 449 488 449Q540 449 573 424T606 356Q606 320 581 288T517 232T441 193T376 179Q372 179 372 169Q372 110 389 89T436 68Q456 68 476 78T513 102T537 126Q539 126 547 116T556 102Q550
88 533 70T491 34T441 6T391 -6Q348 -6 324 10T278 61Q235 -8 146 -8ZM387 229Q419 229 445 249T486 299T502 356Q502 395 478 395Q465 395 449 380T417 341T393 288T383 233Q383 229 387 229ZM177 67Q196 67 212 79T232 110L246 187Q217 181 193 174T154 153T139
108Q139 88 150 78T177 67Z" />
<glyph unicode="&#xe7;" glyph-name="ccedilla" horiz-adv-x="371" d="M154 -6Q80 -6 45 37T9 156Q9 231 43 299Q77 367 133 408T252 449Q324 449 364 404Q371 384 371 371Q371 346 358 328T324 310Q305 310 296 322T282 352T268 381T241 394Q220 394 201 370T167
310T144 235T135 169Q135 68 199 68Q219 68 239 78T276 102T300 126Q302 126 310 116T319 102Q313 88 296 70T254 34T204 6T154 -6ZM131 -1H167L145 -32Q152 -31 157 -31T167 -31Q188 -31 201 -45T215 -81Q215 -103 201 -127T158 -167T89 -183Q49 -183 35 -175Q30
-163 30 -150Q30 -140 37 -132T52 -124Q64 -124 75 -134T104 -145Q128 -145 141 -132T155 -103Q155 -78 134 -78Q115 -78 100 -85Q98 -85 92 -78T88 -67Q90 -64 100 -49T119 -19T131 -1Z" />
<glyph unicode="&#xe8;" glyph-name="egrave" horiz-adv-x="393" d="M154 -6Q82 -6 46 36T9 157Q9 230 43 297Q76 365 132 407T251 449Q303 449 341 424T379 356Q379 320 352 288T285 232T205 193T139 179Q135 179 135 169Q135 110 152 89T199 68Q219 68 239 78T276
102T300 126Q302 126 310 116T319 102Q313 88 296 70T254 34T204 6T154 -6ZM150 229Q182 229 208 249T249 299T265 356Q265 395 241 395Q228 395 212 380T180 341T156 288T146 233Q146 229 150 229ZM343 497Q334 497 309 508T255 537T205 573T184 603Q184 617 200
632T240 647Q249 647 253 644Q264 634 281 615T315 575T345 538T357 519Q357 514 352 506T343 497Z" />
<glyph unicode="&#xe9;" glyph-name="eacute" horiz-adv-x="393" d="M154 -6Q82 -6 46 36T9 157Q9 230 43 297Q76 365 132 407T251 449Q303 449 341 424T379 356Q379 320 352 288T285 232T205 193T139 179Q135 179 135 169Q135 110 152 89T199 68Q219 68 239 78T276
102T300 126Q302 126 310 116T319 102Q313 88 296 70T254 34T204 6T154 -6ZM150 229Q182 229 208 249T249 299T265 356Q265 395 241 395Q228 395 212 380T180 341T156 288T146 233Q146 229 150 229ZM241 497Q237 497 232 505T227 519Q227 522 239 538T268 575T303
615T331 644Q336 647 344 647Q367 647 383 632T400 603Q400 591 379 573T329 538T275 509T241 497Z" />
<glyph unicode="&#xea;" glyph-name="ecircumflex" horiz-adv-x="393" d="M154 -6Q82 -6 46 36T9 157Q9 230 43 297Q76 365 132 407T251 449Q303 449 341 424T379 356Q379 320 352 288T285 232T205 193T139 179Q135 179 135 169Q135 110 152 89T199 68Q219 68
239 78T276 102T300 126Q302 126 310 116T319 102Q313 88 296 70T254 34T204 6T154 -6ZM150 229Q182 229 208 249T249 299T265 356Q265 395 241 395Q228 395 212 380T180 341T156 288T146 233Q146 229 150 229ZM169 507Q165 507 160 515T156 529Q160 533 178 552T225
600Q241 616 253 631T275 658Q280 663 285 665T293 667Q299 667 303 657Q311 641 318 628T329 606Q348 576 362 554T378 528Q368 507 359 507Q355 507 340 520T308 550T276 579Q260 567 237 550T194 520T169 507Z" />
<glyph unicode="&#xeb;" glyph-name="edieresis" horiz-adv-x="393" d="M154 -6Q82 -6 46 36T9 157Q9 230 43 297Q76 365 132 407T251 449Q303 449 341 424T379 356Q379 320 352 288T285 232T205 193T139 179Q135 179 135 169Q135 110 152 89T199 68Q219 68 239
78T276 102T300 126Q302 126 310 116T319 102Q313 88 296 70T254 34T204 6T154 -6ZM150 229Q182 229 208 249T249 299T265 356Q265 395 241 395Q228 395 212 380T180 341T156 288T146 233Q146 229 150 229ZM393 646Q418 646 434 628T451 584Q451 551 428 525T373
499Q348 499 332 517T315 562Q315 595 338 620T393 646ZM173 646Q198 646 214 628T231 583Q231 550 208 525T153 499Q128 499 112 517T95 561Q95 594 118 620T173 646Z" />
<glyph unicode="&#xec;" glyph-name="igrave" horiz-adv-x="285" d="M176 449Q199 449 214 435T229 392Q229 385 227 369T222 339T218 318L202 233Q192 179 187 154T181 118T180 99Q180 81 190 81Q200 81 215 91T244 114T263 134Q266 134 274 124T282 110Q276
97 257 77T211 38T157 5T108 -8Q86 -8 71 6T55 49Q55 57 57 72T61 103T65 123L102 313Q103 318 103 323T104 336Q104 360 94 360Q85 360 70 350T41 328T21 307Q19 307 11 317T2 331Q8 345 27 364T73 403T127 436T176 449ZM263 497Q254 497 229 508T175 537T125
573T104 603Q104 617 120 632T160 647Q169 647 173 644Q184 634 201 615T235 575T265 538T277 519Q277 514 272 506T263 497Z" />
<glyph unicode="&#xed;" glyph-name="iacute" horiz-adv-x="285" d="M176 449Q199 449 214 435T229 392Q229 385 227 369T222 339T218 318L202 233Q192 179 187 154T181 118T180 99Q180 81 190 81Q200 81 215 91T244 114T263 134Q266 134 274 124T282 110Q276
97 257 77T211 38T157 5T108 -8Q86 -8 71 6T55 49Q55 57 57 72T61 103T65 123L102 313Q103 318 103 323T104 336Q104 360 94 360Q85 360 70 350T41 328T21 307Q19 307 11 317T2 331Q8 345 27 364T73 403T127 436T176 449ZM161 497Q157 497 152 505T147 519Q147
522 159 538T188 575T223 615T251 644Q256 647 264 647Q287 647 303 632T320 603Q320 591 299 573T249 538T195 509T161 497Z" />
<glyph unicode="&#xee;" glyph-name="icircumflex" horiz-adv-x="285" d="M176 449Q199 449 214 435T229 392Q229 385 227 369T222 339T218 318L202 233Q192 179 187 154T181 118T180 99Q180 81 190 81Q200 81 215 91T244 114T263 134Q266 134 274 124T282 110Q276
97 257 77T211 38T157 5T108 -8Q86 -8 71 6T55 49Q55 57 57 72T61 103T65 123L102 313Q103 318 103 323T104 336Q104 360 94 360Q85 360 70 350T41 328T21 307Q19 307 11 317T2 331Q8 345 27 364T73 403T127 436T176 449ZM89 507Q85 507 80 515T76 529Q80 533 98
552T145 600Q161 616 173 631T195 658Q200 663 205 665T213 667Q219 667 223 657Q231 641 238 628T249 606Q268 576 282 554T298 528Q288 507 279 507Q275 507 260 520T228 550T196 579Q180 567 157 550T114 520T89 507Z" />
<glyph unicode="&#xef;" glyph-name="idieresis" horiz-adv-x="285" d="M176 449Q199 449 214 435T229 392Q229 385 227 369T222 339T218 318L202 233Q192 179 187 154T181 118T180 99Q180 81 190 81Q200 81 215 91T244 114T263 134Q266 134 274 124T282 110Q276
97 257 77T211 38T157 5T108 -8Q86 -8 71 6T55 49Q55 57 57 72T61 103T65 123L102 313Q103 318 103 323T104 336Q104 360 94 360Q85 360 70 350T41 328T21 307Q19 307 11 317T2 331Q8 345 27 364T73 403T127 436T176 449ZM345 512Q320 512 304 530T287 574Q287
607 310 633T365 659Q390 659 406 641T423 596Q423 563 400 538T345 512ZM537 510Q512 510 496 528T479 573Q479 606 502 631T557 657Q582 657 598 639T615 595Q615 562 592 536T537 510Z" />
<glyph unicode="&#xf0;" glyph-name="eth" horiz-adv-x="431" d="M166 -6Q124 -6 91 16T39 77T20 161Q20 207 38 249T88 326T158 379T235 399Q267 399 289 387L291 386Q296 386 296 409Q296 490 238 569L146 466Q137 466 125 477T112 495Q112 499 114 501L207
605Q191 622 174 635T137 658Q137 669 144 681T161 695Q184 682 204 670T241 644L334 750Q336 752 344 746T359 733T367 722Q367 718 364 713L277 613Q414 485 414 309Q414 233 391 171T330 71Q293 34 250 14T166 -6ZM177 50Q246 50 276 207Q291 288 291 312Q291
327 281 334T257 342Q226 342 199 311T155 226T138 106Q138 50 177 50Z" />
<glyph unicode="&#xf1;" glyph-name="ntilde" horiz-adv-x="519" d="M342 -8Q320 -8 305 6T289 49Q289 63 291 82T299 123L322 242Q327 267 329 281T332 300Q332 341 303 341Q291 341 274 317T238 256T206 179T184 105L163 0Q144 -6 107 -6Q72 -6 48 0L108 313Q109
318 109 323T110 336Q110 360 100 360Q91 360 76 350T47 328T27 307Q25 307 17 317T8 331Q14 345 33 364T79 403T133 436T182 449Q205 449 220 435T235 392Q235 386 233 370T227 328Q227 327 223 302Q241 338 266 371T317 427T366 449Q410 449 431 418T452 340Q452
328 448 301T436 233Q426 179 421 154T415 118T414 99Q414 81 424 81Q434 81 449 91T478 114T497 134Q500 134 508 124T516 110Q510 97 491 77T445 38T391 5T342 -8ZM365 511Q342 511 320 526T275 556T229 571Q216 571 191 546Q165 520 163 520Q158 520 158 539Q158
556 175 577T216 614T259 630Q282 630 304 615T349 585T394 569Q409 569 433 594Q457 618 458 618Q464 615 464 602Q464 593 455 578T430 548T397 522T365 511Z" />
<glyph unicode="&#xf2;" glyph-name="ograve" horiz-adv-x="407" d="M156 -6Q78 -6 44 38T9 156Q9 206 27 257T77 352T154 422T250 449Q327 449 362 405T397 287Q397 232 379 180T328 86T251 19T156 -6ZM166 47Q188 47 205 68T235 122T257 194T270 269T273 332Q272
396 240 396Q219 396 202 376T172 323T150 252T137 176T133 110Q135 47 166 47ZM351 497Q342 497 317 508T263 537T213 573T192 603Q192 617 208 632T248 647Q257 647 261 644Q272 634 289 615T323 575T353 538T365 519Q365 514 360 506T351 497Z" />
<glyph unicode="&#xf3;" glyph-name="oacute" horiz-adv-x="407" d="M156 -6Q78 -6 44 38T9 156Q9 206 27 257T77 352T154 422T250 449Q327 449 362 405T397 287Q397 232 379 180T328 86T251 19T156 -6ZM166 47Q188 47 205 68T235 122T257 194T270 269T273 332Q272
396 240 396Q219 396 202 376T172 323T150 252T137 176T133 110Q135 47 166 47ZM249 497Q245 497 240 505T235 519Q235 522 247 538T276 575T311 615T339 644Q344 647 352 647Q375 647 391 632T408 603Q408 591 387 573T337 538T283 509T249 497Z" />
<glyph unicode="&#xf4;" glyph-name="ocircumflex" horiz-adv-x="407" d="M156 -6Q78 -6 44 38T9 156Q9 206 27 257T77 352T154 422T250 449Q327 449 362 405T397 287Q397 232 379 180T328 86T251 19T156 -6ZM166 47Q188 47 205 68T235 122T257 194T270 269T273
332Q272 396 240 396Q219 396 202 376T172 323T150 252T137 176T133 110Q135 47 166 47ZM177 507Q173 507 168 515T164 529Q168 533 186 552T233 600Q249 616 261 631T283 658Q288 663 293 665T301 667Q307 667 311 657Q319 641 326 628T337 606Q356 576 370 554T386
528Q376 507 367 507Q363 507 348 520T316 550T284 579Q268 567 245 550T202 520T177 507Z" />
<glyph unicode="&#xf5;" glyph-name="otilde" horiz-adv-x="407" d="M156 -6Q78 -6 44 38T9 156Q9 206 27 257T77 352T154 422T250 449Q327 449 362 405T397 287Q397 232 379 180T328 86T251 19T156 -6ZM166 47Q188 47 205 68T235 122T257 194T270 269T273 332Q272
396 240 396Q219 396 202 376T172 323T150 252T137 176T133 110Q135 47 166 47ZM357 511Q334 511 312 526T267 556T221 571Q208 571 183 546Q157 520 155 520Q150 520 150 539Q150 556 167 577T208 614T251 630Q274 630 296 615T341 585T386 569Q401 569 425 594Q449
618 450 618Q456 615 456 602Q456 593 447 578T422 548T389 522T357 511Z" />
<glyph unicode="&#xf6;" glyph-name="odieresis" horiz-adv-x="407" d="M156 -6Q78 -6 44 38T9 156Q9 206 27 257T77 352T154 422T250 449Q327 449 362 405T397 287Q397 232 379 180T328 86T251 19T156 -6ZM166 47Q188 47 205 68T235 122T257 194T270 269T273
332Q272 396 240 396Q219 396 202 376T172 323T150 252T137 176T133 110Q135 47 166 47ZM401 646Q426 646 442 628T459 584Q459 551 436 525T381 499Q356 499 340 517T323 562Q323 595 346 620T401 646ZM181 646Q206 646 222 628T239 583Q239 550 216 525T161 499Q136
499 120 517T103 561Q103 594 126 620T181 646Z" />
<glyph unicode="&#xf7;" glyph-name="divide" horiz-adv-x="464" d="M256 372Q234 372 220 387T206 426Q206 454 226 476T273 498Q295 498 309 483T323 445Q323 417 303 395T256 372ZM8 213Q4 213 4 231Q4 259 30 285H455Q459 285 459 267Q459 239 433 213H8ZM184
0Q162 0 148 15T134 54Q134 82 154 104T201 126Q223 126 237 111T251 73Q251 45 231 23T184 0Z" />
<glyph unicode="&#xf8;" glyph-name="oslash" horiz-adv-x="419" d="M71 -8Q63 -9 49 -3T35 11Q35 16 37 18L55 43Q12 95 12 167Q12 224 31 275T83 365T162 426T261 449Q296 449 327 431L339 449Q346 451 361 443T376 426Q376 422 375 421L362 402Q407 351 407
280Q407 222 388 170T336 79T257 16T158 -7Q117 -7 87 14L71 -8ZM131 152L275 358Q263 389 240 389Q221 389 202 369T166 315T141 240T131 155V152ZM179 53Q207 53 231 87T271 175T287 287V297L141 90Q154 53 179 53Z" />
<glyph unicode="&#xf9;" glyph-name="ugrave" horiz-adv-x="513" d="M151 -8Q107 -8 86 23T65 101Q65 113 69 140T81 208L99 304Q101 314 102 322T103 342Q103 360 93 360Q84 360 69 350T40 328T20 307Q18 307 10 317T1 331Q7 345 26 364T72 403T126 436T175 449Q198
449 213 435T228 392Q228 378 226 360T218 318L195 199Q194 194 192 182T187 158T185 141Q185 100 214 100Q226 100 243 124T279 185T311 262T333 336L354 441Q374 447 410 447Q445 447 469 441L409 128Q408 123 408 118T407 105Q407 81 417 81Q427 81 442 91T471
114T490 134Q493 134 501 124T509 110Q503 97 484 77T438 38T384 5T335 -8Q313 -8 298 6T282 49Q282 57 284 73T290 113Q290 114 294 139Q277 104 252 70T200 14T151 -8ZM371 497Q362 497 337 508T283 537T233 573T212 603Q212 617 228 632T268 647Q277 647 281
644Q292 634 309 615T343 575T373 538T385 519Q385 514 380 506T371 497Z" />
<glyph unicode="&#xfa;" glyph-name="uacute" horiz-adv-x="513" d="M151 -8Q107 -8 86 23T65 101Q65 113 69 140T81 208L99 304Q101 314 102 322T103 342Q103 360 93 360Q84 360 69 350T40 328T20 307Q18 307 10 317T1 331Q7 345 26 364T72 403T126 436T175 449Q198
449 213 435T228 392Q228 378 226 360T218 318L195 199Q194 194 192 182T187 158T185 141Q185 100 214 100Q226 100 243 124T279 185T311 262T333 336L354 441Q374 447 410 447Q445 447 469 441L409 128Q408 123 408 118T407 105Q407 81 417 81Q427 81 442 91T471
114T490 134Q493 134 501 124T509 110Q503 97 484 77T438 38T384 5T335 -8Q313 -8 298 6T282 49Q282 57 284 73T290 113Q290 114 294 139Q277 104 252 70T200 14T151 -8ZM269 497Q265 497 260 505T255 519Q255 522 267 538T296 575T331 615T359 644Q364 647 372
647Q395 647 411 632T428 603Q428 591 407 573T357 538T303 509T269 497Z" />
<glyph unicode="&#xfb;" glyph-name="ucircumflex" horiz-adv-x="513" d="M151 -8Q107 -8 86 23T65 101Q65 113 69 140T81 208L99 304Q101 314 102 322T103 342Q103 360 93 360Q84 360 69 350T40 328T20 307Q18 307 10 317T1 331Q7 345 26 364T72 403T126 436T175
449Q198 449 213 435T228 392Q228 378 226 360T218 318L195 199Q194 194 192 182T187 158T185 141Q185 100 214 100Q226 100 243 124T279 185T311 262T333 336L354 441Q374 447 410 447Q445 447 469 441L409 128Q408 123 408 118T407 105Q407 81 417 81Q427 81
442 91T471 114T490 134Q493 134 501 124T509 110Q503 97 484 77T438 38T384 5T335 -8Q313 -8 298 6T282 49Q282 57 284 73T290 113Q290 114 294 139Q277 104 252 70T200 14T151 -8ZM197 507Q193 507 188 515T184 529Q188 533 206 552T253 600Q269 616 281 631T303
658Q308 663 313 665T321 667Q327 667 331 657Q339 641 346 628T357 606Q376 576 390 554T406 528Q396 507 387 507Q383 507 368 520T336 550T304 579Q288 567 265 550T222 520T197 507Z" />
<glyph unicode="&#xfc;" glyph-name="udieresis" horiz-adv-x="513" d="M151 -8Q107 -8 86 23T65 101Q65 113 69 140T81 208L99 304Q101 314 102 322T103 342Q103 360 93 360Q84 360 69 350T40 328T20 307Q18 307 10 317T1 331Q7 345 26 364T72 403T126 436T175
449Q198 449 213 435T228 392Q228 378 226 360T218 318L195 199Q194 194 192 182T187 158T185 141Q185 100 214 100Q226 100 243 124T279 185T311 262T333 336L354 441Q374 447 410 447Q445 447 469 441L409 128Q408 123 408 118T407 105Q407 81 417 81Q427 81
442 91T471 114T490 134Q493 134 501 124T509 110Q503 97 484 77T438 38T384 5T335 -8Q313 -8 298 6T282 49Q282 57 284 73T290 113Q290 114 294 139Q277 104 252 70T200 14T151 -8ZM421 646Q446 646 462 628T479 584Q479 551 456 525T401 499Q376 499 360 517T343
562Q343 595 366 620T421 646ZM201 646Q226 646 242 628T259 583Q259 550 236 525T181 499Q156 499 140 517T123 561Q123 594 146 620T201 646Z" />
<glyph unicode="&#xfd;" glyph-name="yacute" horiz-adv-x="528" d="M45 -218Q19 -218 2 -206T-15 -165Q-15 -139 3 -120Q47 -132 79 -132Q125 -132 150 -118T194 -81Q215 -54 215 8Q215 46 209 99T191 212T162 332Q155 360 138 360Q129 360 114 350T85 328T65
307Q62 307 54 317T46 331Q52 345 70 364T113 403T163 436T208 449Q229 449 243 435T268 399T284 355T295 316Q311 252 319 187T332 66Q340 76 354 100T382 156T407 219T417 273Q417 300 405 334T381 389Q381 412 401 430T446 449Q469 449 485 429T502 362Q502
311 482 250T431 129T367 20T307 -56Q224 -141 159 -179T45 -218ZM308 497Q304 497 299 505T294 519Q294 522 306 538T335 575T370 615T398 644Q403 647 411 647Q434 647 450 632T467 603Q467 591 446 573T396 538T342 509T308 497Z" />
<glyph unicode="&#xfe;" glyph-name="thorn" horiz-adv-x="473" d="M-39 -221Q-42 -219 -42 -212Q-42 -192 -37 -187Q-2 -186 12 -169Q14 -167 17 -155T24 -122L151 532Q156 558 158 575T160 603Q160 621 119 621H111Q107 621 109 635Q109 638 111 645T117 652Q149
656 183 663T245 679T286 692L295 695H297Q304 695 304 676Q285 628 274 568Q270 546 266 528T259 492L236 379Q254 403 262 410T284 428Q310 449 349 449Q385 449 409 428T447 372T460 299Q460 240 436 183T373 85Q336 45 290 20T202 -6Q179 -6 165 6L141 -116Q140
-123 140 -128T139 -137Q139 -169 161 -173Q176 -177 196 -177Q203 -177 203 -189Q203 -206 199 -211Q157 -211 129 -211T86 -212Q25 -214 -39 -221ZM211 54Q234 54 256 81T297 149T326 235T337 316Q337 337 327 354T302 372Q279 372 258 349T222 299L184 102Q179
76 185 65T211 54Z" />
<glyph unicode="&#xff;" glyph-name="ydieresis" horiz-adv-x="528" d="M45 -218Q19 -218 2 -206T-15 -165Q-15 -139 3 -120Q47 -132 79 -132Q125 -132 150 -118T194 -81Q215 -54 215 8Q215 46 209 99T191 212T162 332Q155 360 138 360Q129 360 114 350T85 328T65
307Q62 307 54 317T46 331Q52 345 70 364T113 403T163 436T208 449Q229 449 243 435T268 399T284 355T295 316Q311 252 319 187T332 66Q340 76 354 100T382 156T407 219T417 273Q417 300 405 334T381 389Q381 412 401 430T446 449Q469 449 485 429T502 362Q502
311 482 250T431 129T367 20T307 -56Q224 -141 159 -179T45 -218ZM460 646Q485 646 501 628T518 584Q518 551 495 525T440 499Q415 499 399 517T382 562Q382 595 405 620T460 646ZM240 646Q265 646 281 628T298 583Q298 550 275 525T220 499Q195 499 179 517T162
561Q162 594 185 620T240 646Z" />
<glyph unicode="&#x2013;" glyph-name="endash" horiz-adv-x="462" d="M69 194Q62 194 62 210Q62 225 70 244T84 268H470Q477 268 477 252Q477 237 469 218T455 194H69Z" />
<glyph unicode="&#x2014;" glyph-name="emdash" horiz-adv-x="1084" d="M69 194Q62 194 62 210Q62 225 70 244T84 268H1023Q1030 268 1030 252Q1030 237 1022 218T1008 194H69Z" />
<glyph unicode="&#x2018;" glyph-name="quoteleft" horiz-adv-x="148" d="M155 474Q134 474 123 485Q113 507 122 555Q126 574 141 599T177 649T218 690T254 706Q260 706 271 697T283 680Q249 661 227 635T200 590Q199 577 213 555Q228 532 225 518Q221 500 200
487T155 474Z" />
<glyph unicode="&#x2019;" glyph-name="quoteright" horiz-adv-x="153" d="M134 474Q128 474 117 483T105 500Q139 520 161 546T188 590Q190 604 175 626Q160 649 163 662Q167 680 188 693T233 706Q254 706 265 695Q275 674 265 625Q261 606 246 580T210 530T169
490T134 474Z" />
<glyph unicode="&#x201a;" glyph-name="quotesinglbase" horiz-adv-x="155" d="M-19 -108Q-25 -108 -36 -99T-48 -82Q-14 -62 8 -36T35 8Q37 22 22 44Q7 67 10 80Q14 98 35 111T80 124Q101 124 112 113Q122 92 112 43Q108 24 93 -2T57 -52T16 -92T-19 -108Z" />
<glyph unicode="&#x201c;" glyph-name="quotedblleft" horiz-adv-x="379" d="M291 474Q270 474 259 485Q249 507 258 555Q262 574 277 599T313 649T354 690T390 706Q396 706 407 697T419 680Q385 661 363 635T336 590Q335 577 349 555Q364 532 361 518Q357 500
336 487T291 474ZM155 474Q134 474 123 485Q113 507 122 555Q126 574 141 599T177 649T218 690T254 706Q260 706 271 697T283 680Q249 661 227 635T200 590Q199 577 213 555Q228 532 225 518Q221 500 200 487T155 474Z" />
<glyph unicode="&#x201d;" glyph-name="quotedblright" horiz-adv-x="294" d="M350 474Q344 474 333 483T321 500Q355 520 377 546T404 590Q406 604 391 626Q376 649 379 662Q383 680 404 693T449 706Q470 706 481 695Q491 674 481 625Q477 606 462 580T426 530T385
490T350 474ZM233 474Q227 474 216 483T204 500Q238 520 260 546T287 590Q289 604 274 626Q259 649 262 662Q266 680 287 693T332 706Q353 706 364 695Q374 674 364 625Q360 606 345 580T309 530T268 490T233 474Z" />
<glyph unicode="&#x201e;" glyph-name="quotedblbase" horiz-adv-x="271" d="M226 -108Q220 -108 209 -99T197 -82Q231 -62 253 -36T280 8Q282 22 267 44Q252 67 255 80Q259 98 280 111T325 124Q346 124 357 113Q367 92 357 43Q353 24 338 -2T302 -52T261 -92T226
-108ZM107 -108Q101 -108 90 -99T78 -82Q112 -62 134 -36T161 8Q163 22 148 44Q133 67 136 80Q140 98 161 111T206 124Q227 124 238 113Q248 92 238 43Q234 24 219 -2T183 -52T142 -92T107 -108Z" />
<glyph unicode="&#x2022;" glyph-name="bullet" horiz-adv-x="354" d="M48 239Q48 283 71 322T131 387T211 412Q261 412 289 378T317 298Q317 253 293 214T232 150T155 125Q106 125 77 159T48 239Z" />
<glyph unicode="&#x2039;" glyph-name="guilsinglleft" horiz-adv-x="299" d="M252 73Q247 81 229 100T186 142T136 189T91 227Q85 230 87 241Q90 258 100 268Q120 280 148 297T203 333T247 364Q266 378 288 396T317 420L321 423Q327 422 338 414T349 398Q347
389 265 319L183 248L236 177Q291 105 290 98Q289 90 274 82T252 73Z" />
<glyph unicode="&#x203a;" glyph-name="guilsinglright" horiz-adv-x="299" d="M88 73Q82 74 71 82T60 98Q62 107 144 177L225 248L171 319Q116 391 117 398Q118 406 133 414T155 423L162 414Q180 392 221 350T316 268Q322 258 318 241Q316 230 309 227Q283 211
248 189T177 143T118 101T88 73Z" />
</font>
</defs>
</svg>
