<?xml version="1.0" standalone="no"?>
<!DOCTYPE svg PUBLIC "-//W3C//DTD SVG 1.1//EN" "http://www.w3.org/Graphics/SVG/1.1/DTD/svg11.dtd">
<svg xmlns="http://www.w3.org/2000/svg">
<defs >
<font id="CrimsonText" horiz-adv-x="480" ><font-face
    font-family="Crimson Text"
    units-per-em="1024"
    panose-1="0 0 0 0 0 0 0 0 0 0"
    ascent="972"
    descent="-359"
    alphabetic="0" />
<glyph unicode=" " glyph-name="space" horiz-adv-x="209" />
<glyph unicode="!" glyph-name="exclam" horiz-adv-x="193" d="M92 190Q79 190 75 212Q71 235 66 274T56 359T45 449T37 527T34 575Q34 606 53 624T100 642Q125 642 143 624T162 574Q162 566 159 537T151 465T141 378T130 291T120 221Q116 190 92 190ZM99 -11Q62
-11 43 13T24 65Q24 93 42 116T97 139Q127 139 148 118T170 66Q170 35 150 12T99 -11Z" />
<glyph unicode="&quot;" glyph-name="quotedbl" horiz-adv-x="323" d="M334 434Q320 434 319 447Q317 470 312 497T300 555Q285 617 285 635Q285 646 293 660T314 686T339 698H358Q373 698 380 686Q387 673 387 633Q387 604 372 542Q357 481 354 449Q353 442 347
438T334 434ZM241 434Q227 434 226 447Q224 470 219 497T207 555Q192 617 192 635Q192 646 200 660T221 686T246 698H265Q280 698 287 686Q294 673 294 633Q294 604 279 542Q264 481 261 449Q260 442 254 438T241 434Z" />
<glyph unicode="#" glyph-name="numbersign" horiz-adv-x="473" d="M105 15Q93 15 91 24L114 171H32Q26 171 26 181Q26 203 34 232Q35 237 40 237H123L135 311H32Q26 313 26 322Q26 344 34 373Q35 378 40 378H144L168 530Q168 539 225 539Q237 539 235 530L212
378H294L318 530Q318 539 375 539Q387 539 385 530L361 378H439Q446 378 446 371Q446 347 437 318L431 311H352L339 237H439Q446 237 446 230Q446 206 437 177Q436 176 435 174T432 171H331L307 24L304 20Q297 15 277 15H254Q241 15 241 22V24L263 171H181L159
24Q159 20 151 18T128 15H105ZM190 237H273L285 311H203L190 237Z" />
<glyph unicode="$" glyph-name="dollar" horiz-adv-x="464" d="M192 -40Q153 -40 153 -31L157 -5Q110 1 47 16Q39 48 33 88T25 175Q24 185 42 185Q65 185 72 181Q79 151 103 114T167 58L201 263L197 266L162 288Q143 300 132 307T113 321T89 341Q66 361 58 376Q48
391 40 415T31 467Q31 517 61 557T138 620T235 643Q249 643 263 642L267 668Q306 668 306 660L302 638Q330 633 351 627T388 618Q399 575 404 535T410 458Q403 448 380 448Q362 448 362 455Q362 465 350 495Q343 513 328 534T291 569L261 385Q269 379 277 374Q318
348 345 330T383 300Q438 248 438 171Q438 119 406 79T324 15T216 -9Q207 -9 197 -8L192 -40ZM158 507Q158 465 225 411L254 587Q245 589 236 589Q199 589 179 567T158 507ZM305 145Q305 169 288 191T237 238L206 47Q213 46 220 46Q255 46 280 73T305 145Z" />
<glyph unicode="%" glyph-name="percent" horiz-adv-x="660" d="M91 -4Q55 -4 52 10L533 632Q545 646 552 646Q583 646 605 629L124 7Q115 -4 91 -4ZM180 337Q114 337 69 382Q38 413 28 451T27 527T69 597Q114 642 180 642Q224 642 260 622T317 566T338 489Q338
447 317 413T260 358T180 337ZM187 375Q215 375 228 402T241 466Q241 605 170 605Q118 605 118 510Q118 375 187 375ZM477 1Q411 1 366 46Q335 77 325 115T324 191T366 261Q411 306 477 306Q521 306 557 286T614 230T635 153Q635 111 614 77T557 22T477 1ZM484
38Q512 38 525 65T538 130Q538 268 468 268Q439 268 427 240T415 174Q415 38 484 38Z" />
<glyph unicode="&amp;" glyph-name="ampersand" horiz-adv-x="701" d="M223 -4Q170 -4 125 14T52 69T25 162Q25 210 47 244T102 305T171 354Q161 369 148 393T124 445T113 500Q113 551 136 585T200 638T292 656Q368 657 414 623T460 533Q460 472 424 430T320 346Q340
314 368 276T431 191Q484 253 484 262Q484 275 471 277T438 280Q437 284 437 289T436 300Q436 311 439 312L542 311Q586 311 653 314Q658 312 658 297Q658 278 650 276Q601 269 583 257Q572 250 552 226T511 174T474 131L479 125Q490 112 506 97T543 82Q563 82
581 99T609 134Q616 134 626 126T637 110Q633 98 620 80T589 42T548 10T503 -3Q470 -3 441 10T398 38L385 52Q320 -4 223 -4ZM282 407Q319 433 336 458T353 524Q353 552 337 577T289 603Q259 603 246 580T233 524Q233 493 249 463T282 407ZM258 56Q305 56 339 101Q331
111 313 136T274 192T236 249L211 288Q165 255 165 163Q165 110 192 83T258 56Z" />
<glyph unicode="&apos;" glyph-name="quotesingle" horiz-adv-x="200" d="M99 434Q85 434 84 447Q82 470 77 497T65 555Q50 617 50 635Q50 646 58 660T79 686T104 698H123Q138 698 145 686Q152 673 152 633Q152 604 137 542Q122 481 119 449Q118 442 112 438T99 434Z" />
<glyph unicode="(" glyph-name="parenleft" horiz-adv-x="309" d="M275 -137Q259 -137 235 -119T186 -74T139 -18T103 33Q71 84 49 156T27 305Q27 379 48 451T102 576Q130 621 162 660T225 724T275 748Q280 748 283 738T287 721Q287 719 286 718Q262 702 239 662T196
566T164 443T152 305Q152 229 165 159T200 33T244 -59T285 -106Q287 -108 287 -111Q287 -118 284 -127T275 -137Z" />
<glyph unicode=")" glyph-name="parenright" horiz-adv-x="309" d="M34 -137Q29 -137 26 -128T22 -112Q22 -108 24 -106Q43 -97 66 -60T109 34T143 161T157 305Q157 376 145 442T114 565T71 662T23 718Q22 719 22 721Q22 728 25 738T34 748Q59 748 97 712T176
623Q205 586 229 534T267 424T282 305Q282 245 268 187T229 77T177 -13Q137 -65 99 -101T34 -137Z" />
<glyph unicode="*" glyph-name="asterisk" horiz-adv-x="416" d="M187 300Q173 300 161 310T149 339Q149 353 156 372T170 404Q178 422 184 436T191 459Q192 465 190 467Q188 469 181 468Q166 466 146 456T105 437T67 428Q49 428 36 440T23 467Q23 485 38 496T76
508Q94 508 115 505T159 501Q188 501 188 507Q188 514 176 529T150 559Q137 573 124 589T110 624Q110 642 121 653T148 665Q167 665 177 653T193 622T202 584Q206 564 209 551T217 530Q222 520 225 520Q228 520 235 529Q240 535 247 546T264 575Q275 596 289 615T328
635Q345 635 355 624T366 598Q366 573 345 559T302 532Q268 513 257 502Q250 495 250 492Q250 489 262 484Q267 482 280 479T312 471Q341 466 366 456T392 416Q392 400 380 390T352 379Q334 379 315 394T284 420Q270 434 258 443T238 457Q233 461 229 458Q225 455
224 445Q223 431 227 394Q230 370 230 354Q230 335 221 318T187 300Z" />
<glyph unicode="+" glyph-name="plus" horiz-adv-x="532" d="M235 6Q229 6 229 14V205Q229 210 223 210H32Q26 210 26 220Q26 248 34 277Q35 282 40 282H224Q229 282 229 288V470Q227 475 234 477Q263 485 291 485L301 479V287Q301 282 305 282H497Q505 282 505
275Q505 252 495 216Q493 212 493 212Q491 210 490 210H305Q301 210 301 207V23Q287 13 241 7H238Q237 6 235 6Z" />
<glyph unicode="," glyph-name="comma" horiz-adv-x="219" d="M46 -168Q40 -168 32 -155T24 -134Q24 -133 42 -123Q59 -113 76 -89T94 -27Q94 -17 85 -7T66 20T56 62Q56 76 65 92T92 121T136 134Q160 134 176 123Q190 90 190 55Q190 18 174 -26T126 -108T48 -168H46Z" />
<glyph unicode="-" glyph-name="hyphen" horiz-adv-x="325" d="M38 193Q31 193 31 204Q31 231 35 249T43 267L286 279Q292 279 292 270Q292 248 289 232T282 210L279 204L38 193Z" />
<glyph unicode="." glyph-name="period" horiz-adv-x="204" d="M105 -11Q68 -11 49 13T30 65Q30 93 48 116T103 139Q133 139 154 118T176 66Q176 35 156 12T105 -11Z" />
<glyph unicode="/" glyph-name="slash" horiz-adv-x="425" d="M40 -35Q35 -35 30 -34T22 -28L318 739Q328 761 367 761Q392 761 404 755L108 -12Q106 -18 85 -26T40 -35Z" />
<glyph unicode="0" glyph-name="zero" horiz-adv-x="515" d="M260 -3Q214 -3 172 21T98 89T46 190T27 311Q27 375 46 432T97 532T172 600T260 625Q305 625 346 601T419 533T469 433T488 311Q488 247 470 190T419 90T346 22T260 -3ZM261 49Q305 49 327 121Q348
193 348 317Q348 434 325 506Q303 575 261 575Q218 575 192 503Q167 432 167 312Q167 195 195 123Q222 49 261 49Z" />
<glyph unicode="1" glyph-name="one" horiz-adv-x="383" d="M78 -4Q74 0 74 17Q74 33 78 33Q86 33 99 37T125 47T139 59Q145 83 145 116V452Q145 502 125 502Q111 502 55 469Q49 472 45 480T40 493Q40 503 42 505Q137 567 200 605T270 643H272Q280 643 284 624Q275
596 275 530V129Q275 109 277 91T283 57Q285 53 296 47T321 37T340 33Q343 33 343 12Q343 2 341 -4Q334 -3 308 -2T254 2T210 4Q198 4 179 3T138 1T100 -2T78 -4Z" />
<glyph unicode="2" glyph-name="two" horiz-adv-x="475" d="M35 0Q25 12 23 33Q71 86 114 144T192 258T245 365T265 451Q265 494 242 526T180 559Q149 559 126 545T82 502L72 488Q64 488 54 495T43 513Q51 531 64 549T100 591Q123 614 157 628T232 642Q282 642
321 621T382 562T405 470Q405 409 382 368T329 286Q315 265 274 224Q254 204 242 192T220 171T195 148T155 111Q153 109 154 106T159 102H330Q359 102 374 114T398 146T412 191Q413 198 429 198Q445 198 452 192Q442 149 433 105T413 14Q411 0 401 0H35Z" />
<glyph unicode="3" glyph-name="three" horiz-adv-x="456" d="M153 -4Q88 -4 36 30Q30 47 30 59Q30 82 39 100T72 119Q101 119 128 83Q154 48 198 48Q245 48 270 84T295 188Q295 246 267 282T190 319Q179 319 165 318T135 314Q128 322 128 344Q128 352 131 359Q188
368 220 403T253 493Q253 534 235 553T192 572Q136 572 98 530Q91 530 83 540T75 557Q104 595 151 618T254 642Q282 642 308 629T352 591T370 527Q370 495 357 466T325 413T285 378Q305 378 329 366T377 331T415 279T430 214Q430 165 407 125T344 56T255 12T153
-4Z" />
<glyph unicode="4" glyph-name="four" horiz-adv-x="492" d="M394 644Q412 644 412 634V244H453Q468 244 468 184Q468 177 462 175L459 174H412V4Q388 -5 346 -5Q288 -5 288 8V174H39Q24 189 24 222L367 630Q379 644 394 644ZM288 244V445Q288 454 285 454Q284
454 280 450L118 256Q117 255 117 253Q117 244 124 244H288Z" />
<glyph unicode="5" glyph-name="five" horiz-adv-x="448" d="M144 -3Q79 -3 27 31Q21 48 21 60Q21 83 30 101T63 120Q92 120 119 84Q145 49 189 49Q223 49 244 68T276 118T286 183Q286 248 253 288T174 328Q140 328 119 325T84 317L73 314Q62 320 56 328Q70 391
83 470T112 638Q228 638 291 639T366 643Q374 630 374 609Q374 555 363 535Q280 532 227 532T159 532Q148 531 146 523L127 412Q167 422 208 422Q247 422 284 407T353 366T402 307T421 235Q421 167 384 113T285 28T144 -3Z" />
<glyph unicode="6" glyph-name="six" horiz-adv-x="460" d="M237 -6Q182 -6 134 20T57 93T27 202Q27 282 59 354T147 482Q202 537 264 577T394 645Q408 642 409 628T412 611Q328 575 267 512T183 376Q180 363 185 355Q214 367 242 367Q295 367 338 343T408 277T434
186Q434 136 407 92T335 21T237 -6ZM238 46Q273 46 286 77Q300 110 300 177Q300 245 280 280T213 315Q176 315 169 287Q166 276 165 252T162 190Q162 46 238 46Z" />
<glyph unicode="7" glyph-name="seven" horiz-adv-x="470" d="M151 -11Q137 -11 126 -1T115 23L369 536H145Q123 536 114 527T95 507Q77 487 76 470T72 449Q71 446 62 444T42 442T27 447Q39 493 50 537T71 626Q74 638 90 638H385Q393 638 403 638T426 640L452
641Q459 641 459 632Q459 616 432 565L158 -10Q156 -11 151 -11Z" />
<glyph unicode="8" glyph-name="eight" horiz-adv-x="464" d="M226 -6Q170 -6 124 12T51 66T24 159Q24 254 141 315Q148 318 140 323Q126 333 113 346T88 370Q67 392 55 418T43 486Q43 529 69 562T137 614T228 633Q280 633 324 616T396 566T424 489Q424 409 314
341Q312 339 312 338Q312 336 314 334Q328 320 343 311T374 287Q401 264 420 237T440 170Q440 118 410 79T332 17T226 -6ZM256 384Q260 384 262 386Q294 418 294 483Q294 580 231 580Q173 580 173 494Q173 467 186 445Q195 430 201 422T216 408T243 388Q247 384
256 384ZM234 46Q266 46 286 71T306 134Q306 163 291 187T253 231T205 270Q198 276 191 276Q187 276 186 275Q158 260 158 159Q158 114 177 80T234 46Z" />
<glyph unicode="9" glyph-name="nine" horiz-adv-x="453" d="M63 -6Q45 -1 45 28Q129 64 190 127T274 263Q277 276 272 284Q244 272 215 272Q163 272 119 296T49 362T23 453Q23 504 50 547T123 618T220 645Q276 645 323 619T400 546T430 437Q430 357 398 285T310
157Q255 102 193 62T63 -6ZM244 324Q281 324 288 352Q291 363 292 387T295 449Q295 593 219 593Q184 593 171 562Q157 529 157 462Q157 394 177 359T244 324Z" />
<glyph unicode=":" glyph-name="colon" horiz-adv-x="202" d="M360 -11Q323 -11 304 13T285 65Q285 93 303 116T358 139Q388 139 409 118T431 66Q431 35 411 12T360 -11ZM104 281Q67 281 48 305T29 357Q29 385 47 408T102 431Q132 431 153 410T175 358Q175 327
155 304T104 281Z" />
<glyph unicode=";" glyph-name="semicolon" horiz-adv-x="215" d="M301 -166Q295 -166 287 -153T279 -132Q279 -131 297 -121Q314 -111 331 -87T349 -25Q349 -15 340 -5T321 22T311 64Q311 78 320 94T347 123T391 136Q415 136 431 125Q445 92 445 57Q445 20 429
-24T381 -106T303 -166H301ZM116 281Q79 281 60 305T41 357Q41 385 59 408T114 431Q144 431 165 410T187 358Q187 327 167 304T116 281Z" />
<glyph unicode="&lt;" glyph-name="less" horiz-adv-x="464" d="M423 -15L418 -13L43 177Q25 188 25 217Q25 232 43 241L416 428L421 430Q428 430 438 373L435 364L117 209L436 51Q439 50 439 45Q439 40 436 25T430 -2T423 -15Z" />
<glyph unicode="=" glyph-name="equal" horiz-adv-x="530" d="M38 251Q31 251 31 261Q36 323 46 323H495Q499 323 499 318Q499 293 489 257Q487 253 487 253Q485 251 484 251H38ZM38 109Q31 109 31 119Q31 145 40 176Q41 181 46 181H491Q499 181 499 176Q499 151
489 115Q487 111 487 111Q485 109 484 109H38Z" />
<glyph unicode="&gt;" glyph-name="greater" horiz-adv-x="467" d="M43 -15Q41 -15 37 -3T30 25T27 45L30 51L349 209L31 364L28 373Q39 430 45 430L50 428L423 241Q441 232 441 217Q441 188 423 177L48 -13Q42 -15 43 -15Z" />
<glyph unicode="?" glyph-name="question" horiz-adv-x="350" d="M96 190Q92 190 88 197T83 212L79 268Q75 316 85 340T126 380Q150 392 176 406T222 439T241 486Q241 536 184 536Q160 536 143 529T96 522Q64 522 44 543T23 590Q23 620 32 633Q57 646 91 646Q150
644 204 623T292 563T327 469Q327 397 297 359T206 293Q178 281 163 275T141 263Q128 253 128 221Q128 208 119 199T96 190ZM106 -11Q69 -11 50 13T31 65Q31 93 49 116T104 139Q134 139 155 118T177 66Q177 35 157 12T106 -11Z" />
<glyph unicode="@" glyph-name="at" horiz-adv-x="781" d="M389 -171Q309 -171 243 -139T128 -55T54 60T27 185Q27 275 57 347T143 471T271 549T432 577Q506 577 565 547T666 466T731 355T754 233Q754 169 735 113T676 22T572 -13Q521 -13 487 12T452 69Q452 70
451 70T447 67Q439 50 419 33T370 4T310 -7Q275 -7 248 14T207 70T192 141Q192 212 228 273T328 372T476 410Q494 410 519 409T560 404L577 401Q575 385 573 372T570 348L549 143Q548 133 548 126T547 115Q546 34 584 34Q691 34 691 214Q691 301 658 370T565 479T421
519Q330 519 258 482T144 378T102 223Q102 117 138 39T250 -83T444 -126Q481 -126 514 -113L516 -122Q516 -136 502 -145T467 -160T425 -168T389 -171ZM338 53Q355 53 373 68T407 105T434 149T446 182L461 322Q462 326 462 334Q462 346 456 352T430 359Q401 359
371 332T322 257T302 143Q302 126 303 105T313 69T338 53Z" />
<glyph unicode="A" glyph-name="A" horiz-adv-x="720" d="M15 -4Q11 0 11 11Q11 32 13 32Q21 32 37 37T68 49T88 64Q96 76 105 93T118 122L123 134L344 642Q355 668 381 668Q396 668 405 655L610 148Q619 125 627 105T643 66Q647 56 661 49T691 37T717 33Q721
33 721 16Q721 0 719 -4L658 0Q629 2 608 3T574 4L423 -4Q419 0 419 17Q419 33 423 33Q445 33 468 42T491 68Q491 69 486 86T466 135L436 208Q432 212 429 212Q419 213 395 213T333 213Q300 213 275 213T232 212Q228 212 225 207L192 131Q175 91 173 73T190 45Q208
36 221 35T245 33Q248 32 248 17Q248 4 246 -4Q201 -1 181 1T150 3T129 3T92 1T15 -4ZM333 273Q353 273 370 273T404 275L407 280L335 459L257 280Q257 276 259 276Q289 273 333 273Z" />
<glyph unicode="B" glyph-name="B" horiz-adv-x="605" d="M31 -4Q27 0 27 13Q27 33 31 33Q39 33 54 36T82 44T97 55Q103 78 103 143V521Q103 577 97 599Q95 605 82 611T53 622T30 627Q26 627 26 645Q26 661 29 664Q69 662 105 661T176 659L327 661Q364 661 402
652T476 622Q511 602 533 566T555 483Q555 449 541 422T507 378T472 354Q464 351 467 348Q491 344 516 323T560 268T578 187Q578 130 546 87T457 22T324 0L177 2Q147 2 111 1T52 -2L31 -4ZM295 371Q334 371 352 380Q368 388 375 395Q383 402 392 424T402 482Q402
606 310 606Q264 606 252 602Q243 601 243 590V385Q243 371 295 371ZM325 55Q428 55 428 176Q428 315 305 315Q274 315 254 310Q243 305 243 301V76Q243 66 250 62Q260 55 325 55Z" />
<glyph unicode="C" glyph-name="C" horiz-adv-x="638" d="M345 -7Q279 -7 221 19T119 90T50 195T25 322Q25 393 50 455T119 565T224 640T355 667Q410 667 467 660T584 638Q590 636 597 571Q601 534 603 513T601 484T577 475L561 478Q556 496 545 516T511 559Q489
582 449 596T360 611Q181 611 181 343Q181 260 205 193T277 86T392 47Q466 47 520 101Q536 117 544 137T557 174T566 190Q607 190 611 180Q611 173 607 151T596 102T582 56T570 34Q456 -7 345 -7Z" />
<glyph unicode="D" glyph-name="D" horiz-adv-x="724" d="M31 -4Q27 0 27 13Q27 33 31 33Q39 33 54 36T82 44T97 55Q103 78 103 143V521Q103 577 97 599Q95 605 82 611T53 622T30 627Q26 627 26 645Q26 661 29 664Q69 662 105 661T176 659H350Q431 659 495 633T605
562T673 459T697 336Q697 240 655 164T535 42T349 -3Q339 -3 320 -3T271 -1Q242 1 218 2T177 2L31 -4ZM365 53Q449 53 495 125T541 340Q541 414 519 473T457 568T358 603H353Q268 603 256 587Q243 570 243 524V136Q243 71 252 66Q274 53 365 53Z" />
<glyph unicode="E" glyph-name="E" horiz-adv-x="598" d="M31 -4Q27 0 27 13Q27 33 31 33Q39 33 54 36T82 44T97 55Q103 78 103 143V521Q103 577 97 599Q95 605 82 611T53 622T30 627Q26 627 26 645Q26 661 29 664Q69 662 105 661T176 659Q220 659 331 662Q387
663 429 663T499 664Q500 659 507 622T528 516Q523 511 505 511Q494 511 491 518Q479 544 456 564T405 597T351 610H313Q249 610 248 597Q246 585 245 566T243 519V365Q243 359 286 359H339Q402 359 407 363Q412 368 415 392Q417 408 421 421Q422 428 436 428Q453
428 458 423V234Q454 230 437 230Q424 230 421 238Q409 277 405 286Q401 293 400 293T393 296Q379 304 315 304Q243 304 243 295V141Q243 94 251 70Q255 54 319 54H345Q407 54 457 80Q474 89 495 114T529 170Q531 176 543 176Q567 176 573 170Q523 32 519 -2Q494
-2 454 -2T357 0Q302 1 257 2T177 2L31 -4Z" />
<glyph unicode="F" glyph-name="F" horiz-adv-x="553" d="M31 -4Q27 0 27 13Q27 33 31 33Q39 33 54 36T82 44T97 55Q103 78 103 143V521Q103 577 97 599Q95 605 82 611T53 622T30 627Q26 627 26 645Q26 661 29 664Q74 662 111 661T176 659Q241 659 344 662Q396
663 434 663T499 664Q500 659 507 622T528 516Q523 511 505 511Q494 511 491 518Q479 544 456 564T405 597T351 610H313Q249 610 248 597Q246 585 245 566T243 519V365Q243 359 286 359H339Q402 359 407 363Q412 368 415 392Q417 408 421 421Q422 428 436 428Q453
428 458 423V234Q454 230 437 230Q424 230 421 238Q409 277 405 286Q401 293 400 293T393 296Q379 304 315 304Q243 304 243 295V141Q243 88 250 59Q252 51 267 45T300 36T328 33Q332 33 332 14Q332 4 330 -4Q210 2 177 2L31 -4Z" />
<glyph unicode="G" glyph-name="G" horiz-adv-x="705" d="M343 -9Q277 -9 220 17T118 89T50 195T25 322Q25 393 50 455T121 565T225 640T354 667Q409 667 466 660T583 638Q586 638 589 616T597 563T603 507T606 474Q606 466 588 466Q569 466 557 471Q552 490 541
510T508 555Q486 580 447 595T359 611Q179 611 179 345Q179 272 199 206Q212 163 238 127T303 69T391 47Q436 47 455 63Q466 72 466 93V163Q466 216 459 240Q452 267 393 267Q391 267 390 275T389 292T392 304Q432 302 472 300T541 298Q556 298 676 304Q679 295
679 284Q679 266 675 266Q652 266 622 251Q606 244 606 172V114Q606 96 609 87Q612 78 612 76Q612 59 591 48Q554 29 534 21Q513 12 461 2T343 -9Z" />
<glyph unicode="H" glyph-name="H" horiz-adv-x="727" d="M30 -4Q26 0 26 13Q26 33 28 33Q36 33 51 36T80 46T95 57Q102 82 102 138V520Q102 583 95 598Q92 606 80 612T54 621T32 625Q28 625 28 645Q28 660 30 662L169 656Q182 655 218 657T315 662Q318 658 318
641Q318 625 314 625Q308 625 294 621T266 612T250 601Q242 579 242 516V374L244 371L364 369Q378 369 407 369T481 371Q483 373 483 375V520Q483 574 476 599Q474 605 462 611T435 621T413 625Q411 625 410 633T409 650T412 662L561 656Q576 656 696 662Q699 653
699 644Q699 625 694 625Q688 625 674 621T646 612T631 601Q627 586 625 565T623 516V142Q623 115 625 94T631 57Q633 53 645 48T672 38T693 34Q697 34 697 13Q697 5 694 -4Q690 -4 675 -3T635 0Q610 2 591 3T559 4Q546 4 524 3T478 1T435 -2T410 -4Q408 -1 407
8T407 25T411 33Q419 33 434 37T462 47T477 59Q483 82 483 138V305L481 309L364 311Q240 310 240 308L242 306V142Q242 116 244 95T250 58Q252 54 264 48T291 38T312 33Q316 33 316 18T314 -4Q265 -1 232 1T171 4Q138 4 105 2T30 -4Z" />
<glyph unicode="I" glyph-name="I" horiz-adv-x="346" d="M30 -4Q26 0 26 12Q26 33 29 33Q37 33 52 37T80 47T95 58Q99 72 100 92T102 138V522Q102 586 94 600Q91 606 79 611T53 621T32 625Q28 625 28 642Q28 660 30 662L78 659Q100 657 114 656T141 655T175 656Q195
656 315 662Q318 653 318 644Q318 625 314 625Q308 625 293 621T265 612T249 601Q246 589 244 568T242 531V146Q242 118 244 96T250 58Q252 54 264 48T291 38T312 33Q316 33 316 14Q316 4 314 -4Q310 -4 295 -3T254 0Q228 2 208 3T175 4Q157 4 126 2T68 -1T30 -4Z"
/>
<glyph unicode="J" glyph-name="J" horiz-adv-x="370" d="M-28 -218Q-62 -218 -85 -200Q-100 -176 -100 -148Q-100 -123 -81 -105T-37 -87Q-13 -87 15 -118Q42 -148 56 -148Q101 -148 114 -78Q121 -43 124 10T128 135V522Q128 586 120 600Q117 606 105 611T79
621T58 625Q54 625 54 642Q54 660 56 662L201 656Q211 655 246 657T341 662Q344 653 344 644Q344 625 340 625Q334 625 319 621T291 612T275 601Q268 576 268 516V143Q268 30 232 -51T130 -175T-28 -218Z" />
<glyph unicode="K" glyph-name="K" horiz-adv-x="720" d="M30 -4Q26 0 26 12Q26 33 29 33Q37 33 52 37T80 47T95 58Q99 72 100 92T102 138V522Q102 586 94 600Q91 606 79 611T53 621T32 625Q28 625 28 642Q28 660 30 662L175 656Q185 655 220 657T315 662Q318
653 318 644Q318 625 314 625Q308 625 293 621T265 612T249 601Q242 576 242 516V358Q242 350 248 350H256Q262 350 300 388Q343 432 388 481T482 586Q490 597 490 609Q490 616 480 619T455 625T430 627Q426 627 424 641T424 662Q535 656 558 656Q570 656 690 662Q692
658 692 643T688 627L682 626Q672 626 661 625T639 621Q626 618 605 609T572 586L400 396Q388 383 399 367L636 58Q647 45 670 39T706 33Q710 33 710 14Q710 3 706 -4L643 0Q612 2 590 3T555 4Q528 4 493 2T413 -4Q409 0 409 17Q409 33 413 33Q424 33 442 39T460
53Q460 86 282 286Q279 289 268 289Q242 289 242 272V146Q242 118 244 96T250 58Q252 54 264 48T291 38T312 33Q316 33 316 14Q316 4 314 -4Q310 -4 295 -3T254 0Q228 2 208 3T175 4Q157 4 126 2T68 -1T30 -4Z" />
<glyph unicode="L" glyph-name="L" horiz-adv-x="598" d="M30 -4Q26 0 26 13Q26 33 30 33Q38 33 53 36T81 44T96 55Q102 78 102 143V525Q102 586 94 600Q91 606 79 611T53 621T32 625Q28 625 28 642Q28 660 30 662L175 656Q185 655 220 657T315 662Q318 653 318
644Q318 625 314 625Q308 625 293 621T265 612T249 601Q245 588 244 568T242 521V142Q242 94 250 70Q254 54 318 54H344Q406 54 456 80Q473 89 494 114T528 170Q530 176 542 176Q566 176 572 170Q522 32 518 -2Q490 -2 446 -2T340 0Q279 1 239 2T176 2L30 -4Z"
/>
<glyph unicode="M" glyph-name="M" horiz-adv-x="907" d="M19 -4Q15 0 15 13Q15 32 18 32Q30 32 53 39T97 57T119 83L123 131Q134 310 136 429T141 587Q141 598 138 605Q136 611 121 615T90 623T64 626Q60 626 60 647Q60 658 64 662Q74 662 94 661T138 658T179
656Q193 656 214 657T256 660T284 662Q289 646 309 599T366 474Q402 395 429 335T473 230H475Q477 230 477 231Q515 326 546 405T599 546L632 658Q641 657 661 657T713 656L839 662Q843 657 843 646Q843 625 838 625H837Q812 625 795 613Q779 602 781 572L801 152Q804
92 816 60Q819 54 830 48T855 38T874 33Q878 33 878 13Q878 4 876 -4Q869 -3 845 -2T794 2T749 4Q731 4 700 2T642 -1T604 -4Q599 1 599 12Q599 33 602 33Q610 33 623 37T648 48T664 61Q672 77 672 89Q672 100 672 115T670 148L662 402Q658 469 654 469Q652 469
649 462L476 31Q472 21 460 10T436 -2Q435 -2 427 0L207 494L190 109Q190 95 190 86T191 73Q193 67 205 60T235 47T267 37T289 33Q293 33 293 13Q293 4 291 -4Q231 -4 201 -3T157 -1T138 0T123 1T91 0T19 -4Z" />
<glyph unicode="N" glyph-name="N" horiz-adv-x="777" d="M628 -5Q617 -5 597 18L190 524V141Q190 88 198 70Q204 59 222 51T259 38T288 34Q290 34 291 26T292 8T290 -4Q242 -4 209 0T155 4Q131 4 117 3T86 0T31 -4Q28 -1 28 14Q28 33 31 33Q54 33 79 42T116 71Q126
87 126 144V537Q126 589 111 608Q108 613 93 616T60 622T32 625Q30 625 29 633T27 650T30 662L94 658Q117 656 135 655T167 654Q184 654 208 656T265 662Q285 622 320 574T400 473T492 362T583 248Q584 252 584 262T585 289V524Q585 582 572 596Q566 604 551 610T519
621T494 625Q492 625 491 633T489 650T491 662Q537 658 570 656T623 654Q640 654 666 656T715 660T747 662Q751 655 751 644Q751 625 746 625Q692 625 663 592Q649 575 649 519V139Q649 121 650 86T653 -1Q649 -5 628 -5Z" />
<glyph unicode="O" glyph-name="O" horiz-adv-x="703" d="M125 89Q30 189 30 328Q30 398 55 459T124 567T227 640T351 667Q417 667 475 641T578 568T647 460T673 328Q673 189 578 89Q513 21 432 -1T271 -2T125 89ZM367 46Q417 46 450 81T500 175T517 309Q517 364
509 414T481 510Q462 557 425 584T336 611Q283 611 248 573Q213 534 200 478T186 350Q186 248 225 153Q245 105 281 76T367 46Z" />
<glyph unicode="P" glyph-name="P" horiz-adv-x="572" d="M31 -4Q27 0 27 13Q27 33 31 33Q39 33 54 36T82 44T97 55Q103 78 103 143V521Q103 577 97 599Q95 605 82 611T53 622T30 627Q26 627 26 645Q26 661 29 664Q74 662 111 661T176 659Q190 659 206 659T240
661Q257 662 273 662T304 662Q364 662 415 646Q450 636 479 613T527 556T545 479Q545 425 517 380T440 308T331 280Q311 280 292 286T265 302Q261 308 260 324T264 340Q278 332 309 332Q393 332 393 468Q393 605 301 605Q266 605 255 597Q243 588 243 499V141Q243
88 250 59Q252 51 267 45T300 36T328 33Q332 33 332 14Q332 4 330 -4Q210 2 177 2L31 -4Z" />
<glyph unicode="Q" glyph-name="Q" horiz-adv-x="730" d="M553 -143Q505 -143 456 -115Q401 -83 353 -49T258 0Q222 11 184 37T109 103Q72 143 49 202T25 328Q25 398 50 459T118 567T220 640T344 667Q410 667 468 641T570 568T639 460T664 328Q664 264 644 209T591
110T519 40T440 5Q470 -8 499 -25T550 -53Q567 -61 596 -67T662 -74Q694 -74 714 -69T738 -64Q750 -64 750 -84V-89Q707 -112 652 -127T553 -143ZM360 51Q410 51 443 84T493 176T510 309Q510 364 502 412T474 505Q455 550 418 576T329 603Q277 603 244 571T195
481T179 350Q179 248 218 155Q238 109 274 80T360 51Z" />
<glyph unicode="R" glyph-name="R" horiz-adv-x="682" d="M638 -7Q589 -7 549 2T484 24Q459 36 435 60Q423 72 413 83T392 110T362 154T315 228Q276 287 263 292Q261 293 252 293Q243 293 243 277V141Q243 88 250 59Q252 51 267 45T300 36T328 33Q332 33 332 14Q332
4 330 -4Q270 -1 232 1T177 2L31 -4Q27 0 27 13Q27 33 31 33Q39 33 54 36T82 44T97 55Q103 78 103 143V521Q103 577 97 599Q95 605 82 611T53 622T30 627Q26 627 26 645Q26 661 29 664Q75 662 111 661T176 659Q224 660 251 660T292 660T316 660Q356 660 396 650T471
620T525 568T546 492Q546 448 528 410T482 346T423 310Q415 307 420 299Q442 262 454 243T474 213T495 185T529 135Q546 111 569 88T620 49T673 33Q677 29 677 15Q677 3 673 -5Q666 -6 658 -6T638 -7ZM285 348H312Q351 348 372 382T394 472Q394 605 301 605Q266
605 255 597Q243 588 243 499V391Q243 363 254 356T285 348Z" />
<glyph unicode="S" glyph-name="S" horiz-adv-x="483" d="M238 -10Q198 -10 151 -4T48 16Q43 38 38 71T29 135T25 182Q28 192 43 192Q74 192 75 186Q81 156 102 124T153 69T218 47Q317 47 317 156Q317 185 295 209T243 252T192 285L162 305Q128 328 98 352T50
409T31 489Q31 540 62 581T142 646T244 670Q265 670 287 667T326 661Q356 655 377 650T412 642Q417 593 420 552T423 476Q419 466 408 466Q378 466 377 473Q373 507 355 539T309 592T245 614Q211 614 188 593T164 526Q164 485 200 454T295 386L346 354Q374 337
399 317T440 264T456 175Q456 122 426 80T346 14T238 -10Z" />
<glyph unicode="T" glyph-name="T" horiz-adv-x="665" d="M188 -4Q184 0 184 12Q184 33 187 33Q195 33 210 37T238 47T253 58Q257 72 258 91T260 135V497Q260 575 252 589L247 598Q243 602 221 604T170 607Q129 607 103 585T63 509Q61 504 53 504Q31 504 24 511L43
674Q65 669 82 666T112 663Q163 663 221 660T331 657Q382 657 441 660T551 663Q564 663 581 666T620 674L639 510Q632 503 610 503Q602 503 600 508Q575 607 493 607Q413 607 408 589Q404 575 402 553T400 500V139Q400 114 402 94T408 58Q410 54 422 48T449 38T470
33Q474 33 474 14Q474 4 472 -4Q468 -4 453 -3T412 0Q386 2 366 3T333 4Q315 4 284 2T226 -1T188 -4Z" />
<glyph unicode="U" glyph-name="U" horiz-adv-x="733" d="M359 -5Q278 -5 217 28T123 132T89 311V522Q89 586 81 600Q78 606 66 611T40 621T19 625Q15 625 15 642Q15 660 17 662L162 656Q172 655 207 657T302 662Q305 653 305 644Q305 625 301 625Q295 625 280
621T252 612T236 601Q229 576 229 516V279Q229 187 270 131T383 75Q457 75 504 123T552 286V524Q552 582 539 596Q533 604 518 610T486 621T461 625Q459 625 458 633T456 650T458 662Q504 658 537 656T590 654Q607 654 633 656T682 660T714 662Q718 655 718 644Q718
625 713 625Q659 625 630 592Q616 575 616 519V291Q616 194 584 128T493 29T359 -5Z" />
<glyph unicode="V" glyph-name="V" horiz-adv-x="729" d="M354 -10Q340 -10 331 3L126 510L93 592Q89 603 75 610T46 621T20 625Q16 625 16 642Q16 658 18 662L80 658Q108 656 128 655T162 654L313 662Q317 658 317 642Q317 625 313 625Q302 625 286 621T259 609T247
589Q247 581 270 523L404 193L545 522Q565 568 565 590Q565 605 545 615T494 625Q491 627 491 641Q491 654 493 662Q535 659 556 657T586 655T602 654T619 655T653 658T723 662Q727 658 727 647Q727 626 725 626Q714 626 690 618T651 597Q642 588 613 524L397 27Q389
10 377 0T354 -10Z" />
<glyph unicode="W" glyph-name="W" horiz-adv-x="1094" d="M392 -13Q386 -13 383 -8L112 527Q99 553 88 572T66 604Q58 614 39 619T6 625Q2 625 2 644Q2 660 4 662L146 656Q162 656 282 662Q284 656 284 641T282 625Q236 625 236 591L248 560L432 195Q437 182
447 200L509 310L399 527Q368 589 356 600Q331 625 298 625Q294 625 294 644Q294 660 296 662L435 656Q447 656 567 662Q569 656 569 641T567 625Q551 625 536 618T521 593L533 562L591 447L639 542Q650 562 654 575T659 594Q659 606 647 613T618 623T585 626Q583
626 582 634T581 651T584 662Q632 659 662 657T703 656L828 662Q830 656 830 642T828 626Q813 626 789 617T755 596Q727 567 699 510L629 372L716 201Q721 190 729 205L900 544Q918 580 918 594Q918 606 905 613T876 623T847 626Q845 626 844 634T843 651T846 662Q894
659 924 657T965 656L1090 662Q1093 655 1093 637Q1093 626 1090 626Q1075 626 1052 617T1019 598Q991 569 961 510L714 19Q697 -13 680 -13Q672 -13 669 -8L546 233L426 19Q408 -13 392 -13Z" />
<glyph unicode="X" glyph-name="X" horiz-adv-x="768" d="M31 -4Q27 7 27 10Q27 33 31 33Q40 33 58 37T94 49T119 67L312 332L178 537Q135 603 124 610Q103 625 71 625Q67 625 67 642Q67 658 71 662L130 659Q183 656 212 656Q236 656 356 662Q358 660 358 651T357
633T354 625Q339 625 321 620T301 604Q301 595 309 582L420 414L453 455Q464 468 473 478T489 499Q553 579 553 594Q553 606 530 615T479 625Q477 625 476 633T475 650T478 662Q589 656 602 656Q615 656 735 662Q738 658 738 641Q738 625 734 625Q720 625 691 616T645
586L458 356Q631 96 648 76Q667 54 693 44T733 33Q736 33 736 11Q736 2 733 -4Q613 2 587 2Q555 2 496 -1L429 -4Q427 -1 427 8T427 25T431 33Q440 33 453 36T476 46T487 61Q487 68 484 72L354 269Q214 82 214 66Q214 51 238 42T288 33Q293 33 293 12Q293 2 291
-4Q192 2 159 2L31 -4Z" />
<glyph unicode="Y" glyph-name="Y" horiz-adv-x="669" d="M195 -4Q191 0 191 12Q191 33 194 33Q202 33 217 37T245 47T260 58Q267 83 267 139V309Q267 317 236 373L173 484L142 537Q125 567 112 585T88 610Q63 625 35 625Q31 625 31 642Q31 658 35 662Q73 660
111 658T177 656Q200 656 320 662Q322 660 322 651T321 633T318 625Q303 625 285 620T265 604Q265 596 273 582L373 405Q379 400 383 407Q398 428 416 458T452 518T480 571T492 603Q492 625 428 625Q426 625 425 633T424 650T427 662Q517 656 548 656Q574 656 661
662Q664 653 664 644Q664 626 660 626Q642 626 619 617T582 590Q572 576 551 545T506 474T459 398T422 335T407 304V145Q407 117 409 96T415 58Q417 54 429 48T456 38T477 33Q481 33 481 14Q481 4 479 -4Q475 -4 460 -3T419 0Q393 2 373 3T340 4Q322 4 291 2T233
-1T195 -4Z" />
<glyph unicode="Z" glyph-name="Z" horiz-adv-x="635" d="M38 0Q30 10 30 26Q30 39 34 43L402 599H231Q195 599 172 592T133 567Q123 555 118 547T108 528T96 497L91 484Q90 478 78 478Q49 478 45 482Q69 610 75 662Q99 656 237 656H346Q392 656 450 658T578 666Q581
665 584 653T588 633L223 82Q216 72 216 67Q216 57 230 57H389Q459 57 503 90T565 174Q568 180 578 180Q602 180 609 174Q603 157 593 127T576 79Q570 61 564 39T555 0H38Z" />
<glyph unicode="[" glyph-name="bracketleft" horiz-adv-x="310" d="M282 -133Q214 -122 157 -116T53 -110Q34 -110 34 -87V747Q34 770 53 770Q109 770 166 776T282 793Q288 793 288 778Q288 756 278 752Q263 744 242 737T200 725T166 720Q157 720 157 711V-52Q157
-60 165 -60Q182 -60 217 -69T278 -92Q288 -96 288 -117Q288 -131 282 -133Z" />
<glyph unicode="\" glyph-name="backslash" horiz-adv-x="413" d="M358 -39L334 -37L21 755Q29 761 42 761Q91 761 101 739L388 13Q391 7 391 -6Q391 -24 380 -31T358 -39Z" />
<glyph unicode="]" glyph-name="bracketright" horiz-adv-x="310" d="M27 -133Q21 -131 21 -117Q21 -96 31 -92Q57 -79 92 -70T144 -60Q152 -60 152 -52V711Q152 720 143 720Q131 720 110 724T68 736T31 752Q21 756 21 778Q21 793 27 793Q86 782 143 776T256 770Q275
770 275 747V-87Q275 -110 256 -110Q210 -110 153 -116T27 -133Z" />
<glyph unicode="^" glyph-name="asciicircum" horiz-adv-x="388" d="M69 469Q65 469 62 476T57 492L56 499Q61 513 86 538T142 598T193 677Q196 683 196 686T203 690Q214 690 224 674T248 635T278 588Q307 551 332 528T360 500Q360 494 356 482T347 469Q339 469
314 486T260 529T207 582Q187 556 158 530T104 486T69 469Z" />
<glyph unicode="_" glyph-name="underscore" horiz-adv-x="529" d="M37 -43Q30 -43 30 -33Q34 13 45 13H494Q498 13 498 8Q498 4 497 -4T490 -32Q487 -43 479 -43H37Z" />
<glyph unicode="`" glyph-name="grave" horiz-adv-x="247" d="M198 522Q193 522 176 532T136 560T92 596T56 631T42 658Q42 667 53 677T88 687Q113 687 122 678Q165 628 190 588T215 540Q215 535 209 529T198 522Z" />
<glyph unicode="a" glyph-name="a" horiz-adv-x="486" d="M148 -7Q93 -7 61 23T28 100Q28 139 52 168T114 214Q128 220 140 224T162 233Q200 245 223 250T257 260Q266 263 266 275V311Q266 393 216 393Q158 393 158 326Q158 304 140 294T100 283Q54 283 37 313Q37
339 55 363T104 406T173 437T251 449Q321 449 358 411T396 271V109Q396 75 420 75Q438 75 454 88Q461 84 461 73Q461 47 454 36Q440 23 409 9T349 -6Q325 -6 303 8T274 42Q273 42 263 35T248 24Q228 11 202 2T148 -7ZM211 65Q237 65 251 77T266 108V209L214 191Q193
184 176 170T158 133Q158 97 173 81T211 65Z" />
<glyph unicode="b" glyph-name="b" horiz-adv-x="564" d="M121 -9Q119 -9 111 -5T96 6T89 15Q89 21 93 51T97 128V531Q97 573 91 603Q87 619 39 619H30Q24 619 24 639Q24 656 30 656Q88 661 139 673T213 692L223 695H225Q229 695 233 689T238 678Q227 631 227
577V431Q227 421 228 419T233 418Q270 447 320 447Q380 447 430 418T510 338T540 226Q540 160 509 107T424 23T305 -8Q269 -8 249 -4T213 5T176 10Q161 10 145 1T121 -9ZM308 46Q353 46 374 86T396 193Q396 386 309 386Q270 386 249 364T227 318V129Q227 89 250
68T308 46Z" />
<glyph unicode="c" glyph-name="c" horiz-adv-x="452" d="M252 -7Q188 -7 137 24T56 108T26 226Q26 288 58 338T144 417T265 447Q316 447 359 430T421 388Q421 296 367 296Q328 296 308 346Q299 369 286 380T248 392Q168 392 168 242Q168 73 281 73Q315 73 344
83Q364 89 375 94T395 105T418 122Q427 118 427 103Q427 90 423 83Q417 67 392 46T331 9T252 -7Z" />
<glyph unicode="d" glyph-name="d" horiz-adv-x="554" d="M226 -6Q172 -6 125 21T48 97T18 212Q18 279 49 332T135 416T258 447Q300 447 328 438Q331 438 331 452V531Q331 573 325 603Q321 619 273 619H264Q258 619 258 639Q258 656 264 656Q322 661 373 673T447
692L457 695H459Q463 695 467 689T472 678Q461 631 461 577V147Q461 125 463 100T472 67Q480 61 490 61T516 58L526 57Q529 56 529 45Q529 20 523 20Q498 19 466 14T402 4T352 -4L337 -6Q331 -7 331 11V32Q331 40 327 36Q285 -6 226 -6ZM252 55Q286 55 308 74T331
122V304Q331 316 329 327T320 355Q313 372 296 382T252 393Q205 393 184 356T162 236Q162 55 252 55Z" />
<glyph unicode="e" glyph-name="e" horiz-adv-x="461" d="M240 -7Q179 -7 128 24T46 107T15 221Q15 285 42 336T119 417T232 447Q295 447 339 418T407 345T431 257Q431 234 422 227T384 220H158Q152 220 152 213Q152 177 165 145T205 93T270 73Q304 73 333 83Q353
89 364 94T384 105T407 122Q416 118 416 103Q416 90 412 83Q406 67 381 46T319 9T240 -7ZM159 275H286Q300 275 300 294Q300 332 280 362T227 392Q198 392 182 372T159 326T152 285Q152 275 159 275Z" />
<glyph unicode="f" glyph-name="f" horiz-adv-x="380" d="M42 -4Q38 0 38 17Q38 33 42 33Q50 33 64 37T92 48T107 58Q114 86 114 134V363Q114 370 109 370H42Q39 370 39 376Q39 385 44 397T60 420T81 430H109Q114 430 114 436V443Q114 513 143 570T222 661T336
696Q380 696 412 686T453 662Q456 643 456 622Q456 600 443 583T406 565Q385 565 370 583Q353 602 340 618T306 634Q274 634 259 588Q244 542 244 475V434Q244 429 249 429H360Q365 429 365 422Q365 394 353 370H250Q244 370 244 364V149Q244 83 251 58Q253 54
266 48T293 38T314 33Q316 33 317 25T318 8T316 -4Q310 -4 293 -3T254 0T211 3T179 4Q167 4 147 3T104 1T65 -2T42 -4Z" />
<glyph unicode="g" glyph-name="g" horiz-adv-x="485" d="M203 -218Q153 -218 112 -205T47 -166T23 -108Q23 -86 46 -61T105 -25Q79 -14 58 10T37 64Q37 89 59 107T113 142Q94 153 76 175T47 225T36 282Q36 337 61 374T128 430T223 449Q260 449 308 436Q332 429
351 426T385 423H440Q442 423 446 414T455 396T459 381Q459 367 453 367H394Q390 366 390 364L398 337Q401 324 403 311T405 287Q405 245 382 207T318 145T226 120Q206 120 189 121T158 125Q145 121 140 111T134 95Q134 86 151 81Q165 77 193 74T249 70T292 69Q451
62 453 -36Q453 -73 432 -106T374 -164T293 -203T203 -218ZM222 172Q260 172 268 200T276 268Q276 332 264 364T216 396Q192 396 181 382T168 346T165 299V294Q165 262 169 234T185 189T222 172ZM220 -157Q272 -157 304 -138T337 -81Q337 -36 169 -36Q144 -43 131
-53T118 -86Q118 -116 149 -136T220 -157Z" />
<glyph unicode="h" glyph-name="h" horiz-adv-x="591" d="M30 -4Q26 0 26 17Q26 33 30 33Q38 33 53 37T81 48T95 58Q102 86 102 134V531Q102 554 101 572T97 603Q93 619 45 619H36Q30 619 30 639Q30 656 36 656Q94 661 145 673T219 692L229 695H231Q235 695 239
689T244 678Q232 633 232 577V391Q232 384 236 384Q237 384 241 388Q263 413 303 429T386 446Q444 446 480 397T517 248V149Q517 83 524 58Q526 54 539 48T566 38T587 33Q589 33 590 25T591 8T589 -4Q583 -4 566 -3T527 0T484 3T452 4Q436 4 408 2T353 -1T319 -4Q315
0 315 17Q315 33 319 33Q327 33 340 37T366 48T380 58Q387 86 387 134V224Q387 298 367 329T302 361Q232 361 232 317V149Q232 83 239 58Q241 54 253 48T279 38T298 33Q300 33 301 25T302 8T300 -4Q292 -3 266 -2T212 2T167 4Q155 4 135 3T92 1T53 -2T30 -4Z" />
<glyph unicode="i" glyph-name="i" horiz-adv-x="327" d="M32 -4Q28 0 28 15Q28 30 32 30Q40 30 53 34T78 44T91 55Q98 83 98 131V277Q98 333 80 352Q72 362 59 366T35 371T25 375Q25 404 30 404Q39 404 63 408T116 418T172 430T213 440L224 443Q229 443 234 437T239
426Q234 382 231 357T228 326V146Q228 89 236 55Q238 51 249 45T274 35T292 30Q295 30 295 15T294 -4Q286 -3 261 -2T207 2T163 4Q147 4 119 2T66 -1T32 -4ZM158 542Q127 542 106 563T84 616Q84 647 105 668T158 690Q189 690 210 669T232 616Q232 585 211 564T158
542Z" />
<glyph unicode="j" glyph-name="j" horiz-adv-x="305" d="M6 -218Q-10 -209 -10 -194Q-10 -185 -9 -184Q6 -176 10 -172T28 -154Q59 -122 76 -54T93 100V277Q93 333 75 352Q67 362 54 366T31 371T21 375Q21 404 25 404Q34 404 58 408T110 417T160 428T190 435L219
443Q225 443 230 437T235 426Q233 400 230 385T225 358T223 326V120Q223 -27 175 -102Q163 -121 140 -141T91 -179T41 -207T6 -218ZM158 542Q127 542 106 563T84 616Q84 647 105 668T158 690Q189 690 210 669T232 616Q232 585 211 564T158 542Z" />
<glyph unicode="k" glyph-name="k" horiz-adv-x="620" d="M30 -4Q26 0 26 17Q26 33 30 33Q38 33 53 37T81 48T95 58Q102 86 102 134V531Q102 554 101 572T97 603Q93 619 45 619H36Q30 619 30 639Q30 656 36 656Q75 660 111 667T176 681T219 692L231 695Q235 696
239 690T244 678Q232 633 232 577V259Q259 267 266 272Q286 289 308 308T350 344Q367 359 375 368T384 388Q384 402 367 402T338 405Q337 409 337 414T336 426Q336 440 340 441L454 440Q483 440 509 440T558 442Q562 441 562 432T562 414T559 405Q529 405 489 382Q420
342 352 273Q430 188 478 131T546 59Q559 48 580 41T610 33Q615 33 615 14Q615 3 613 -3L487 3Q475 4 456 3T411 -1L354 -4Q350 0 350 17Q350 33 354 33Q364 33 377 37T390 46Q390 48 389 49L243 216L232 213V149Q232 83 239 58Q241 54 254 48T281 38T302 33Q304
33 305 25T306 8T304 -4Q298 -4 281 -3T242 0T199 3T167 4Q155 4 135 3T92 1T53 -2T30 -4Z" />
<glyph unicode="l" glyph-name="l" horiz-adv-x="334" d="M30 -4Q26 0 26 17Q26 33 30 33Q38 33 53 37T81 48T95 58Q102 86 102 134V531Q102 554 101 572T97 603Q93 619 45 619H36Q30 619 30 639Q30 656 36 656Q94 661 145 673T219 692L229 695H231Q235 695 239
689T244 678Q233 631 233 577L232 149Q232 83 239 58Q241 54 254 48T281 38T302 33Q304 33 305 25T306 8T304 -4Q298 -4 281 -3T242 0T199 3T167 4Q155 4 135 3T92 1T53 -2T30 -4Z" />
<glyph unicode="m" glyph-name="m" horiz-adv-x="888" d="M31 -4Q27 0 27 17Q27 33 31 33Q39 33 54 37T82 48T96 58Q103 86 103 134V271Q103 327 85 346Q77 356 64 360T40 365T30 369Q30 404 35 404Q65 406 108 416T209 438L229 443Q234 443 239 437T244 426L240
395Q240 390 241 389Q243 389 248 394Q303 446 387 446Q459 446 493 377Q555 445 673 446Q731 446 767 397T804 248V149Q804 83 811 58Q813 54 825 48T852 38T872 33Q874 33 875 25T876 8T874 -4Q868 -4 851 -3T813 0T771 3T739 4Q723 4 694 2T639 -1T604 -4Q600
0 600 17Q600 33 604 33Q612 33 626 37T653 48T667 58Q674 86 674 134V224Q674 293 654 327T588 361Q560 361 541 351T516 315Q516 306 517 292T518 248V149Q518 83 525 58Q527 54 539 48T566 38T586 33Q588 33 589 25T590 8T588 -4Q582 -4 565 -3T527 0T485 3T453
4Q437 4 408 2T353 -1T318 -4Q314 0 314 17Q314 33 318 33Q326 33 340 37T367 48T381 58Q388 86 388 134V224Q388 298 368 329T302 361Q271 361 252 350T233 317V149Q233 83 240 58Q242 54 254 48T280 38T299 33Q301 33 302 25T303 8T301 -4Q293 -3 267 -2T213
2T168 4Q156 4 136 3T93 1T54 -2T31 -4Z" />
<glyph unicode="n" glyph-name="n" horiz-adv-x="605" d="M24 -4Q20 0 20 17Q20 33 24 33Q32 33 46 37T74 48T89 58Q96 86 96 134V271Q96 327 78 346Q70 356 57 360T33 365T23 369Q23 404 28 404Q54 404 102 415T211 440L216 441Q217 442 220 442L222 443Q227
443 232 437T237 426L233 395Q233 390 234 389Q236 389 241 394Q296 446 380 446Q438 446 474 397T511 248V149Q511 83 518 58Q520 54 533 48T560 38T581 33Q583 33 584 25T585 8T583 -4Q577 -4 560 -3T521 0T478 3T446 4Q430 4 402 2T347 -1T313 -4Q309 0 309
17Q309 33 313 33Q321 33 334 37T360 48T374 58Q381 86 381 134V224Q381 298 361 329T295 361Q264 361 245 350T226 317V149Q226 83 233 58Q235 54 247 48T273 38T292 33Q294 33 295 25T296 8T294 -4Q286 -3 260 -2T206 2T161 4Q149 4 129 3T86 1T47 -2T24 -4Z"
/>
<glyph unicode="o" glyph-name="o" horiz-adv-x="523" d="M261 -7Q196 -7 143 23T58 105T26 220Q26 284 57 335T142 416T261 447Q327 447 380 417T464 335T496 220Q496 157 465 106T381 24T261 -7ZM271 48Q299 48 317 67T343 117T352 185Q352 392 247 392Q219
392 202 372T176 320T168 251Q168 48 271 48Z" />
<glyph unicode="p" glyph-name="p" horiz-adv-x="567" d="M28 -218Q24 -214 24 -198Q24 -181 28 -181Q36 -181 51 -177T79 -166T93 -156Q100 -128 100 -80V271Q100 327 82 346Q74 356 61 360T37 365T27 369Q27 404 32 404Q63 404 103 411T193 433Q223 443 226
443Q232 443 232 430Q232 427 232 423T230 412Q273 446 322 446Q386 446 435 416T513 335T542 227Q542 153 510 101T421 20T292 -8Q268 -8 252 -4T234 1Q230 1 230 -15V-65Q230 -131 237 -156Q239 -160 252 -166T279 -176T300 -181Q302 -181 303 -189T304 -206T302
-218Q296 -218 279 -217T240 -214T197 -211T165 -210Q153 -210 133 -211T90 -213T51 -216T28 -218ZM308 46Q398 46 398 194Q398 388 307 388Q272 388 251 367T230 314V125Q230 87 255 67T308 46Z" />
<glyph unicode="q" glyph-name="q" horiz-adv-x="516" d="M269 -218Q265 -214 265 -198Q265 -181 269 -181Q277 -181 292 -177T320 -166T334 -156Q341 -128 341 -80V8Q341 22 337 22Q291 -8 244 -8Q189 -8 140 21T59 100T28 213Q28 281 60 334T146 417T266 447Q312
447 339 438T392 429Q406 429 424 438T446 448Q449 448 457 444T473 434T480 424Q477 403 474 370T471 307V-65Q471 -131 478 -156Q480 -160 493 -166T520 -176T541 -181Q543 -181 544 -189T545 -206T543 -218Q537 -218 520 -217T481 -214T438 -211T406 -210Q394
-210 374 -211T331 -213T292 -216T269 -218ZM264 55Q294 55 317 72T341 116V302Q341 393 259 393Q172 393 172 244Q172 214 175 181T187 120T214 73T264 55Z" />
<glyph unicode="r" glyph-name="r" horiz-adv-x="465" d="M31 -4Q27 0 27 17Q27 33 31 33Q39 33 54 37T82 48T96 58Q103 86 103 134V271Q103 327 85 346Q77 356 64 360T40 365T30 369Q30 404 35 404Q61 404 107 415T206 438L229 443Q234 443 239 437T244 426Q243
420 242 402T239 382Q289 447 352 447Q397 447 438 410Q438 358 426 333T380 308Q360 308 334 331Q308 354 288 354Q268 354 256 339T239 299T233 249V148Q233 83 240 58Q242 54 254 48T280 38T299 33Q301 33 302 25T303 8T301 -4Q293 -3 267 -2T213 2T168 4Q156
4 136 3T93 1T54 -2T31 -4Z" />
<glyph unicode="s" glyph-name="s" horiz-adv-x="392" d="M183 -10Q160 -10 132 -5T80 9T43 28Q31 97 31 150Q36 153 46 153Q78 153 79 144Q96 45 187 45Q211 45 227 56T243 89Q243 110 226 125T186 152T144 174Q86 202 58 235T30 318Q30 364 54 392T118 435T204
449Q291 449 334 429Q344 385 344 305Q344 296 331 296Q300 296 298 304Q289 346 268 370T199 394Q177 394 163 384T149 353Q149 330 169 314T228 278Q261 263 292 244T342 196T362 124Q362 58 312 24T183 -10Z" />
<glyph unicode="t" glyph-name="t" horiz-adv-x="365" d="M222 -7Q167 -7 128 27T88 139V370H23Q15 370 15 401Q15 408 17 412Q45 426 67 439T107 466Q151 501 171 519T192 538Q200 538 209 535T218 527V429H326Q334 429 334 419Q334 389 324 370H218V133Q218
57 272 57Q300 57 311 64T327 72Q331 72 335 62T340 47Q340 39 321 26T274 3T222 -7Z" />
<glyph unicode="u" glyph-name="u" horiz-adv-x="599" d="M386 -5Q380 -5 380 13V50Q380 58 376 54Q355 32 315 14T227 -4Q188 -4 159 20T113 84T97 174V271Q97 327 79 346Q71 356 58 360T34 365T24 369Q24 404 29 404Q38 404 62 408T116 417T171 429T212 440Q215
441 217 442T223 443Q228 443 233 437T238 426Q233 382 230 357T227 326V219Q227 141 247 110T314 78Q348 78 365 93T382 128V271Q382 327 364 346Q356 356 343 360T319 365T309 369Q309 404 314 404Q323 404 347 408T401 417T456 429T497 440L508 443Q513 443
518 437T523 426Q518 382 515 357T512 327V131Q512 78 522 68Q527 63 538 61T560 58H570Q574 57 574 50Q574 21 568 21Q506 15 465 9T400 -2L386 -5Z" />
<glyph unicode="v" glyph-name="v" horiz-adv-x="597" d="M281 -11Q270 -11 265 -3L99 371Q90 391 67 398T29 406Q25 406 25 426Q25 439 29 443Q35 443 52 442T91 439T134 436T166 435Q179 435 198 436T246 439Q273 441 289 442T309 443Q313 439 313 423Q313 406
309 406Q299 406 283 403T254 393T241 376Q241 369 244 361L322 176L401 342Q415 372 402 385Q381 406 336 406Q333 408 333 422Q333 435 335 443L390 439Q410 437 425 436T451 435Q463 435 478 436T513 439L566 443Q570 439 570 426Q570 406 566 406Q556 406 540
401T509 388T487 366L311 18Q296 -11 281 -11Z" />
<glyph unicode="w" glyph-name="w" horiz-adv-x="880" d="M276 -11Q266 -11 260 0L91 372Q84 386 62 395T28 405Q24 405 24 424Q24 440 27 443Q35 443 60 441T114 437T158 435Q169 435 188 436T235 439Q262 441 277 442T297 443Q299 437 299 423T297 407Q289 407
274 403T247 391T235 375Q235 362 316 177Q322 189 334 214T359 268T382 319T392 348Q392 387 371 396T320 406Q318 406 317 414T316 431T319 443Q328 443 352 441T404 437T447 435Q458 435 476 436T521 439Q547 441 562 442T582 443Q584 438 583 422T578 405Q561
405 543 398T524 375Q524 361 602 176Q624 223 643 262T676 328T689 363Q689 386 663 395T607 405Q605 405 604 413T602 431T605 443L667 438Q690 436 708 435T737 434Q748 434 762 435T796 438Q815 440 828 441T850 443Q853 434 853 423Q853 406 849 406Q842 406
824 400T789 382T764 357L599 10Q596 3 585 -4T562 -11Q552 -11 547 0L428 258L314 11Q311 4 301 -3T276 -11Z" />
<glyph unicode="x" glyph-name="x" horiz-adv-x="605" d="M32 -4Q31 0 31 5T30 15Q30 33 34 33Q59 37 84 47T119 68L227 187Q232 192 232 198Q232 203 228 207L100 368Q87 385 68 395T32 405Q27 405 27 425Q27 437 30 443Q92 439 126 438T167 436Q172 436 206
437T302 443Q305 439 305 425Q305 406 300 406Q286 406 271 399T255 382Q255 377 260 370L322 293Q352 334 369 354T386 385Q386 406 324 406Q320 406 320 424Q320 439 324 443Q383 439 414 438T451 436Q456 436 486 437T569 443Q572 437 572 425Q572 406 569 406Q499
399 480 378L369 256Q363 249 363 245Q363 239 367 235L487 84Q522 40 568 31Q572 31 572 10Q572 0 568 -4Q530 -2 499 1T436 4Q396 4 365 1T298 -4L296 8Q296 33 300 33Q313 34 329 43T346 65Q346 69 341 74L276 150L219 78Q212 68 212 59Q212 49 229 43Q243 38
254 37T276 33Q278 33 278 15Q278 0 274 -4Q269 -3 247 -2T200 2T156 4Q121 4 92 1T32 -4Z" />
<glyph unicode="y" glyph-name="y" horiz-adv-x="544" d="M76 -218Q46 -218 28 -202T9 -165Q9 -135 32 -118Q160 -118 197 -40L228 26L74 368Q64 390 44 398T8 406Q4 406 4 421Q4 441 6 443Q10 443 25 442T69 439Q97 437 116 436T148 435Q163 435 191 437T245
441T279 443Q282 434 282 422Q282 406 278 406Q270 406 255 402T228 393T216 380Q218 365 237 315T295 176Q329 250 347 290T369 338Q375 352 375 368Q375 381 356 393T304 406Q300 406 300 424Q300 431 300 435T302 443Q310 443 335 441T389 437T433 435Q444 435
458 436T489 439L540 443Q544 436 544 426Q544 406 540 406Q530 406 513 402T479 389T456 366L270 -37Q186 -218 76 -218Z" />
<glyph unicode="z" glyph-name="z" horiz-adv-x="430" d="M45 0Q25 12 25 23Q25 25 29 32L230 369L169 370Q143 371 123 359T90 331T71 300Q68 294 46 294Q34 294 34 296Q34 298 35 312T41 351Q49 401 50 430Q109 424 145 424H267Q299 424 331 426T396 432Q399
428 399 408L191 75Q184 65 184 61Q184 54 196 54H258Q338 54 366 130Q369 139 393 139Q400 139 404 135L387 0H45Z" />
<glyph unicode="{" glyph-name="braceleft" horiz-adv-x="328" d="M302 -125Q267 -125 231 -110T163 -70T113 -11T94 58Q94 81 98 110T106 169T110 219Q110 246 99 258T69 276T25 291Q22 297 22 310Q22 321 26 328Q67 338 88 354T110 406Q110 427 106 456T97 516T92
572Q92 611 111 644T161 700T229 737T302 750Q306 750 306 738Q306 719 300 717Q282 716 263 702T230 666T216 613Q216 575 220 551T229 501T233 434Q233 403 221 374T190 327T153 308Q172 308 190 291T220 247T233 187Q233 146 229 122T221 76T216 18Q216 -12
229 -36T262 -75T300 -92Q306 -93 306 -114Q306 -125 302 -125Z" />
<glyph unicode="|" glyph-name="bar" horiz-adv-x="156" d="M42 -121Q35 -121 35 -115V757Q33 763 40 765Q62 772 114 772Q119 772 120 771Q122 769 122 768V-106Q122 -108 111 -110T85 -115T58 -119T42 -121Z" />
<glyph unicode="}" glyph-name="braceright" horiz-adv-x="328" d="M26 -125Q22 -125 22 -114Q22 -93 28 -92Q46 -90 65 -76T98 -37T112 18Q112 53 108 75T100 122T95 187Q95 219 107 246T138 291T175 308Q157 308 139 326T108 374T95 434Q95 476 99 501T108 550T112
613Q112 643 99 665T66 702T28 717Q22 719 22 738Q22 750 26 750Q62 750 99 737T167 701T217 644T236 572Q236 547 232 516T223 456T218 406Q218 370 239 354T302 328Q306 321 306 310Q306 297 303 291Q278 283 259 277T229 258T218 219Q218 198 222 169T230 111T234
58Q234 22 215 -11T165 -69T98 -110T26 -125Z" />
<glyph unicode="~" glyph-name="asciitilde" horiz-adv-x="570" d="M387 245Q340 245 269 272Q197 298 150 298Q133 298 114 290Q102 285 96 281T82 272T59 254Q50 259 50 281Q50 304 74 320Q131 359 180 359Q226 359 298 333Q369 306 416 306Q437 306 448 312T465
320Q468 321 477 328T495 342T506 350Q515 346 515 323Q515 301 492 284Q443 245 387 245Z" />
<glyph unicode="&#xa0;" glyph-name="uni00A0" horiz-adv-x="209" />
<glyph unicode="&#xa1;" glyph-name="exclamdown" horiz-adv-x="195" d="M96 442Q134 442 152 419T171 366Q171 338 153 315T98 292Q68 292 47 313T25 365Q25 396 45 419T96 442ZM103 241Q116 241 120 219Q124 196 129 157T139 72T150 -18T158 -96T161 -144Q161
-175 142 -193T95 -211Q70 -211 52 -193T33 -143Q33 -135 36 -106T44 -34T54 53T65 140T75 210Q79 241 103 241Z" />
<glyph unicode="&#xa2;" glyph-name="cent" horiz-adv-x="462" d="M231 -45Q192 -45 192 -36L198 -1Q148 11 109 44T48 124T26 226Q26 288 58 338T144 417T265 447H271L275 474Q314 474 314 466L310 443Q352 436 381 419T421 388Q421 296 367 296Q328 296 308
346Q306 352 303 357T298 366L251 76Q265 73 281 73Q315 73 344 83Q364 89 375 94T395 105T418 122Q427 118 427 103Q427 90 423 83Q417 67 392 46T331 9T252 -7H237L231 -45ZM213 95L261 391Q257 392 248 392Q168 392 168 242Q168 134 213 95Z" />
<glyph unicode="&#xa3;" glyph-name="sterling" horiz-adv-x="491" d="M79 -8Q63 -5 55 4T46 20L98 83Q110 115 110 218Q110 237 101 290H56Q51 290 51 303Q51 326 57 335H94Q81 403 81 439Q81 499 109 544T184 616T290 642Q329 642 365 630T414 600Q414 515 362
515Q346 515 334 526T314 553Q307 567 294 578T265 590Q226 590 208 565T190 484Q190 471 194 446T206 383Q211 357 214 335H335Q340 335 340 325Q340 301 325 290H220Q221 274 221 260Q221 162 180 103Q200 112 231 112Q262 112 308 97Q355 82 368 82Q385 82 393
86T413 97Q430 108 438 127T450 149Q455 149 461 142T468 127Q468 125 468 122T466 114Q460 87 444 59T404 11T348 -8Q315 -8 252 9Q187 26 166 26Q143 26 120 18T79 -8Z" />
<glyph unicode="&#xa4;" glyph-name="currency" horiz-adv-x="469" d="M388 98L342 148Q293 119 237 119Q172 119 119 157L67 108Q62 103 53 109T36 129T23 156L74 204Q42 253 42 308Q42 371 83 424L34 476Q29 481 35 490T55 508T82 520L131 467Q178 497 237 497Q299
497 351 462L402 510Q407 515 416 509T434 489T446 462L397 416Q432 366 432 308Q432 240 391 190L436 142Q441 137 435 128T415 111T388 98ZM246 164Q281 164 297 198T313 279Q313 452 226 452Q191 452 176 417T161 334Q161 164 246 164Z" />
<glyph unicode="&#xa5;" glyph-name="yen" horiz-adv-x="689" d="M184 -4Q180 0 180 12Q180 33 183 33Q191 33 206 37T234 47T249 58Q252 71 253 89T256 133H186Q181 133 181 146Q181 162 187 178H256V214H186Q181 214 181 227Q181 243 187 259H256V289Q256 297
225 353Q194 410 162 464L131 517Q98 578 77 590Q52 605 24 605Q20 605 20 622Q20 638 24 642Q62 640 100 638T166 636Q189 636 309 642Q311 640 311 631T310 613T307 605Q292 605 274 600T254 584Q254 576 262 562L362 385Q368 380 372 387Q387 408 405 438T441
498T469 551T481 583Q481 605 417 605Q415 605 414 613T413 630T416 642Q506 636 537 636Q563 636 650 642Q653 633 653 624Q653 606 649 606Q631 606 608 597T571 570Q561 556 540 525T495 454T448 378T411 315T396 284V259H465Q470 259 470 247Q470 225 464 214H396V178H465Q470
178 470 166Q470 144 464 133H396Q396 88 404 58Q406 54 418 48T445 38T466 33Q470 33 470 14Q470 4 468 -4Q464 -4 449 -3T408 0Q382 2 362 3T329 4Q311 4 280 2T222 -1T184 -4Z" />
<glyph unicode="&#xa6;" glyph-name="brokenbar" horiz-adv-x="154" d="M41 384Q34 384 34 390V753Q32 759 39 761Q61 768 113 768Q118 768 119 767Q121 765 121 764V399Q121 397 110 395T84 390T57 386T41 384ZM41 -121Q34 -121 34 -115V248Q32 254 39 256Q61
263 113 263Q121 263 121 258V-106Q121 -108 110 -110T84 -115T57 -119T41 -121Z" />
<glyph unicode="&#xa7;" glyph-name="section" horiz-adv-x="410" d="M177 -41Q143 -41 116 -29T80 -4Q79 -1 79 14Q79 40 89 52T112 65Q130 65 158 41Q187 17 209 17Q236 17 253 28T271 58Q271 88 246 112T184 156Q166 165 148 175T112 196Q76 217 51 251T25
330Q25 417 89 463Q79 479 79 518Q79 582 123 616T231 651Q265 651 291 639T326 613Q328 602 328 598T329 593Q329 565 321 554T293 543Q279 543 253 568Q227 593 202 593Q137 593 137 550Q137 521 162 498T224 458Q242 449 260 440T297 420Q333 400 358 367T384
290Q384 260 374 231T348 180T318 148Q329 123 329 89Q329 52 314 25T274 -16Q225 -41 177 -41ZM298 185Q316 203 316 225Q316 260 291 287T234 330Q202 345 165 370T110 424Q95 412 95 381Q95 351 110 329T150 293Q175 279 203 265T256 232T298 185Z" />
<glyph unicode="&#xa8;" glyph-name="dieresis" horiz-adv-x="405" d="M303 500Q273 500 251 522T229 575Q229 606 251 627T303 648Q334 648 355 626T377 575Q377 544 355 522T303 500ZM105 500Q75 500 53 522T30 575Q30 604 52 626T105 648Q134 648 156 627T178
575Q178 544 156 522T105 500Z" />
<glyph unicode="&#xa9;" glyph-name="copyright" horiz-adv-x="600" d="M300 66Q248 66 199 86T112 144T50 231T27 342Q27 399 48 448T106 535T193 594T300 615Q357 615 406 594T493 536T552 449T574 342Q574 282 552 232T490 145T402 87T300 66ZM300 113Q363
113 414 143T497 226T528 341Q528 410 495 462T409 543T300 572Q243 572 191 543T106 462T72 341Q72 278 103 226T185 144T300 113ZM297 199Q261 199 231 218T182 268T164 337Q164 377 182 409T231 461T302 481Q350 481 398 469Q400 469 402 453T406 421T408 401Q408
397 400 397Q396 397 393 397T387 399Q382 417 363 434T304 451Q270 451 252 420T234 346Q234 297 255 263T317 229Q354 229 370 244Q382 255 387 264T394 273Q408 273 411 268Q411 264 408 253T401 232T392 219Q355 199 297 199Z" />
<glyph unicode="&#xaa;" glyph-name="ordfeminine" horiz-adv-x="347" d="M108 248Q66 248 47 272T27 330Q27 349 38 365T75 394Q106 410 128 414T183 428Q189 430 189 439V463Q189 518 159 518Q141 518 127 505T113 467Q113 459 100 453T74 447Q56 447 46 457T35
482Q35 500 54 517T105 545T170 556Q277 556 277 436V326Q277 312 280 305T296 298Q305 298 310 302T317 306Q322 306 322 297Q322 286 316 271Q287 249 245 249Q229 249 215 259T195 281L190 278Q178 271 156 260T108 248ZM151 297Q169 297 179 305T189 326V394Q177
390 169 388T147 380Q136 376 126 367T115 343Q115 297 151 297Z" />
<glyph unicode="&#xab;" glyph-name="guillemotleft" horiz-adv-x="477" d="M418 73Q408 85 379 109T306 164T212 227Q205 230 205 241Q205 258 213 268Q257 294 290 318T348 361Q396 398 419 423Q426 422 440 414T454 398Q454 390 380 319L307 248L379 177Q415
141 434 122T453 98Q453 90 439 82T418 73ZM494 73Q484 85 455 109T382 164T288 227Q281 230 281 241Q281 258 289 268Q333 294 366 318T424 361Q472 398 495 423Q502 422 516 414T530 398Q530 390 456 319L383 248L455 177Q491 141 510 122T529 98Q529 90 515
82T494 73Z" />
<glyph unicode="&#xac;" glyph-name="logicalnot" horiz-adv-x="539" d="M441 154Q432 154 434 160V346Q434 356 423 356H34Q28 356 28 366Q32 427 43 427H492Q504 427 504 416V169Q497 162 445 154H441Z" />
<glyph unicode="&#xae;" glyph-name="registered" horiz-adv-x="599" d="M300 135Q248 135 199 155T112 212T50 299T27 409Q27 466 48 515T106 602T193 661T300 682Q357 682 406 661T493 603T552 516T574 409Q574 349 552 299T490 213T402 156T300 135ZM300 180Q363
180 414 211T497 294T528 408Q528 476 495 527T410 608T300 637Q243 637 191 608T106 528T72 408Q72 346 103 294T185 211T300 180ZM441 272Q408 272 382 284Q357 296 347 307T319 341Q303 364 294 379T279 398Q278 399 274 399Q269 399 269 393V324Q269 308 272
299Q273 296 282 292T296 288Q298 288 298 283Q298 279 296 273Q277 273 262 275T235 277Q229 277 220 277T200 275L171 273Q169 275 169 280Q169 288 170 288Q175 288 185 292T196 299Q199 313 199 332V496Q199 516 196 529Q195 532 185 536T171 540Q170 540 170
547Q170 554 171 555Q191 554 207 554T236 553L265 554H295Q330 554 361 537T393 483Q393 454 377 433T344 405Q343 404 344 401Q360 375 376 354T408 315Q435 288 451 288Q454 285 453 280L452 273Q450 272 441 272ZM291 425H294Q323 425 323 475Q323 532 290
532Q276 532 273 529Q270 525 270 513T269 487V441Q269 430 273 428T291 425Z" />
<glyph unicode="&#xaf;" glyph-name="overscore" horiz-adv-x="384" d="M63 530L58 532Q57 534 57 541Q60 599 72 599H320Q326 599 326 589Q325 578 325 569T322 553Q317 538 315 534L312 530H63Z" />
<glyph unicode="&#xb0;" glyph-name="degree" horiz-adv-x="233" d="M117 437Q76 437 47 466T18 536Q18 576 47 605T117 634Q158 634 186 605T215 536Q215 495 186 466T117 437ZM117 482Q139 482 154 497T170 536Q170 561 154 575T117 590T80 575Q64 559 64 537T79
499T117 482Z" />
<glyph unicode="&#xb1;" glyph-name="plusminus" horiz-adv-x="530" d="M236 106Q230 106 230 113V304Q230 309 224 309H33Q27 309 27 319Q27 347 35 376Q36 378 38 380Q39 381 40 381H225Q230 381 230 387V569Q228 574 235 576Q264 584 292 584L302 578V386Q302
381 306 381H498Q506 381 506 374Q506 351 496 315Q495 309 490 309H306Q302 309 302 306V122Q288 112 242 106H236ZM34 -1Q26 -1 28 12Q36 66 36 66Q37 71 42 71H490Q500 71 498 60Q491 8 482 -1H34Z" />
<glyph unicode="&#xb2;" glyph-name="uni00B2" horiz-adv-x="320" d="M53 366Q37 382 41 401Q187 547 187 641Q187 662 174 680T135 699Q113 699 96 688T69 665T57 653Q52 653 46 663T40 679Q40 684 41 687Q49 701 67 717T110 745T165 757Q213 757 243 727T274
647Q274 609 251 570T192 497T115 435Q113 433 114 431T117 429H231Q242 429 250 431T264 440Q272 450 275 456T282 472Q285 481 292 481Q307 481 312 476L297 415Q292 393 289 381T284 366L181 367L53 366Z" />
<glyph unicode="&#xb3;" glyph-name="uni00B3" horiz-adv-x="293" d="M99 359Q51 359 26 379Q23 384 23 397Q23 420 30 423T51 419T82 404T120 395Q150 395 167 416T185 478Q185 519 166 536T106 553H84Q78 562 78 569Q78 575 80 583Q156 599 156 667Q156 687
145 698T120 709Q101 709 80 691Q58 672 56 672Q49 672 41 680T36 693Q52 718 86 738T156 758Q184 758 211 740T238 687Q238 654 215 626T166 585Q186 585 210 575T252 546T270 495Q270 452 246 422T183 375T99 359Z" />
<glyph unicode="&#xb4;" glyph-name="acute" horiz-adv-x="234" d="M44 513Q39 513 33 519T27 531Q27 539 52 579T120 669Q129 678 154 678Q177 678 188 668T200 649Q200 639 186 623T151 587T107 551T67 524T44 513Z" />
<glyph unicode="&#xb5;" glyph-name="uni00B5" horiz-adv-x="535" d="M113 -227Q103 -227 87 -220T57 -205T43 -190Q43 -177 44 -142T47 -59T52 39T58 134T64 204Q64 210 64 222T62 252Q61 269 61 281T60 298V426Q64 432 82 439T111 446Q117 446 132 440T161 424T175
409Q175 378 171 342T158 266L152 223Q152 164 170 127T215 90Q248 90 265 109T291 160T303 227V426Q307 432 325 439T353 446Q360 446 378 440T412 424T429 409Q429 381 423 341T406 246L401 223Q400 200 401 181T403 148Q406 120 417 99T451 78Q468 78 487 89T513
109Q519 109 526 96Q529 90 529 76Q519 43 493 20T436 -4Q414 -3 394 15T361 64T343 128Q315 62 286 27T209 -9Q197 -9 187 -5T168 16L161 27Q158 30 155 40Q151 51 146 63T141 76Q141 54 142 8T148 -95T163 -207Q159 -213 143 -220T113 -227Z" />
<glyph unicode="&#xb6;" glyph-name="paragraph" horiz-adv-x="468" d="M159 -4Q157 0 157 14T161 28Q167 28 178 31T200 40T212 50Q214 61 215 94T217 183V256Q217 263 197 263Q141 263 101 288T38 359T16 460Q16 511 34 550T81 611Q138 652 206 652Q221 652
235 652T262 650Q275 649 289 648T317 648L438 654Q442 650 440 636T434 622Q421 622 402 617T379 604Q376 594 376 500L377 408V348Q377 341 382 343L425 352Q428 346 428 333Q428 316 408 304Q398 299 383 294Q378 292 378 290Q378 184 379 125T385 52Q388 44
408 37T439 30Q443 30 443 18Q443 0 439 -4Q427 -3 398 -2T335 0T278 2Q244 2 212 0T159 -4ZM287 326Q298 326 310 332Q317 336 317 340Q317 455 317 519T315 596Q315 599 311 602T299 606Q281 606 281 594Q280 514 280 449T279 332Q279 326 287 326ZM299 44Q313
44 313 58Q315 81 316 134T317 270Q317 274 313 274Q302 274 287 270Q279 268 279 261L281 57Q281 44 299 44Z" />
<glyph unicode="&#xb7;" glyph-name="middot" horiz-adv-x="205" d="M105 188Q68 188 49 212T30 264Q30 292 48 315T103 338Q133 338 154 317T176 265Q176 234 156 211T105 188Z" />
<glyph unicode="&#xb8;" glyph-name="cedilla" horiz-adv-x="443" d="M202 -156Q170 -156 154 -140Q152 -132 152 -123Q152 -109 159 -109L178 -116Q197 -124 209 -124Q228 -124 238 -116T248 -95Q248 -67 224 -67Q209 -67 194 -73Q192 -73 186 -67T180 -57L195
-29Q205 -6 208 -2H240L226 -28L245 -27Q267 -27 283 -42T299 -78Q299 -114 273 -135T202 -156Z" />
<glyph unicode="&#xb9;" glyph-name="uni00B9" horiz-adv-x="272" d="M4 365Q2 367 2 381Q2 394 4 394Q12 394 31 399T55 410Q66 426 66 443V642Q66 673 53 673Q49 673 10 656Q6 657 1 663T-5 676V685Q150 761 154 761H155Q158 761 164 753T172 741Q159 695 159
656V444Q159 418 169 408Q175 402 193 398T219 394Q223 394 223 379Q223 368 220 365Q192 365 165 367T110 370Q84 370 57 368T4 365Z" />
<glyph unicode="&#xba;" glyph-name="ordmasculine" horiz-adv-x="370" d="M185 247Q141 247 105 267T48 323T27 400Q27 443 48 477T105 533T185 554Q229 554 265 533T322 478T344 400Q344 358 323 323T266 268T185 247ZM192 284Q221 284 234 312T247 377Q247
517 176 517Q148 517 136 489T123 421Q123 284 192 284Z" />
<glyph unicode="&#xbb;" glyph-name="guillemotright" horiz-adv-x="479" d="M61 73Q54 74 40 82T26 98Q26 102 45 121T100 177L172 248L99 319Q25 390 25 398Q25 406 39 414T60 423Q83 398 131 361Q157 342 190 318T266 268Q274 258 274 241Q274 230 267 227Q216
195 173 164T101 109T61 73ZM241 73Q234 74 220 82T206 98Q206 102 225 121T280 177L352 248L279 319Q205 390 205 398Q205 406 219 414T240 423Q263 398 311 361Q337 342 370 318T446 268Q454 258 454 241Q454 230 447 227Q396 195 353 164T281 109T241 73Z" />
<glyph unicode="&#xbc;" glyph-name="onequarter" horiz-adv-x="697" d="M4 251Q2 253 2 267Q2 280 4 280Q12 280 31 285T55 296Q66 312 66 329V528Q66 559 53 559Q49 559 10 542Q6 543 1 549T-5 562V571Q150 647 154 647H155Q158 647 164 639T172 627Q159 581
159 542V330Q159 304 169 294Q175 288 193 284T219 280Q223 280 223 265Q223 254 220 251Q192 251 165 253T110 256Q84 256 57 254T4 251ZM547 617L201 -10Q197 -16 195 -16Q185 -16 177 -12T163 -2Q154 8 157 12L502 644Q504 647 508 647Q526 647 540 633Q550
622 547 617ZM596 -3Q553 -3 553 3V97Q552 100 547 100H391Q383 105 383 123L605 388Q612 398 625 398Q642 398 642 391V158Q642 156 648 154H667Q677 154 677 104Q677 102 676 101L673 98H646Q642 98 642 93V2Q631 0 620 -1T596 -3ZM468 156H547Q553 159 553 160V261Q553
267 552 267L549 266L464 164V162Q464 156 468 156Z" />
<glyph unicode="&#xbd;" glyph-name="onehalf" horiz-adv-x="703" d="M4 251Q2 253 2 267Q2 280 4 280Q12 280 31 285T55 296Q66 312 66 329V528Q66 559 53 559Q49 559 10 542Q6 543 1 549T-5 562V571Q150 647 154 647H155Q158 647 164 639T172 627Q159 581 159
542V330Q159 304 169 294Q175 288 193 284T219 280Q223 280 223 265Q223 254 220 251Q192 251 165 253T110 256Q84 256 57 254T4 251ZM547 617L201 -10Q197 -16 195 -16Q185 -16 177 -12T163 -2Q154 8 157 12L502 644Q504 647 508 647Q526 647 540 633Q550 622
547 617ZM436 0Q420 16 424 35Q570 181 570 275Q570 296 557 314T518 333Q496 333 479 322T452 299T440 287Q435 287 429 297T423 313Q423 318 424 321Q432 335 450 351T493 379T548 391Q596 391 626 361T657 281Q657 243 634 204T575 131T498 69Q496 67 497 65T500
63H614Q625 63 633 65T647 74Q655 84 658 90T665 106Q668 115 675 115Q690 115 695 110L680 49Q675 27 672 15T667 0L564 1L436 0Z" />
<glyph unicode="&#xbe;" glyph-name="threequarters" horiz-adv-x="718" d="M99 246Q51 246 26 266Q23 271 23 284Q23 307 30 310T51 306T82 291T120 282Q150 282 167 303T185 365Q185 406 166 423T106 440H84Q78 449 78 456Q78 462 80 470Q156 486 156 554Q156
574 145 585T120 596Q101 596 80 578Q58 559 56 559Q49 559 41 567T36 580Q52 605 86 625T156 645Q184 645 211 627T238 574Q238 541 215 513T166 472Q186 472 210 462T252 433T270 382Q270 339 246 309T183 262T99 246ZM568 617L222 -10Q218 -16 216 -16Q206 -16
198 -12T184 -2Q175 8 178 12L523 644Q525 647 529 647Q547 647 561 633Q571 622 568 617ZM617 -3Q574 -3 574 3V97Q573 100 568 100H412Q404 105 404 123L626 388Q633 398 646 398Q663 398 663 391V158Q663 156 669 154H688Q698 154 698 104Q698 102 697 101L694
98H667Q663 98 663 93V2Q652 0 641 -1T617 -3ZM489 156H568Q574 159 574 160V261Q574 267 573 267L570 266L485 164V162Q485 156 489 156Z" />
<glyph unicode="&#xbf;" glyph-name="questiondown" horiz-adv-x="349" d="M244 447Q282 447 300 424T319 371Q319 343 301 320T246 297Q216 297 195 318T173 370Q173 401 193 424T244 447ZM254 246Q259 246 262 239T267 224L271 168Q275 120 265 96T224 56Q201
44 174 30T128 -3T109 -50Q109 -100 166 -100Q190 -100 207 -93T254 -86Q286 -86 306 -107T327 -154Q327 -183 318 -197Q293 -210 259 -210Q201 -207 147 -186T58 -126T23 -33Q23 39 53 77T144 143Q173 155 187 161T209 173Q222 183 222 215Q222 228 231 237T254
246Z" />
<glyph unicode="&#xc0;" glyph-name="Agrave" horiz-adv-x="720" d="M15 -4Q11 0 11 11Q11 32 13 32Q21 32 37 37T68 49T88 64Q96 76 105 93T118 122L123 134L344 642Q355 668 381 668Q396 668 405 655L610 148Q619 125 627 105T643 66Q647 56 661 49T691 37T717
33Q721 33 721 16Q721 0 719 -4L658 0Q629 2 608 3T574 4L423 -4Q419 0 419 17Q419 33 423 33Q445 33 468 42T491 68Q491 69 486 86T466 135L436 208Q432 212 429 212Q419 213 395 213T333 213Q300 213 275 213T232 212Q228 212 225 207L192 131Q175 91 173 73T190
45Q208 36 221 35T245 33Q248 32 248 17Q248 4 246 -4Q201 -1 181 1T150 3T129 3T92 1T15 -4ZM333 273Q353 273 370 273T404 275L407 280L335 459L257 280Q257 276 259 276Q289 273 333 273ZM411 728Q404 728 384 735T338 755T288 781T247 808T231 831Q231 850
250 859T287 869Q298 869 305 865Q322 853 342 835T381 797T412 765T425 748Q425 743 421 736T411 728Z" />
<glyph unicode="&#xc1;" glyph-name="Aacute" horiz-adv-x="720" d="M15 -4Q11 0 11 11Q11 32 13 32Q21 32 37 37T68 49T88 64Q96 76 105 93T118 122L123 134L344 642Q355 668 381 668Q396 668 405 655L610 148Q619 125 627 105T643 66Q647 56 661 49T691 37T717
33Q721 33 721 16Q721 0 719 -4L658 0Q629 2 608 3T574 4L423 -4Q419 0 419 17Q419 33 423 33Q445 33 468 42T491 68Q491 69 486 86T466 135L436 208Q432 212 429 212Q419 213 395 213T333 213Q300 213 275 213T232 212Q228 212 225 207L192 131Q175 91 173 73T190
45Q208 36 221 35T245 33Q248 32 248 17Q248 4 246 -4Q201 -1 181 1T150 3T129 3T92 1T15 -4ZM333 273Q353 273 370 273T404 275L407 280L335 459L257 280Q257 276 259 276Q289 273 333 273ZM332 729Q327 729 323 736T318 749Q318 752 330 765T361 798T401 835T438
866Q445 870 456 870Q474 870 493 861T512 832Q512 822 496 809T456 782T406 756T360 737T332 729Z" />
<glyph unicode="&#xc2;" glyph-name="Acircumflex" horiz-adv-x="720" d="M15 -4Q11 0 11 11Q11 32 13 32Q21 32 37 37T68 49T88 64Q96 76 105 93T118 122L123 134L344 642Q355 668 381 668Q396 668 405 655L610 148Q619 125 627 105T643 66Q647 56 661 49T691
37T717 33Q721 33 721 16Q721 0 719 -4L658 0Q629 2 608 3T574 4L423 -4Q419 0 419 17Q419 33 423 33Q445 33 468 42T491 68Q491 69 486 86T466 135L436 208Q432 212 429 212Q419 213 395 213T333 213Q300 213 275 213T232 212Q228 212 225 207L192 131Q175 91
173 73T190 45Q208 36 221 35T245 33Q248 32 248 17Q248 4 246 -4Q201 -1 181 1T150 3T129 3T92 1T15 -4ZM333 273Q353 273 370 273T404 275L407 280L335 459L257 280Q257 276 259 276Q289 273 333 273ZM257 729Q247 729 247 748Q261 759 279 775T320 813Q331 823
341 835T363 861Q371 870 376 870Q382 870 391 861L406 844Q413 837 419 830T431 817Q455 793 474 776T507 748Q507 729 497 729Q491 729 469 739T421 765T377 791Q360 780 334 765T285 740T257 729Z" />
<glyph unicode="&#xc3;" glyph-name="Atilde" horiz-adv-x="720" d="M15 -4Q11 0 11 11Q11 32 13 32Q21 32 37 37T68 49T88 64Q96 76 105 93T118 122L123 134L344 642Q355 668 381 668Q396 668 405 655L610 148Q619 125 627 105T643 66Q647 56 661 49T691 37T717
33Q721 33 721 16Q721 0 719 -4L658 0Q629 2 608 3T574 4L423 -4Q419 0 419 17Q419 33 423 33Q445 33 468 42T491 68Q491 69 486 86T466 135L436 208Q432 212 429 212Q419 213 395 213T333 213Q300 213 275 213T232 212Q228 212 225 207L192 131Q175 91 173 73T190
45Q208 36 221 35T245 33Q248 32 248 17Q248 4 246 -4Q201 -1 181 1T150 3T129 3T92 1T15 -4ZM333 273Q353 273 370 273T404 275L407 280L335 459L257 280Q257 276 259 276Q289 273 333 273ZM459 728Q421 728 363 762Q305 796 267 796Q248 796 223 768Q197 739
193 739Q185 739 185 761Q185 786 203 811Q241 862 291 862Q329 862 387 828Q445 794 483 794Q502 794 526 823Q550 851 555 851Q563 851 563 829Q563 804 545 778Q510 728 459 728Z" />
<glyph unicode="&#xc4;" glyph-name="Adieresis" horiz-adv-x="720" d="M15 -4Q11 0 11 11Q11 32 13 32Q21 32 37 37T68 49T88 64Q96 76 105 93T118 122L123 134L344 642Q355 668 381 668Q396 668 405 655L610 148Q619 125 627 105T643 66Q647 56 661 49T691 37T717
33Q721 33 721 16Q721 0 719 -4L658 0Q629 2 608 3T574 4L423 -4Q419 0 419 17Q419 33 423 33Q445 33 468 42T491 68Q491 69 486 86T466 135L436 208Q432 212 429 212Q419 213 395 213T333 213Q300 213 275 213T232 212Q228 212 225 207L192 131Q175 91 173 73T190
45Q208 36 221 35T245 33Q248 32 248 17Q248 4 246 -4Q201 -1 181 1T150 3T129 3T92 1T15 -4ZM333 273Q353 273 370 273T404 275L407 280L335 459L257 280Q257 276 259 276Q289 273 333 273ZM477 726Q447 726 425 748T403 801Q403 832 425 853T477 874Q508 874
529 852T551 801Q551 770 529 748T477 726ZM279 726Q249 726 227 748T204 801Q204 830 226 852T279 874Q308 874 330 853T352 801Q352 770 330 748T279 726Z" />
<glyph unicode="&#xc5;" glyph-name="Aring" horiz-adv-x="720" d="M15 -4Q11 0 11 11Q11 32 13 32Q21 32 37 37T68 49T88 64Q96 76 105 93T118 122L123 134L344 642Q355 668 381 668Q396 668 405 655L610 148Q619 125 627 105T643 66Q647 56 661 49T691 37T717
33Q721 33 721 16Q721 0 719 -4L658 0Q629 2 608 3T574 4L423 -4Q419 0 419 17Q419 33 423 33Q445 33 468 42T491 68Q491 69 486 86T466 135L436 208Q432 212 429 212Q419 213 395 213T333 213Q300 213 275 213T232 212Q228 212 225 207L192 131Q175 91 173 73T190
45Q208 36 221 35T245 33Q248 32 248 17Q248 4 246 -4Q201 -1 181 1T150 3T129 3T92 1T15 -4ZM333 273Q353 273 370 273T404 275L407 280L335 459L257 280Q257 276 259 276Q289 273 333 273ZM375 660Q334 660 305 689T276 759Q276 799 305 828T375 857Q416 857
444 829T473 759Q473 718 444 689T375 660ZM375 705Q397 705 412 720T428 759Q428 784 411 798T374 813Q352 813 337 798T322 760Q322 739 336 722T375 705Z" />
<glyph unicode="&#xc6;" glyph-name="AE" horiz-adv-x="931" d="M12 -4Q10 -2 10 8Q10 13 12 23T16 33Q24 33 43 38T82 52T106 69L147 132L429 584Q433 589 433 598Q433 609 414 618T384 627Q380 627 380 644Q380 661 383 664Q418 660 452 658T521 656Q544 656
583 657T677 660Q733 662 774 663T844 664Q845 659 852 622T873 516Q868 511 850 511Q839 511 836 518Q824 544 801 564T750 597T696 610H658Q594 610 593 597Q591 585 590 566T588 519V365Q588 359 631 359H684Q747 359 752 363Q757 368 760 392Q762 408 766 421Q767
428 781 428Q798 428 803 423V234Q799 230 782 230Q769 230 766 238Q754 277 750 286Q746 293 745 293T738 296Q724 304 660 304Q588 304 588 295V141Q588 94 596 70Q600 54 664 54H690Q752 54 802 80Q819 89 840 114T874 170Q876 176 888 176Q912 176 918 170Q868
32 864 -2Q836 -2 792 -2T686 0Q625 1 585 2T522 2L382 -4Q378 0 378 13Q378 33 382 33Q390 33 403 37T428 46T442 56Q448 79 448 135V200Q448 210 439 210Q426 211 409 211T370 211Q342 211 319 211T278 210Q272 210 270 205L223 129Q209 106 201 91T190 67Q187
51 200 44Q225 33 260 33Q263 33 260 18T254 -4L202 1Q165 4 139 4Q113 4 71 1Q50 -1 35 -2T12 -4ZM383 271Q395 271 412 272T439 273Q448 273 448 282V475Q448 480 445 480Q441 480 438 475L316 278Q316 274 318 274Q348 271 383 271Z" />
<glyph unicode="&#xc7;" glyph-name="Ccedilla" horiz-adv-x="638" d="M345 -7Q279 -7 221 19T119 90T50 195T25 322Q25 393 50 455T119 565T224 640T355 667Q410 667 467 660T584 638Q590 636 597 571Q601 534 603 513T601 484T577 475L561 478Q556 496 545 516T511
559Q489 582 449 596T360 611Q181 611 181 343Q181 260 205 193T277 86T392 47Q466 47 520 101Q536 117 544 137T557 174T566 190Q607 190 611 180Q611 173 607 151T596 102T582 56T570 34Q456 -7 345 -7ZM320 -184Q282 -184 263 -165Q262 -161 262 -156T261 -145Q261
-129 269 -129L291 -138Q313 -146 328 -146Q351 -146 362 -136T374 -112Q374 -79 345 -79Q325 -79 310 -86Q308 -86 301 -78T294 -67L313 -32Q319 -19 322 -12T327 -2H364L348 -33L370 -32Q395 -31 414 -50T434 -92Q434 -134 404 -159T320 -184Z" />
<glyph unicode="&#xc8;" glyph-name="Egrave" horiz-adv-x="598" d="M31 -4Q27 0 27 13Q27 33 31 33Q39 33 54 36T82 44T97 55Q103 78 103 143V521Q103 577 97 599Q95 605 82 611T53 622T30 627Q26 627 26 645Q26 661 29 664Q69 662 105 661T176 659Q220 659 331
662Q387 663 429 663T499 664Q500 659 507 622T528 516Q523 511 505 511Q494 511 491 518Q479 544 456 564T405 597T351 610H313Q249 610 248 597Q246 585 245 566T243 519V365Q243 359 286 359H339Q402 359 407 363Q412 368 415 392Q417 408 421 421Q422 428 436
428Q453 428 458 423V234Q454 230 437 230Q424 230 421 238Q409 277 405 286Q401 293 400 293T393 296Q379 304 315 304Q243 304 243 295V141Q243 94 251 70Q255 54 319 54H345Q407 54 457 80Q474 89 495 114T529 170Q531 176 543 176Q567 176 573 170Q523 32 519
-2Q494 -2 454 -2T357 0Q302 1 257 2T177 2L31 -4ZM316 728Q309 728 289 735T243 755T193 781T152 808T136 831Q136 850 155 859T192 869Q203 869 210 865Q227 853 247 835T286 797T317 765T330 748Q330 743 326 736T316 728Z" />
<glyph unicode="&#xc9;" glyph-name="Eacute" horiz-adv-x="598" d="M31 -4Q27 0 27 13Q27 33 31 33Q39 33 54 36T82 44T97 55Q103 78 103 143V521Q103 577 97 599Q95 605 82 611T53 622T30 627Q26 627 26 645Q26 661 29 664Q69 662 105 661T176 659Q220 659 331
662Q387 663 429 663T499 664Q500 659 507 622T528 516Q523 511 505 511Q494 511 491 518Q479 544 456 564T405 597T351 610H313Q249 610 248 597Q246 585 245 566T243 519V365Q243 359 286 359H339Q402 359 407 363Q412 368 415 392Q417 408 421 421Q422 428 436
428Q453 428 458 423V234Q454 230 437 230Q424 230 421 238Q409 277 405 286Q401 293 400 293T393 296Q379 304 315 304Q243 304 243 295V141Q243 94 251 70Q255 54 319 54H345Q407 54 457 80Q474 89 495 114T529 170Q531 176 543 176Q567 176 573 170Q523 32 519
-2Q494 -2 454 -2T357 0Q302 1 257 2T177 2L31 -4ZM237 729Q232 729 228 736T223 749Q223 752 235 765T266 798T306 835T343 866Q350 870 361 870Q379 870 398 861T417 832Q417 822 401 809T361 782T311 756T265 737T237 729Z" />
<glyph unicode="&#xca;" glyph-name="Ecircumflex" horiz-adv-x="598" d="M31 -4Q27 0 27 13Q27 33 31 33Q39 33 54 36T82 44T97 55Q103 78 103 143V521Q103 577 97 599Q95 605 82 611T53 622T30 627Q26 627 26 645Q26 661 29 664Q69 662 105 661T176 659Q220
659 331 662Q387 663 429 663T499 664Q500 659 507 622T528 516Q523 511 505 511Q494 511 491 518Q479 544 456 564T405 597T351 610H313Q249 610 248 597Q246 585 245 566T243 519V365Q243 359 286 359H339Q402 359 407 363Q412 368 415 392Q417 408 421 421Q422
428 436 428Q453 428 458 423V234Q454 230 437 230Q424 230 421 238Q409 277 405 286Q401 293 400 293T393 296Q379 304 315 304Q243 304 243 295V141Q243 94 251 70Q255 54 319 54H345Q407 54 457 80Q474 89 495 114T529 170Q531 176 543 176Q567 176 573 170Q523
32 519 -2Q494 -2 454 -2T357 0Q302 1 257 2T177 2L31 -4ZM162 729Q152 729 152 748Q166 759 184 775T225 813Q236 823 246 835T268 861Q276 870 281 870Q287 870 296 861L311 844Q318 837 324 830T336 817Q360 793 379 776T412 748Q412 729 402 729Q396 729 374
739T326 765T282 791Q265 780 239 765T190 740T162 729Z" />
<glyph unicode="&#xcb;" glyph-name="Edieresis" horiz-adv-x="598" d="M31 -4Q27 0 27 13Q27 33 31 33Q39 33 54 36T82 44T97 55Q103 78 103 143V521Q103 577 97 599Q95 605 82 611T53 622T30 627Q26 627 26 645Q26 661 29 664Q69 662 105 661T176 659Q220 659
331 662Q387 663 429 663T499 664Q500 659 507 622T528 516Q523 511 505 511Q494 511 491 518Q479 544 456 564T405 597T351 610H313Q249 610 248 597Q246 585 245 566T243 519V365Q243 359 286 359H339Q402 359 407 363Q412 368 415 392Q417 408 421 421Q422 428
436 428Q453 428 458 423V234Q454 230 437 230Q424 230 421 238Q409 277 405 286Q401 293 400 293T393 296Q379 304 315 304Q243 304 243 295V141Q243 94 251 70Q255 54 319 54H345Q407 54 457 80Q474 89 495 114T529 170Q531 176 543 176Q567 176 573 170Q523
32 519 -2Q494 -2 454 -2T357 0Q302 1 257 2T177 2L31 -4ZM382 726Q352 726 330 748T308 801Q308 832 330 853T382 874Q413 874 434 852T456 801Q456 770 434 748T382 726ZM184 726Q154 726 132 748T109 801Q109 830 131 852T184 874Q213 874 235 853T257 801Q257
770 235 748T184 726Z" />
<glyph unicode="&#xcc;" glyph-name="Igrave" horiz-adv-x="346" d="M30 -4Q26 0 26 12Q26 33 29 33Q37 33 52 37T80 47T95 58Q99 72 100 92T102 138V522Q102 586 94 600Q91 606 79 611T53 621T32 625Q28 625 28 642Q28 660 30 662L78 659Q100 657 114 656T141
655T175 656Q195 656 315 662Q318 653 318 644Q318 625 314 625Q308 625 293 621T265 612T249 601Q246 589 244 568T242 531V146Q242 118 244 96T250 58Q252 54 264 48T291 38T312 33Q316 33 316 14Q316 4 314 -4Q310 -4 295 -3T254 0Q228 2 208 3T175 4Q157 4
126 2T68 -1T30 -4ZM209 728Q202 728 182 735T136 755T86 781T45 808T29 831Q29 850 48 859T85 869Q96 869 103 865Q120 853 140 835T179 797T210 765T223 748Q223 743 219 736T209 728Z" />
<glyph unicode="&#xcd;" glyph-name="Iacute" horiz-adv-x="346" d="M30 -4Q26 0 26 12Q26 33 29 33Q37 33 52 37T80 47T95 58Q99 72 100 92T102 138V522Q102 586 94 600Q91 606 79 611T53 621T32 625Q28 625 28 642Q28 660 30 662L78 659Q100 657 114 656T141
655T175 656Q195 656 315 662Q318 653 318 644Q318 625 314 625Q308 625 293 621T265 612T249 601Q246 589 244 568T242 531V146Q242 118 244 96T250 58Q252 54 264 48T291 38T312 33Q316 33 316 14Q316 4 314 -4Q310 -4 295 -3T254 0Q228 2 208 3T175 4Q157 4
126 2T68 -1T30 -4ZM130 729Q125 729 121 736T116 749Q116 752 128 765T159 798T199 835T236 866Q243 870 254 870Q272 870 291 861T310 832Q310 822 294 809T254 782T204 756T158 737T130 729Z" />
<glyph unicode="&#xce;" glyph-name="Icircumflex" horiz-adv-x="346" d="M30 -4Q26 0 26 12Q26 33 29 33Q37 33 52 37T80 47T95 58Q99 72 100 92T102 138V522Q102 586 94 600Q91 606 79 611T53 621T32 625Q28 625 28 642Q28 660 30 662L78 659Q100 657 114 656T141
655T175 656Q195 656 315 662Q318 653 318 644Q318 625 314 625Q308 625 293 621T265 612T249 601Q246 589 244 568T242 531V146Q242 118 244 96T250 58Q252 54 264 48T291 38T312 33Q316 33 316 14Q316 4 314 -4Q310 -4 295 -3T254 0Q228 2 208 3T175 4Q157 4
126 2T68 -1T30 -4ZM55 729Q45 729 45 748Q59 759 77 775T118 813Q129 823 139 835T161 861Q169 870 174 870Q180 870 189 861L204 844Q211 837 217 830T229 817Q253 793 272 776T305 748Q305 729 295 729Q289 729 267 739T219 765T175 791Q158 780 132 765T83
740T55 729Z" />
<glyph unicode="&#xcf;" glyph-name="Idieresis" horiz-adv-x="346" d="M30 -4Q26 0 26 12Q26 33 29 33Q37 33 52 37T80 47T95 58Q99 72 100 92T102 138V522Q102 586 94 600Q91 606 79 611T53 621T32 625Q28 625 28 642Q28 660 30 662L78 659Q100 657 114 656T141
655T175 656Q195 656 315 662Q318 653 318 644Q318 625 314 625Q308 625 293 621T265 612T249 601Q246 589 244 568T242 531V146Q242 118 244 96T250 58Q252 54 264 48T291 38T312 33Q316 33 316 14Q316 4 314 -4Q310 -4 295 -3T254 0Q228 2 208 3T175 4Q157 4
126 2T68 -1T30 -4ZM275 726Q245 726 223 748T201 801Q201 832 223 853T275 874Q306 874 327 852T349 801Q349 770 327 748T275 726ZM77 726Q47 726 25 748T2 801Q2 830 24 852T77 874Q106 874 128 853T150 801Q150 770 128 748T77 726Z" />
<glyph unicode="&#xd0;" glyph-name="Eth" horiz-adv-x="706" d="M16 -4Q12 0 12 13Q12 33 16 33Q24 33 39 36T67 44T82 55Q88 78 88 143V307H37Q32 307 32 322Q32 344 38 353H88V521Q88 577 82 599Q80 605 67 611T38 622T15 627Q11 627 11 645Q11 661 14 664Q55
662 91 661T161 659H335Q445 659 526 611Q606 563 643 491T680 336Q680 240 639 163T520 42T334 -3Q324 -3 305 -3T257 -1Q199 2 162 2L16 -4ZM350 53Q435 53 481 125T528 340Q528 414 506 473T442 568T343 603H338Q253 603 241 587Q228 570 228 524V353H383Q389
353 389 339Q389 321 383 307H228V136Q228 71 237 66Q259 53 350 53Z" />
<glyph unicode="&#xd1;" glyph-name="Ntilde" horiz-adv-x="777" d="M628 -5Q617 -5 597 18L190 524V141Q190 88 198 70Q204 59 222 51T259 38T288 34Q290 34 291 26T292 8T290 -4Q242 -4 209 0T155 4Q131 4 117 3T86 0T31 -4Q28 -1 28 14Q28 33 31 33Q54 33 79
42T116 71Q126 87 126 144V537Q126 589 111 608Q108 613 93 616T60 622T32 625Q30 625 29 633T27 650T30 662L94 658Q117 656 135 655T167 654Q184 654 208 656T265 662Q285 622 320 574T400 473T492 362T583 248Q584 252 584 262T585 289V524Q585 582 572 596Q566
604 551 610T519 621T494 625Q492 625 491 633T489 650T491 662Q537 658 570 656T623 654Q640 654 666 656T715 660T747 662Q751 655 751 644Q751 625 746 625Q692 625 663 592Q649 575 649 519V139Q649 121 650 86T653 -1Q649 -5 628 -5ZM471 728Q433 728 375
762Q317 796 279 796Q260 796 235 768Q209 739 205 739Q197 739 197 761Q197 786 215 811Q253 862 303 862Q341 862 399 828Q457 794 495 794Q514 794 538 823Q562 851 567 851Q575 851 575 829Q575 804 557 778Q522 728 471 728Z" />
<glyph unicode="&#xd2;" glyph-name="Ograve" horiz-adv-x="703" d="M125 89Q30 189 30 328Q30 398 55 459T124 567T227 640T351 667Q417 667 475 641T578 568T647 460T673 328Q673 189 578 89Q513 21 432 -1T271 -2T125 89ZM367 46Q417 46 450 81T500 175T517
309Q517 364 509 414T481 510Q462 557 425 584T336 611Q283 611 248 573Q213 534 200 478T186 350Q186 248 225 153Q245 105 281 76T367 46ZM387 728Q380 728 360 735T314 755T264 781T223 808T207 831Q207 850 226 859T263 869Q274 869 281 865Q298 853 318 835T357
797T388 765T401 748Q401 743 397 736T387 728Z" />
<glyph unicode="&#xd3;" glyph-name="Oacute" horiz-adv-x="703" d="M125 89Q30 189 30 328Q30 398 55 459T124 567T227 640T351 667Q417 667 475 641T578 568T647 460T673 328Q673 189 578 89Q513 21 432 -1T271 -2T125 89ZM367 46Q417 46 450 81T500 175T517
309Q517 364 509 414T481 510Q462 557 425 584T336 611Q283 611 248 573Q213 534 200 478T186 350Q186 248 225 153Q245 105 281 76T367 46ZM308 729Q303 729 299 736T294 749Q294 752 306 765T337 798T377 835T414 866Q421 870 432 870Q450 870 469 861T488 832Q488
822 472 809T432 782T382 756T336 737T308 729Z" />
<glyph unicode="&#xd4;" glyph-name="Ocircumflex" horiz-adv-x="703" d="M125 89Q30 189 30 328Q30 398 55 459T124 567T227 640T351 667Q417 667 475 641T578 568T647 460T673 328Q673 189 578 89Q513 21 432 -1T271 -2T125 89ZM367 46Q417 46 450 81T500 175T517
309Q517 364 509 414T481 510Q462 557 425 584T336 611Q283 611 248 573Q213 534 200 478T186 350Q186 248 225 153Q245 105 281 76T367 46ZM233 729Q223 729 223 748Q237 759 255 775T296 813Q307 823 317 835T339 861Q347 870 352 870Q358 870 367 861L382 844Q389
837 395 830T407 817Q431 793 450 776T483 748Q483 729 473 729Q467 729 445 739T397 765T353 791Q336 780 310 765T261 740T233 729Z" />
<glyph unicode="&#xd5;" glyph-name="Otilde" horiz-adv-x="703" d="M125 89Q30 189 30 328Q30 398 55 459T124 567T227 640T351 667Q417 667 475 641T578 568T647 460T673 328Q673 189 578 89Q513 21 432 -1T271 -2T125 89ZM367 46Q417 46 450 81T500 175T517
309Q517 364 509 414T481 510Q462 557 425 584T336 611Q283 611 248 573Q213 534 200 478T186 350Q186 248 225 153Q245 105 281 76T367 46ZM435 728Q397 728 339 762Q281 796 243 796Q224 796 199 768Q173 739 169 739Q161 739 161 761Q161 786 179 811Q217 862
267 862Q305 862 363 828Q421 794 459 794Q478 794 502 823Q526 851 531 851Q539 851 539 829Q539 804 521 778Q486 728 435 728Z" />
<glyph unicode="&#xd6;" glyph-name="Odieresis" horiz-adv-x="703" d="M125 89Q30 189 30 328Q30 398 55 459T124 567T227 640T351 667Q417 667 475 641T578 568T647 460T673 328Q673 189 578 89Q513 21 432 -1T271 -2T125 89ZM367 46Q417 46 450 81T500 175T517
309Q517 364 509 414T481 510Q462 557 425 584T336 611Q283 611 248 573Q213 534 200 478T186 350Q186 248 225 153Q245 105 281 76T367 46ZM453 726Q423 726 401 748T379 801Q379 832 401 853T453 874Q484 874 505 852T527 801Q527 770 505 748T453 726ZM255 726Q225
726 203 748T180 801Q180 830 202 852T255 874Q284 874 306 853T328 801Q328 770 306 748T255 726Z" />
<glyph unicode="&#xd7;" glyph-name="multiply" horiz-adv-x="425" d="M66 54Q58 54 50 63Q17 102 26 111L160 245Q162 247 159 250L30 379Q24 385 28 392Q39 412 64 437Q69 442 76 435L210 301Q213 298 217 302L352 437Q357 442 364 435Q385 415 398 389L399
384Q399 382 398 381L268 251Q264 247 267 244L397 114H398L399 111Q400 110 398 106Q385 81 364 60Q362 58 358 56Q355 55 354 56L352 57L217 192Q213 197 209 193L71 55Q70 54 66 54Z" />
<glyph unicode="&#xd8;" glyph-name="Oslash" horiz-adv-x="700" d="M167 -18Q128 -3 129 4L157 55Q94 103 58 176T21 328Q21 395 46 456T115 564T219 639T346 667Q418 667 483 635L506 676Q546 661 544 655L520 613Q587 567 627 492T668 328Q668 258 643 197T573
89T471 16T346 -10Q304 -10 266 0T194 30L167 -18ZM181 350Q181 304 189 254T217 160L443 563Q422 586 394 598T331 611Q287 611 258 588T212 527T188 443T181 350ZM362 46Q412 46 445 81T495 175T512 309Q512 364 504 414T476 510Q473 517 470 523L241 115Q263
84 292 65T362 46Z" />
<glyph unicode="&#xd9;" glyph-name="Ugrave" horiz-adv-x="733" d="M359 -5Q278 -5 217 28T123 132T89 311V522Q89 586 81 600Q78 606 66 611T40 621T19 625Q15 625 15 642Q15 660 17 662L162 656Q172 655 207 657T302 662Q305 653 305 644Q305 625 301 625Q295
625 280 621T252 612T236 601Q229 576 229 516V279Q229 187 270 131T383 75Q457 75 504 123T552 286V524Q552 582 539 596Q533 604 518 610T486 621T461 625Q459 625 458 633T456 650T458 662Q504 658 537 656T590 654Q607 654 633 656T682 660T714 662Q718 655
718 644Q718 625 713 625Q659 625 630 592Q616 575 616 519V291Q616 194 584 128T493 29T359 -5ZM402 728Q395 728 375 735T329 755T279 781T238 808T222 831Q222 850 241 859T278 869Q289 869 296 865Q313 853 333 835T372 797T403 765T416 748Q416 743 412 736T402
728Z" />
<glyph unicode="&#xda;" glyph-name="Uacute" horiz-adv-x="733" d="M359 -5Q278 -5 217 28T123 132T89 311V522Q89 586 81 600Q78 606 66 611T40 621T19 625Q15 625 15 642Q15 660 17 662L162 656Q172 655 207 657T302 662Q305 653 305 644Q305 625 301 625Q295
625 280 621T252 612T236 601Q229 576 229 516V279Q229 187 270 131T383 75Q457 75 504 123T552 286V524Q552 582 539 596Q533 604 518 610T486 621T461 625Q459 625 458 633T456 650T458 662Q504 658 537 656T590 654Q607 654 633 656T682 660T714 662Q718 655
718 644Q718 625 713 625Q659 625 630 592Q616 575 616 519V291Q616 194 584 128T493 29T359 -5ZM323 729Q318 729 314 736T309 749Q309 752 321 765T352 798T392 835T429 866Q436 870 447 870Q465 870 484 861T503 832Q503 822 487 809T447 782T397 756T351 737T323
729Z" />
<glyph unicode="&#xdb;" glyph-name="Ucircumflex" horiz-adv-x="733" d="M359 -5Q278 -5 217 28T123 132T89 311V522Q89 586 81 600Q78 606 66 611T40 621T19 625Q15 625 15 642Q15 660 17 662L162 656Q172 655 207 657T302 662Q305 653 305 644Q305 625 301
625Q295 625 280 621T252 612T236 601Q229 576 229 516V279Q229 187 270 131T383 75Q457 75 504 123T552 286V524Q552 582 539 596Q533 604 518 610T486 621T461 625Q459 625 458 633T456 650T458 662Q504 658 537 656T590 654Q607 654 633 656T682 660T714 662Q718
655 718 644Q718 625 713 625Q659 625 630 592Q616 575 616 519V291Q616 194 584 128T493 29T359 -5ZM248 729Q238 729 238 748Q252 759 270 775T311 813Q322 823 332 835T354 861Q362 870 367 870Q373 870 382 861L397 844Q404 837 410 830T422 817Q446 793 465
776T498 748Q498 729 488 729Q482 729 460 739T412 765T368 791Q351 780 325 765T276 740T248 729Z" />
<glyph unicode="&#xdc;" glyph-name="Udieresis" horiz-adv-x="733" d="M359 -5Q278 -5 217 28T123 132T89 311V522Q89 586 81 600Q78 606 66 611T40 621T19 625Q15 625 15 642Q15 660 17 662L162 656Q172 655 207 657T302 662Q305 653 305 644Q305 625 301 625Q295
625 280 621T252 612T236 601Q229 576 229 516V279Q229 187 270 131T383 75Q457 75 504 123T552 286V524Q552 582 539 596Q533 604 518 610T486 621T461 625Q459 625 458 633T456 650T458 662Q504 658 537 656T590 654Q607 654 633 656T682 660T714 662Q718 655
718 644Q718 625 713 625Q659 625 630 592Q616 575 616 519V291Q616 194 584 128T493 29T359 -5ZM468 726Q438 726 416 748T394 801Q394 832 416 853T468 874Q499 874 520 852T542 801Q542 770 520 748T468 726ZM270 726Q240 726 218 748T195 801Q195 830 217 852T270
874Q299 874 321 853T343 801Q343 770 321 748T270 726Z" />
<glyph unicode="&#xdd;" glyph-name="Yacute" horiz-adv-x="669" d="M195 -4Q191 0 191 12Q191 33 194 33Q202 33 217 37T245 47T260 58Q267 83 267 139V309Q267 317 236 373L173 484L142 537Q125 567 112 585T88 610Q63 625 35 625Q31 625 31 642Q31 658 35 662Q73
660 111 658T177 656Q200 656 320 662Q322 660 322 651T321 633T318 625Q303 625 285 620T265 604Q265 596 273 582L373 405Q379 400 383 407Q398 428 416 458T452 518T480 571T492 603Q492 625 428 625Q426 625 425 633T424 650T427 662Q517 656 548 656Q574 656
661 662Q664 653 664 644Q664 626 660 626Q642 626 619 617T582 590Q572 576 551 545T506 474T459 398T422 335T407 304V145Q407 117 409 96T415 58Q417 54 429 48T456 38T477 33Q481 33 481 14Q481 4 479 -4Q475 -4 460 -3T419 0Q393 2 373 3T340 4Q322 4 291
2T233 -1T195 -4ZM310 729Q305 729 301 736T296 749Q296 752 308 765T339 798T379 835T416 866Q423 870 434 870Q452 870 471 861T490 832Q490 822 474 809T434 782T384 756T338 737T310 729Z" />
<glyph unicode="&#xde;" glyph-name="Thorn" horiz-adv-x="572" d="M10 -4Q6 0 6 12Q6 33 9 33Q17 33 32 37T60 47T75 58Q79 72 80 92T82 138V522Q82 586 74 600Q71 606 59 611T33 621T12 625Q8 625 8 642Q8 660 10 662L155 656Q175 656 295 662Q298 653 298 644Q298
625 294 625Q288 625 273 621T245 612T229 601Q225 588 224 568T222 521V516Q222 512 226 512L236 514Q247 516 264 518T296 520Q330 520 367 511T441 482Q477 463 500 425T524 339Q524 285 496 240T419 168T310 140Q290 140 271 146T244 162Q240 168 239 184T243
200Q257 192 288 192Q372 192 372 328Q372 465 280 465Q242 465 234 460Q230 457 228 454Q225 449 224 423T222 359V141Q222 115 224 95T230 58Q232 54 244 48T271 38T292 33Q296 33 296 14Q296 4 294 -4Q290 -4 275 -3T234 0Q208 2 188 3T155 4Q137 4 106 2T48
-1T10 -4Z" />
<glyph unicode="&#xdf;" glyph-name="germandbls" horiz-adv-x="608" d="M445 -7Q418 -7 389 2T337 25T309 49Q309 77 319 98T348 120Q371 120 385 109T404 84Q409 70 419 59T444 48Q455 48 460 62T466 90V104Q466 132 448 153T403 190L349 223Q322 240 304 268T285
334Q285 361 296 382T324 418Q341 432 357 448Q374 463 385 488T396 549Q396 642 300 642Q251 642 239 588Q232 561 230 537T228 475V139Q228 114 230 93T236 54Q237 50 248 44T273 34T292 30Q295 30 295 15T294 -4Q287 -3 261 -2T207 2T163 4Q147 4 119 2T66 -1T32
-4Q29 -1 29 12Q29 24 33 24Q41 24 53 27T76 36T88 46Q97 81 97 135L98 361Q98 369 93 369H40Q37 369 37 375Q37 382 39 394T46 416T52 426H93Q98 426 98 432V452Q98 533 129 587T215 668T334 696Q382 696 424 680T492 634T518 565Q518 520 497 492T452 453Q427
443 406 424T385 379Q385 319 473 271Q501 257 526 235T568 185T584 130Q584 91 566 60T516 11T445 -7Z" />
<glyph unicode="&#xe0;" glyph-name="agrave" horiz-adv-x="486" d="M148 -7Q93 -7 61 23T28 100Q28 139 52 168T114 214Q128 220 140 224T162 233Q200 245 223 250T257 260Q266 263 266 275V311Q266 393 216 393Q158 393 158 326Q158 304 140 294T100 283Q54
283 37 313Q37 339 55 363T104 406T173 437T251 449Q321 449 358 411T396 271V109Q396 75 420 75Q438 75 454 88Q461 84 461 73Q461 47 454 36Q440 23 409 9T349 -6Q325 -6 303 8T274 42Q273 42 263 35T248 24Q228 11 202 2T148 -7ZM211 65Q237 65 251 77T266 108V209L214
191Q193 184 176 170T158 133Q158 97 173 81T211 65ZM270 502Q265 502 248 512T208 540T164 576T128 611T114 638Q114 647 125 657T160 667Q185 667 194 658Q237 608 262 568T287 520Q287 515 281 509T270 502Z" />
<glyph unicode="&#xe1;" glyph-name="aacute" horiz-adv-x="486" d="M148 -7Q93 -7 61 23T28 100Q28 139 52 168T114 214Q128 220 140 224T162 233Q200 245 223 250T257 260Q266 263 266 275V311Q266 393 216 393Q158 393 158 326Q158 304 140 294T100 283Q54
283 37 313Q37 339 55 363T104 406T173 437T251 449Q321 449 358 411T396 271V109Q396 75 420 75Q438 75 454 88Q461 84 461 73Q461 47 454 36Q440 23 409 9T349 -6Q325 -6 303 8T274 42Q273 42 263 35T248 24Q228 11 202 2T148 -7ZM211 65Q237 65 251 77T266 108V209L214
191Q193 184 176 170T158 133Q158 97 173 81T211 65ZM205 502Q200 502 194 508T188 520Q188 528 213 568T281 658Q290 667 315 667Q338 667 349 657T361 638Q361 628 347 612T312 576T268 540T228 513T205 502Z" />
<glyph unicode="&#xe2;" glyph-name="acircumflex" horiz-adv-x="486" d="M148 -7Q93 -7 61 23T28 100Q28 139 52 168T114 214Q128 220 140 224T162 233Q200 245 223 250T257 260Q266 263 266 275V311Q266 393 216 393Q158 393 158 326Q158 304 140 294T100 283Q54
283 37 313Q37 339 55 363T104 406T173 437T251 449Q321 449 358 411T396 271V109Q396 75 420 75Q438 75 454 88Q461 84 461 73Q461 47 454 36Q440 23 409 9T349 -6Q325 -6 303 8T274 42Q273 42 263 35T248 24Q228 11 202 2T148 -7ZM211 65Q237 65 251 77T266 108V209L214
191Q193 184 176 170T158 133Q158 97 173 81T211 65ZM129 493Q120 493 120 516Q144 540 186 594Q207 621 225 651Q231 661 238 661Q243 661 250 651L265 630Q270 621 276 614T287 599Q309 570 326 550T356 516Q356 493 347 493Q342 493 322 506T278 536T238 567Q223
554 199 537T155 506T129 493Z" />
<glyph unicode="&#xe3;" glyph-name="atilde" horiz-adv-x="486" d="M148 -7Q93 -7 61 23T28 100Q28 139 52 168T114 214Q128 220 140 224T162 233Q200 245 223 250T257 260Q266 263 266 275V311Q266 393 216 393Q158 393 158 326Q158 304 140 294T100 283Q54
283 37 313Q37 339 55 363T104 406T173 437T251 449Q321 449 358 411T396 271V109Q396 75 420 75Q438 75 454 88Q461 84 461 73Q461 47 454 36Q440 23 409 9T349 -6Q325 -6 303 8T274 42Q273 42 263 35T248 24Q228 11 202 2T148 -7ZM211 65Q237 65 251 77T266 108V209L214
191Q193 184 176 170T158 133Q158 97 173 81T211 65ZM308 517Q277 517 229 547Q181 577 149 577Q135 577 114 552Q93 526 89 526Q82 526 82 546Q82 564 98 590Q129 636 169 636Q200 636 248 606Q295 575 327 575Q343 575 363 601Q382 626 387 626Q393 626 393 606Q393
587 378 561Q349 517 308 517Z" />
<glyph unicode="&#xe4;" glyph-name="adieresis" horiz-adv-x="486" d="M148 -7Q93 -7 61 23T28 100Q28 139 52 168T114 214Q128 220 140 224T162 233Q200 245 223 250T257 260Q266 263 266 275V311Q266 393 216 393Q158 393 158 326Q158 304 140 294T100 283Q54
283 37 313Q37 339 55 363T104 406T173 437T251 449Q321 449 358 411T396 271V109Q396 75 420 75Q438 75 454 88Q461 84 461 73Q461 47 454 36Q440 23 409 9T349 -6Q325 -6 303 8T274 42Q273 42 263 35T248 24Q228 11 202 2T148 -7ZM211 65Q237 65 251 77T266 108V209L214
191Q193 184 176 170T158 133Q158 97 173 81T211 65ZM338 500Q308 500 286 522T264 575Q264 606 286 627T338 648Q369 648 390 626T412 575Q412 544 390 522T338 500ZM140 500Q110 500 88 522T65 575Q65 604 87 626T140 648Q169 648 191 627T213 575Q213 544 191
522T140 500Z" />
<glyph unicode="&#xe5;" glyph-name="aring" horiz-adv-x="486" d="M148 -7Q93 -7 61 23T28 100Q28 139 52 168T114 214Q128 220 140 224T162 233Q200 245 223 250T257 260Q266 263 266 275V311Q266 393 216 393Q158 393 158 326Q158 304 140 294T100 283Q54 283
37 313Q37 339 55 363T104 406T173 437T251 449Q321 449 358 411T396 271V109Q396 75 420 75Q438 75 454 88Q461 84 461 73Q461 47 454 36Q440 23 409 9T349 -6Q325 -6 303 8T274 42Q273 42 263 35T248 24Q228 11 202 2T148 -7ZM211 65Q237 65 251 77T266 108V209L214
191Q193 184 176 170T158 133Q158 97 173 81T211 65ZM235 758Q194 758 165 787T136 857Q136 898 165 926T235 955Q276 955 304 927T333 857Q333 816 305 787T235 758ZM236 803Q259 803 273 819T288 857Q288 880 274 895T236 911Q214 911 198 896T182 857Q182 835
198 819T236 803Z" />
<glyph unicode="&#xe6;" glyph-name="ae" horiz-adv-x="679" d="M471 -8Q377 -8 311 61Q274 26 237 10T139 -7Q84 -7 52 23T19 100Q19 145 46 172T102 212Q116 218 139 225T175 236L243 252Q252 254 252 266V311Q252 348 240 370T207 393Q149 393 149 326Q149
304 131 294T91 283Q45 283 28 313Q28 339 46 363T95 406T164 437T242 449Q306 449 346 404Q409 449 471 449Q517 449 554 430T612 380Q633 350 644 320T658 262Q659 252 651 244Q644 238 618 233Q595 229 538 222T392 203Q387 201 387 196Q387 185 392 168T410
127Q422 105 447 89T506 73Q540 73 569 83Q589 90 599 95T618 106T641 122Q650 115 650 104Q650 94 645 81Q639 65 613 44T550 8T471 -8ZM394 264Q519 281 526 282Q532 284 532 292Q532 331 512 361T460 392Q435 392 419 374T395 328T387 270Q387 264 394 264ZM202
65Q226 65 239 77T252 108V193Q224 190 201 186T163 170T149 133Q149 97 164 81T202 65Z" />
<glyph unicode="&#xe7;" glyph-name="ccedilla" horiz-adv-x="452" d="M252 -7Q188 -7 137 24T56 108T26 226Q26 288 58 338T144 417T265 447Q316 447 359 430T421 388Q421 296 367 296Q328 296 308 346Q299 369 286 380T248 392Q168 392 168 242Q168 73 281 73Q315
73 344 83Q364 89 375 94T395 105T418 122Q427 118 427 103Q427 90 423 83Q417 67 392 46T331 9T252 -7ZM204 -156Q172 -156 156 -140Q154 -132 154 -123Q154 -109 161 -109L180 -116Q189 -119 196 -121T211 -124Q230 -124 240 -116T250 -95Q250 -67 226 -67Q211
-67 196 -73Q194 -73 188 -67T182 -57L197 -29Q202 -19 205 -12T210 -2H242L228 -28L247 -27Q269 -25 285 -41T301 -78Q301 -114 275 -135T204 -156Z" />
<glyph unicode="&#xe8;" glyph-name="egrave" horiz-adv-x="461" d="M240 -7Q179 -7 128 24T46 107T15 221Q15 285 42 336T119 417T232 447Q295 447 339 418T407 345T431 257Q431 234 422 227T384 220H158Q152 220 152 213Q152 177 165 145T205 93T270 73Q304
73 333 83Q353 89 364 94T384 105T407 122Q416 118 416 103Q416 90 412 83Q406 67 381 46T319 9T240 -7ZM159 275H286Q300 275 300 294Q300 332 280 362T227 392Q198 392 182 372T159 326T152 285Q152 275 159 275ZM252 502Q247 502 230 512T190 540T146 576T110
611T96 638Q96 647 107 657T142 667Q167 667 176 658Q219 608 244 568T269 520Q269 515 263 509T252 502Z" />
<glyph unicode="&#xe9;" glyph-name="eacute" horiz-adv-x="461" d="M240 -7Q179 -7 128 24T46 107T15 221Q15 285 42 336T119 417T232 447Q295 447 339 418T407 345T431 257Q431 234 422 227T384 220H158Q152 220 152 213Q152 177 165 145T205 93T270 73Q304
73 333 83Q353 89 364 94T384 105T407 122Q416 118 416 103Q416 90 412 83Q406 67 381 46T319 9T240 -7ZM159 275H286Q300 275 300 294Q300 332 280 362T227 392Q198 392 182 372T159 326T152 285Q152 275 159 275ZM187 502Q182 502 176 508T170 520Q170 528 195
568T263 658Q272 667 297 667Q320 667 331 657T343 638Q343 628 329 612T294 576T250 540T210 513T187 502Z" />
<glyph unicode="&#xea;" glyph-name="ecircumflex" horiz-adv-x="461" d="M240 -7Q179 -7 128 24T46 107T15 221Q15 285 42 336T119 417T232 447Q295 447 339 418T407 345T431 257Q431 234 422 227T384 220H158Q152 220 152 213Q152 177 165 145T205 93T270 73Q304
73 333 83Q353 89 364 94T384 105T407 122Q416 118 416 103Q416 90 412 83Q406 67 381 46T319 9T240 -7ZM159 275H286Q300 275 300 294Q300 332 280 362T227 392Q198 392 182 372T159 326T152 285Q152 275 159 275ZM111 493Q102 493 102 516Q126 540 168 594Q189
621 207 651Q213 661 220 661Q225 661 232 651L247 630Q252 621 258 614T269 599Q291 570 308 550T338 516Q338 493 329 493Q324 493 304 506T260 536T220 567Q205 554 181 537T137 506T111 493Z" />
<glyph unicode="&#xeb;" glyph-name="edieresis" horiz-adv-x="461" d="M240 -7Q179 -7 128 24T46 107T15 221Q15 285 42 336T119 417T232 447Q295 447 339 418T407 345T431 257Q431 234 422 227T384 220H158Q152 220 152 213Q152 177 165 145T205 93T270 73Q304
73 333 83Q353 89 364 94T384 105T407 122Q416 118 416 103Q416 90 412 83Q406 67 381 46T319 9T240 -7ZM159 275H286Q300 275 300 294Q300 332 280 362T227 392Q198 392 182 372T159 326T152 285Q152 275 159 275ZM320 500Q290 500 268 522T246 575Q246 606 268
627T320 648Q351 648 372 626T394 575Q394 544 372 522T320 500ZM122 500Q92 500 70 522T47 575Q47 604 69 626T122 648Q151 648 173 627T195 575Q195 544 173 522T122 500Z" />
<glyph unicode="&#xec;" glyph-name="igrave" horiz-adv-x="327" d="M32 -4Q28 0 28 15Q28 30 32 30Q40 30 53 34T78 44T91 55Q98 83 98 131V277Q98 333 80 352Q72 362 59 366T35 371T25 375Q25 404 30 404Q39 404 63 408T116 418T172 430T213 440L224 443Q229
443 234 437T239 426Q234 382 231 357T228 326V146Q228 89 236 55Q238 51 249 45T274 35T292 30Q295 30 295 15T294 -4Q286 -3 261 -2T207 2T163 4Q147 4 119 2T66 -1T32 -4ZM446 502Q441 502 424 512T384 540T340 576T304 611T290 638Q290 647 301 657T336 667Q361
667 370 658Q413 608 438 568T463 520Q463 515 457 509T446 502Z" />
<glyph unicode="&#xed;" glyph-name="iacute" horiz-adv-x="327" d="M32 -4Q28 0 28 15Q28 30 32 30Q40 30 53 34T78 44T91 55Q98 83 98 131V277Q98 333 80 352Q72 362 59 366T35 371T25 375Q25 404 30 404Q39 404 63 408T116 418T172 430T213 440L224 443Q229
443 234 437T239 426Q234 382 231 357T228 326V146Q228 89 236 55Q238 51 249 45T274 35T292 30Q295 30 295 15T294 -4Q286 -3 261 -2T207 2T163 4Q147 4 119 2T66 -1T32 -4ZM125 502Q120 502 114 508T108 520Q108 528 133 568T201 658Q210 667 235 667Q258 667
269 657T281 638Q281 628 267 612T232 576T188 540T148 513T125 502Z" />
<glyph unicode="&#xee;" glyph-name="icircumflex" horiz-adv-x="327" d="M32 -4Q28 0 28 15Q28 30 32 30Q40 30 53 34T78 44T91 55Q98 83 98 131V277Q98 333 80 352Q72 362 59 366T35 371T25 375Q25 404 30 404Q39 404 63 408T116 418T172 430T213 440L224 443Q229
443 234 437T239 426Q234 382 231 357T228 326V146Q228 89 236 55Q238 51 249 45T274 35T292 30Q295 30 295 15T294 -4Q286 -3 261 -2T207 2T163 4Q147 4 119 2T66 -1T32 -4ZM49 493Q40 493 40 516Q64 540 106 594Q127 621 145 651Q151 661 158 661Q163 661 170
651L185 630Q190 621 196 614T207 599Q229 570 246 550T276 516Q276 493 267 493Q262 493 242 506T198 536T158 567Q143 554 119 537T75 506T49 493Z" />
<glyph unicode="&#xef;" glyph-name="idieresis" horiz-adv-x="387" d="M293 500Q263 500 241 522T219 575Q219 606 241 627T293 648Q324 648 345 626T367 575Q367 544 345 522T293 500ZM95 500Q65 500 43 522T20 575Q20 604 42 626T95 648Q124 648 146 627T168
575Q168 544 146 522T95 500ZM61 -4Q57 0 57 15Q57 30 61 30Q69 30 82 34T107 44T120 55Q127 83 127 131V277Q127 333 109 352Q101 362 88 366T64 371T54 375Q54 404 59 404Q68 404 92 408T145 418T201 430T242 440L253 443Q258 443 263 437T268 426Q263 382 260
357T257 326V146Q257 89 265 55Q267 51 278 45T303 35T321 30Q324 30 324 15T323 -4Q315 -3 290 -2T236 2T192 4Q176 4 148 2T95 -1T61 -4Z" />
<glyph unicode="&#xf0;" glyph-name="eth" horiz-adv-x="521" d="M259 -6Q200 -6 147 23T61 102T28 217Q28 259 45 300T92 374T162 427T250 447Q303 447 315 443Q293 509 251 558L144 492Q119 522 126 528L222 587Q163 639 82 662Q82 695 92 695Q139 695 191 680T295
633L399 697Q425 667 418 662L331 608Q412 545 451 458T491 271Q491 194 471 138T416 51Q381 21 342 8T259 -6ZM270 48Q349 48 349 203Q348 286 340 318Q332 353 306 372T252 392Q170 392 170 245Q170 189 180 145T212 74T270 48Z" />
<glyph unicode="&#xf1;" glyph-name="ntilde" horiz-adv-x="605" d="M24 -4Q20 0 20 17Q20 33 24 33Q32 33 46 37T74 48T89 58Q96 86 96 134V271Q96 327 78 346Q70 356 57 360T33 365T23 369Q23 404 28 404Q54 404 102 415T211 440L216 441Q217 442 220 442L222
443Q227 443 232 437T237 426L233 395Q233 390 234 389Q236 389 241 394Q296 446 380 446Q438 446 474 397T511 248V149Q511 83 518 58Q520 54 533 48T560 38T581 33Q583 33 584 25T585 8T583 -4Q577 -4 560 -3T521 0T478 3T446 4Q430 4 402 2T347 -1T313 -4Q309
0 309 17Q309 33 313 33Q321 33 334 37T360 48T374 58Q381 86 381 134V224Q381 298 361 329T295 361Q264 361 245 350T226 317V149Q226 83 233 58Q235 54 247 48T273 38T292 33Q294 33 295 25T296 8T294 -4Q286 -3 260 -2T206 2T161 4Q149 4 129 3T86 1T47 -2T24
-4ZM374 517Q343 517 295 547Q247 577 215 577Q201 577 180 552Q159 526 155 526Q148 526 148 546Q148 564 164 590Q195 636 235 636Q266 636 314 606Q361 575 393 575Q409 575 429 601Q448 626 453 626Q459 626 459 606Q459 587 444 561Q415 517 374 517Z" />
<glyph unicode="&#xf2;" glyph-name="ograve" horiz-adv-x="523" d="M261 -7Q196 -7 143 23T58 105T26 220Q26 284 57 335T142 416T261 447Q327 447 380 417T464 335T496 220Q496 157 465 106T381 24T261 -7ZM271 48Q299 48 317 67T343 117T352 185Q352 392 247
392Q219 392 202 372T176 320T168 251Q168 48 271 48ZM294 502Q289 502 272 512T232 540T188 576T152 611T138 638Q138 647 149 657T184 667Q209 667 218 658Q261 608 286 568T311 520Q311 515 305 509T294 502Z" />
<glyph unicode="&#xf3;" glyph-name="oacute" horiz-adv-x="523" d="M261 -7Q196 -7 143 23T58 105T26 220Q26 284 57 335T142 416T261 447Q327 447 380 417T464 335T496 220Q496 157 465 106T381 24T261 -7ZM271 48Q299 48 317 67T343 117T352 185Q352 392 247
392Q219 392 202 372T176 320T168 251Q168 48 271 48ZM229 502Q224 502 218 508T212 520Q212 528 237 568T305 658Q314 667 339 667Q362 667 373 657T385 638Q385 628 371 612T336 576T292 540T252 513T229 502Z" />
<glyph unicode="&#xf4;" glyph-name="ocircumflex" horiz-adv-x="523" d="M261 -7Q196 -7 143 23T58 105T26 220Q26 284 57 335T142 416T261 447Q327 447 380 417T464 335T496 220Q496 157 465 106T381 24T261 -7ZM271 48Q299 48 317 67T343 117T352 185Q352 392
247 392Q219 392 202 372T176 320T168 251Q168 48 271 48ZM153 493Q144 493 144 516Q168 540 210 594Q231 621 249 651Q255 661 262 661Q267 661 274 651L289 630Q294 621 300 614T311 599Q333 570 350 550T380 516Q380 493 371 493Q366 493 346 506T302 536T262
567Q247 554 223 537T179 506T153 493Z" />
<glyph unicode="&#xf5;" glyph-name="otilde" horiz-adv-x="523" d="M261 -7Q196 -7 143 23T58 105T26 220Q26 284 57 335T142 416T261 447Q327 447 380 417T464 335T496 220Q496 157 465 106T381 24T261 -7ZM271 48Q299 48 317 67T343 117T352 185Q352 392 247
392Q219 392 202 372T176 320T168 251Q168 48 271 48ZM332 517Q301 517 253 547Q205 577 173 577Q159 577 138 552Q117 526 113 526Q106 526 106 546Q106 564 122 590Q153 636 193 636Q224 636 272 606Q319 575 351 575Q367 575 387 601Q406 626 411 626Q417 626
417 606Q417 587 402 561Q373 517 332 517Z" />
<glyph unicode="&#xf6;" glyph-name="odieresis" horiz-adv-x="523" d="M261 -7Q196 -7 143 23T58 105T26 220Q26 284 57 335T142 416T261 447Q327 447 380 417T464 335T496 220Q496 157 465 106T381 24T261 -7ZM271 48Q299 48 317 67T343 117T352 185Q352 392
247 392Q219 392 202 372T176 320T168 251Q168 48 271 48ZM362 500Q332 500 310 522T288 575Q288 606 310 627T362 648Q393 648 414 626T436 575Q436 544 414 522T362 500ZM164 500Q134 500 112 522T89 575Q89 604 111 626T164 648Q193 648 215 627T237 575Q237
544 215 522T164 500Z" />
<glyph unicode="&#xf7;" glyph-name="divide" horiz-adv-x="522" d="M259 378Q234 378 218 393T198 434V438Q198 461 216 479T259 498Q284 498 300 483T320 443V437Q320 414 302 396T259 378ZM31 211L27 213Q25 217 25 220Q25 228 26 243T31 270T39 283H488Q495
282 495 273Q495 252 487 218Q486 212 480 212L479 211H31ZM198 52V57Q198 86 215 101T255 117T297 104T320 58V56Q320 37 304 20T264 -4T222 1T198 52Z" />
<glyph unicode="&#xf8;" glyph-name="oslash" horiz-adv-x="523" d="M154 -18Q142 -14 131 -8T120 4L134 28Q85 58 56 108T26 220Q26 284 57 335T142 416T261 447Q312 447 358 427L373 455Q410 442 407 434L393 409Q440 378 468 329T496 220Q496 157 465 106T381
24T261 -7Q213 -7 170 10L154 -18ZM168 251Q168 169 185 120L317 355Q291 392 247 392Q219 392 202 372T176 320T168 251ZM271 48Q299 48 317 67T343 117T352 185Q352 262 338 310L207 77Q232 48 271 48Z" />
<glyph unicode="&#xf9;" glyph-name="ugrave" horiz-adv-x="599" d="M386 -5Q380 -5 380 13V50Q380 58 376 54Q355 32 315 14T227 -4Q188 -4 159 20T113 84T97 174V271Q97 327 79 346Q71 356 58 360T34 365T24 369Q24 404 29 404Q38 404 62 408T116 417T171 429T212
440Q215 441 217 442T223 443Q228 443 233 437T238 426Q233 382 230 357T227 326V219Q227 141 247 110T314 78Q348 78 365 93T382 128V271Q382 327 364 346Q356 356 343 360T319 365T309 369Q309 404 314 404Q323 404 347 408T401 417T456 429T497 440L508 443Q513
443 518 437T523 426Q518 382 515 357T512 327V131Q512 78 522 68Q527 63 538 61T560 58H570Q574 57 574 50Q574 21 568 21Q506 15 465 9T400 -2L386 -5ZM332 502Q327 502 310 512T270 540T226 576T190 611T176 638Q176 647 187 657T222 667Q247 667 256 658Q299
608 324 568T349 520Q349 515 343 509T332 502Z" />
<glyph unicode="&#xfa;" glyph-name="uacute" horiz-adv-x="599" d="M386 -5Q380 -5 380 13V50Q380 58 376 54Q355 32 315 14T227 -4Q188 -4 159 20T113 84T97 174V271Q97 327 79 346Q71 356 58 360T34 365T24 369Q24 404 29 404Q38 404 62 408T116 417T171 429T212
440Q215 441 217 442T223 443Q228 443 233 437T238 426Q233 382 230 357T227 326V219Q227 141 247 110T314 78Q348 78 365 93T382 128V271Q382 327 364 346Q356 356 343 360T319 365T309 369Q309 404 314 404Q323 404 347 408T401 417T456 429T497 440L508 443Q513
443 518 437T523 426Q518 382 515 357T512 327V131Q512 78 522 68Q527 63 538 61T560 58H570Q574 57 574 50Q574 21 568 21Q506 15 465 9T400 -2L386 -5ZM267 502Q262 502 256 508T250 520Q250 528 275 568T343 658Q352 667 377 667Q400 667 411 657T423 638Q423
628 409 612T374 576T330 540T290 513T267 502Z" />
<glyph unicode="&#xfb;" glyph-name="ucircumflex" horiz-adv-x="599" d="M386 -5Q380 -5 380 13V50Q380 58 376 54Q355 32 315 14T227 -4Q188 -4 159 20T113 84T97 174V271Q97 327 79 346Q71 356 58 360T34 365T24 369Q24 404 29 404Q38 404 62 408T116 417T171
429T212 440Q215 441 217 442T223 443Q228 443 233 437T238 426Q233 382 230 357T227 326V219Q227 141 247 110T314 78Q348 78 365 93T382 128V271Q382 327 364 346Q356 356 343 360T319 365T309 369Q309 404 314 404Q323 404 347 408T401 417T456 429T497 440L508
443Q513 443 518 437T523 426Q518 382 515 357T512 327V131Q512 78 522 68Q527 63 538 61T560 58H570Q574 57 574 50Q574 21 568 21Q506 15 465 9T400 -2L386 -5ZM191 493Q182 493 182 516Q206 540 248 594Q269 621 287 651Q293 661 300 661Q305 661 312 651L327
630Q332 621 338 614T349 599Q371 570 388 550T418 516Q418 493 409 493Q404 493 384 506T340 536T300 567Q285 554 261 537T217 506T191 493Z" />
<glyph unicode="&#xfc;" glyph-name="udieresis" horiz-adv-x="599" d="M386 -5Q380 -5 380 13V50Q380 58 376 54Q355 32 315 14T227 -4Q188 -4 159 20T113 84T97 174V271Q97 327 79 346Q71 356 58 360T34 365T24 369Q24 404 29 404Q38 404 62 408T116 417T171
429T212 440Q215 441 217 442T223 443Q228 443 233 437T238 426Q233 382 230 357T227 326V219Q227 141 247 110T314 78Q348 78 365 93T382 128V271Q382 327 364 346Q356 356 343 360T319 365T309 369Q309 404 314 404Q323 404 347 408T401 417T456 429T497 440L508
443Q513 443 518 437T523 426Q518 382 515 357T512 327V131Q512 78 522 68Q527 63 538 61T560 58H570Q574 57 574 50Q574 21 568 21Q506 15 465 9T400 -2L386 -5ZM400 500Q370 500 348 522T326 575Q326 606 348 627T400 648Q431 648 452 626T474 575Q474 544 452
522T400 500ZM202 500Q172 500 150 522T127 575Q127 604 149 626T202 648Q231 648 253 627T275 575Q275 544 253 522T202 500Z" />
<glyph unicode="&#xfd;" glyph-name="yacute" horiz-adv-x="544" d="M76 -218Q46 -218 28 -202T9 -165Q9 -135 32 -118Q160 -118 197 -40L228 26L74 368Q64 390 44 398T8 406Q4 406 4 421Q4 441 6 443Q10 443 25 442T69 439Q97 437 116 436T148 435Q163 435 191
437T245 441T279 443Q282 434 282 422Q282 406 278 406Q270 406 255 402T228 393T216 380Q218 365 237 315T295 176Q329 250 347 290T369 338Q375 352 375 368Q375 381 356 393T304 406Q300 406 300 424Q300 431 300 435T302 443Q310 443 335 441T389 437T433 435Q444
435 458 436T489 439L540 443Q544 436 544 426Q544 406 540 406Q530 406 513 402T479 389T456 366L270 -37Q186 -218 76 -218ZM267 502Q262 502 256 508T250 520Q250 528 275 568T343 658Q352 667 377 667Q400 667 411 657T423 638Q423 628 409 612T374 576T330
540T290 513T267 502Z" />
<glyph unicode="&#xfe;" glyph-name="thorn" horiz-adv-x="567" d="M21 -218Q17 -214 17 -198Q17 -181 21 -181Q29 -181 43 -177T71 -166T86 -156Q93 -128 93 -80V528Q93 553 92 571T88 603Q84 619 36 619H27Q21 619 21 639Q21 656 27 656Q85 661 136 673T210
692L220 695H222Q226 695 230 689T235 678Q223 633 223 577V418Q223 412 225 412Q268 446 315 446Q379 446 428 416T506 335T535 227Q535 153 503 101T414 20T285 -8Q261 -8 245 -4T227 1Q223 1 223 -15V-65Q223 -131 230 -156Q232 -160 245 -166T272 -176T293
-181Q295 -181 296 -189T297 -206T295 -218Q289 -218 272 -217T233 -214T190 -211T158 -210Q146 -210 126 -211T83 -213T44 -216T21 -218ZM301 46Q391 46 391 194Q391 388 300 388Q265 388 244 367T223 314V125Q223 87 248 67T301 46Z" />
<glyph unicode="&#xff;" glyph-name="ydieresis" horiz-adv-x="544" d="M76 -218Q46 -218 28 -202T9 -165Q9 -135 32 -118Q160 -118 197 -40L228 26L74 368Q64 390 44 398T8 406Q4 406 4 421Q4 441 6 443Q10 443 25 442T69 439Q97 437 116 436T148 435Q163 435
191 437T245 441T279 443Q282 434 282 422Q282 406 278 406Q270 406 255 402T228 393T216 380Q218 365 237 315T295 176Q329 250 347 290T369 338Q375 352 375 368Q375 381 356 393T304 406Q300 406 300 424Q300 431 300 435T302 443Q310 443 335 441T389 437T433
435Q444 435 458 436T489 439L540 443Q544 436 544 426Q544 406 540 406Q530 406 513 402T479 389T456 366L270 -37Q186 -218 76 -218ZM400 500Q370 500 348 522T326 575Q326 606 348 627T400 648Q431 648 452 626T474 575Q474 544 452 522T400 500ZM202 500Q172
500 150 522T127 575Q127 604 149 626T202 648Q231 648 253 627T275 575Q275 544 253 522T202 500Z" />
<glyph unicode="&#x2013;" glyph-name="endash" horiz-adv-x="499" d="M34 194L30 196Q28 200 28 203Q28 211 29 226T34 255T42 268H467Q473 268 473 259Q473 237 464 201Q463 196 458 194H34Z" />
<glyph unicode="&#x2014;" glyph-name="emdash" horiz-adv-x="1087" d="M34 194L30 196Q28 200 28 203Q28 211 29 226T34 255T42 268H1051Q1057 268 1057 259Q1057 237 1048 201Q1047 196 1042 194H34Z" />
<glyph unicode="&#x2018;" glyph-name="quoteleft" horiz-adv-x="160" d="M126 706Q133 706 146 697T162 680Q128 660 110 633T92 590Q92 578 102 566T123 542T134 518Q134 500 114 487T68 474Q45 474 31 485Q16 508 16 555Q16 581 26 606T52 649Q73 673 96 689T126 706Z" />
<glyph unicode="&#x2019;" glyph-name="quoteright" horiz-adv-x="165" d="M45 474Q38 474 25 483T9 500Q44 520 61 547T79 590Q79 602 69 614T48 638T37 662Q37 680 57 693T103 706Q126 706 140 695Q155 673 155 625Q155 599 145 574T119 531Q98 507 75 491T45 474Z" />
<glyph unicode="&#x201a;" glyph-name="quotesinglbase" horiz-adv-x="160" d="M40 -108Q33 -108 20 -99T4 -82Q39 -62 56 -35T74 8Q74 20 64 32T43 56T32 80Q32 98 52 111T98 124Q121 124 135 113Q150 91 150 43Q150 17 140 -8T114 -51Q93 -75 70 -91T40 -108Z" />
<glyph unicode="&#x201c;" glyph-name="quotedblleft" horiz-adv-x="332" d="M274 706Q281 706 294 697T310 680Q276 660 258 633T240 590Q240 578 250 566T271 542T282 518Q282 500 262 487T216 474Q193 474 179 485Q164 508 164 555Q164 581 174 606T200 649Q221
673 244 689T274 706ZM126 706Q133 706 146 697T162 680Q128 660 110 633T92 590Q92 578 102 566T123 542T134 518Q134 500 114 487T68 474Q45 474 31 485Q16 508 16 555Q16 581 26 606T52 649Q73 673 96 689T126 706Z" />
<glyph unicode="&#x201d;" glyph-name="quotedblright" horiz-adv-x="332" d="M52 474Q45 474 32 483T16 500Q51 520 68 547T86 590Q86 602 76 614T55 638T44 662Q44 680 64 693T110 706Q133 706 147 695Q162 673 162 625Q162 599 152 574T126 531Q105 507 82
491T52 474ZM201 474Q194 474 181 483T165 500Q200 520 217 547T235 590Q235 602 225 614T204 638T193 662Q193 680 213 693T259 706Q282 706 296 695Q311 673 311 625Q311 599 301 574T275 531Q254 507 231 491T201 474Z" />
<glyph unicode="&#x201e;" glyph-name="quotedblbase" horiz-adv-x="320" d="M48 -108Q41 -108 28 -99T12 -82Q47 -62 64 -35T82 8Q82 20 72 32T51 56T40 80Q40 98 60 111T106 124Q129 124 143 113Q158 91 158 43Q158 17 148 -8T122 -51Q101 -75 78 -91T48 -108ZM196
-108Q189 -108 176 -99T160 -82Q195 -62 212 -35T230 8Q230 20 220 32T199 56T188 80Q188 98 208 111T254 124Q277 124 291 113Q306 91 306 43Q306 17 296 -8T270 -51Q249 -75 226 -91T196 -108Z" />
<glyph unicode="&#x2022;" glyph-name="bullet" horiz-adv-x="409" d="M203 121Q168 121 136 139T84 189T63 263Q63 302 82 334T133 385T203 404Q242 404 273 385T323 334T342 263Q342 221 322 189T270 139T203 121Z" />
<glyph unicode="&#x2039;" glyph-name="guilsinglleft" horiz-adv-x="324" d="M257 73Q247 85 218 109T145 164T51 227Q44 230 44 241Q44 258 52 268Q96 294 129 318T187 361Q235 398 258 423Q265 422 279 414T293 398Q293 390 219 319L146 248L218 177Q254 141
273 122T292 98Q292 90 278 82T257 73Z" />
<glyph unicode="&#x203a;" glyph-name="guilsinglright" horiz-adv-x="324" d="M80 73Q73 74 59 82T45 98Q45 102 64 121T119 177L191 248L118 319Q44 390 44 398Q44 406 58 414T79 423Q102 398 150 361Q176 342 209 318T285 268Q293 258 293 241Q293 230 286
227Q235 195 192 164T120 109T80 73Z" />
</font>
</defs>
</svg>
