<?xml version="1.0" standalone="no"?>
<!DOCTYPE svg PUBLIC "-//W3C//DTD SVG 1.1//EN" "http://www.w3.org/Graphics/SVG/1.1/DTD/svg11.dtd">
<svg xmlns="http://www.w3.org/2000/svg">
<defs >
<font id="CrimsonText" horiz-adv-x="497" ><font-face
    font-family="Crimson Text SemiBold"
    units-per-em="1024"
    panose-1="0 0 0 0 0 0 0 0 0 0"
    ascent="972"
    descent="-359"
    alphabetic="0" />
<glyph unicode=" " glyph-name="space" horiz-adv-x="156" />
<glyph unicode="!" glyph-name="exclam" horiz-adv-x="220" d="M77 169Q71 169 71 189Q72 204 75 240T82 324T92 421T103 511T113 576Q118 600 137 618T179 636Q198 636 207 622T217 591Q217 578 208 541T183 449T148 330T109 196Q106 184 96 177T77 169ZM52 -11Q28
-11 15 6T2 44Q2 79 25 100T76 122Q100 122 114 105T126 63Q123 34 101 12T52 -11Z" />
<glyph unicode="&quot;" glyph-name="quotedbl" horiz-adv-x="281" d="M74 434Q68 434 64 437T60 447Q67 515 64 558T60 636Q62 648 72 662T98 687T130 698Q153 698 159 688Q164 676 158 633Q152 602 128 540Q103 477 96 449Q92 434 74 434ZM228 434Q222 434 218
437T214 447Q221 515 218 558T214 636Q216 648 226 662T252 687T284 698Q307 698 313 688Q318 676 312 633Q306 602 282 540Q257 477 250 449Q246 434 228 434Z" />
<glyph unicode="#" glyph-name="numbersign" horiz-adv-x="443" d="M60 16Q36 16 36 21L89 172H15Q8 172 8 178Q8 187 12 200T22 223T33 234H107L137 314H63Q56 314 56 320Q56 329 60 342T70 365T81 376H155L207 524Q210 532 245 532Q266 532 266 526L213 376H295L347
524Q350 532 385 532Q406 532 406 526L353 376H427Q434 376 434 370Q434 362 430 349T421 325T409 314H335L305 234H379Q386 234 386 228Q386 220 382 207T373 183T361 172H287L235 24Q232 16 200 16Q176 16 176 21L229 172H147L95 24Q92 16 60 16ZM165 234H247L277
314H195L165 234Z" />
<glyph unicode="$" glyph-name="dollar" horiz-adv-x="455" d="M174 -8Q163 -8 150 -7L130 -62Q129 -66 118 -66Q99 -66 87 -51L104 -2Q64 4 12 16Q14 49 15 64T17 95T17 142L16 170Q16 178 37 178Q49 178 58 169Q58 135 74 102T123 51L204 277L158 311Q142 323
125 340T95 380T82 432Q82 491 115 537T201 609T312 636Q322 636 333 635L351 685Q353 690 362 690Q381 690 395 673L379 627Q383 626 388 625Q411 620 427 617T452 611L441 524Q436 492 434 474T427 455Q418 455 409 458Q396 459 396 472Q396 497 386 521T356
564L285 363Q310 346 328 334T368 302Q382 289 398 262T414 203Q414 146 381 98T293 21T174 -8ZM188 482Q188 461 201 437T245 389L315 586Q307 588 298 588Q264 588 239 572T201 532T188 482ZM263 232L242 248L167 39Q171 39 176 39Q214 39 242 58T286 105T302
162Q302 180 293 198T263 232Z" />
<glyph unicode="%" glyph-name="percent" horiz-adv-x="644" d="M181 338Q128 338 96 373T64 462Q64 512 89 556T155 629T244 658Q297 658 328 622T360 533Q360 484 335 439T269 366T181 338ZM21 -8Q-2 -8 -4 4L579 642Q591 654 599 654Q627 654 636 640L54 4Q42
-8 21 -8ZM195 371Q222 371 239 392T265 443T278 505T282 558Q281 585 268 605T231 626Q204 626 187 606T159 556T145 495T142 439Q143 412 157 392T195 371ZM424 -2Q371 -2 339 34T306 123Q306 173 331 217T397 290T487 318Q540 318 571 283T602 194Q602 145 577
100T512 27T424 -2ZM437 31Q464 31 481 52T507 103T520 165T524 218Q523 245 510 265T473 286Q446 286 429 267T401 218T387 156T384 99Q386 72 399 52T437 31Z" />
<glyph unicode="&amp;" glyph-name="ampersand" horiz-adv-x="680" d="M301 -14Q234 -14 177 13T84 87T49 196Q49 237 68 274T117 340T179 381Q135 431 135 479Q135 526 163 561T234 615T323 635Q369 635 403 610T437 543Q437 524 427 505T403 474T377 461Q366
461 366 469Q372 487 373 496T375 514Q375 546 354 566T301 587Q255 587 225 553T195 470Q195 424 225 398Q246 404 265 404Q292 404 314 392T337 360Q337 341 318 331T273 320Q235 320 211 341Q152 291 152 204Q152 157 172 118T228 57T313 34Q367 34 411 61T483
135T510 237Q510 275 492 303T440 332Q414 332 395 318T375 280Q375 267 385 262T410 253T434 242T445 217Q445 175 407 164Q392 164 374 176T342 210T329 257Q329 294 349 323T402 370T473 386Q513 385 527 385T549 384Q583 384 609 399T635 444Q635 458 625 467T602
477Q586 477 577 467T551 457Q536 457 526 469T515 497Q515 523 539 542Q604 542 639 517T675 444Q675 400 645 372T565 344Q562 344 556 344T539 346Q595 296 595 224Q595 175 571 132T505 56T411 5T301 -14Z" />
<glyph unicode="&apos;" glyph-name="quotesingle" horiz-adv-x="127" d="M74 434Q68 434 64 437T60 447Q67 515 64 558T60 636Q62 648 72 662T98 687T130 698Q153 698 159 688Q164 676 158 633Q152 602 128 540Q103 477 96 449Q92 434 74 434Z" />
<glyph unicode="(" glyph-name="parenleft" horiz-adv-x="331" d="M162 -129Q148 -129 127 -108T83 -42Q61 -2 46 60T31 190Q31 260 48 332T95 469T158 583Q190 629 222 666T282 725T332 748Q339 748 339 728V722Q339 720 337 720Q308 704 271 650T198 520Q175
470 156 408T126 281T115 153Q115 57 136 -15Q157 -86 178 -100V-106Q177 -112 172 -120T162 -129Z" />
<glyph unicode=")" glyph-name="parenright" horiz-adv-x="322" d="M-4 -129Q-11 -129 -11 -111V-106Q-11 -101 -8 -100Q16 -89 50 -40T119 76Q145 124 166 189T200 327T213 474Q213 566 195 633T151 720Q150 720 150 722Q151 728 156 738T167 748Q191 748 221
709Q241 683 258 639T286 541T297 428Q297 337 271 248T207 93Q172 33 131 -17T53 -98T-4 -129Z" />
<glyph unicode="*" glyph-name="asterisk" horiz-adv-x="377" d="M147 300Q136 300 128 308T119 330Q119 353 153 403Q186 453 186 464Q186 473 177 473Q170 473 123 452Q78 430 56 430Q43 430 34 437T25 457Q25 480 42 492T87 504Q103 504 130 501Q143 499 152
498T165 497Q189 497 189 510Q189 520 163 558Q137 596 137 620Q137 639 148 651T176 664Q201 664 205 641T209 582Q209 515 219 515Q229 515 241 533T269 574T302 616T341 634Q366 634 366 605Q366 582 333 558Q311 542 288 531T250 512T234 492Q234 482 252 478T295
468T338 453T357 421Q357 406 344 394T315 381Q299 381 285 393T259 422T237 451T218 464Q207 464 204 445T200 397T189 340Q177 300 147 300Z" />
<glyph unicode="+" glyph-name="plus" horiz-adv-x="482" d="M173 12Q166 12 160 14T155 21L190 208Q193 218 187 218H12Q8 218 8 232Q8 254 32 282H203Q208 282 209 292Q211 299 215 324T224 379T233 435T240 470Q242 476 254 480T281 486T304 488Q316 488 314
479Q303 414 294 366T279 287Q277 282 282 282H459Q463 282 463 268Q463 244 440 218H267Q263 218 262 209L228 30Q227 23 207 18T173 12Z" />
<glyph unicode="," glyph-name="comma" horiz-adv-x="244" d="M-10 -166Q-15 -164 -21 -155T-27 -138Q-27 -135 -5 -119Q17 -101 39 -71T61 -7Q61 6 54 30Q47 52 47 64Q47 93 72 112T132 131Q152 131 160 126Q163 108 163 98Q163 74 158 52T143 8Q123 -41 86 -85T-10
-166Z" />
<glyph unicode="-" glyph-name="hyphen" horiz-adv-x="327" d="M36 196Q31 196 31 211Q31 218 35 230T44 253T54 264L280 276Q287 276 287 264Q287 257 283 244T273 219T262 207L36 196Z" />
<glyph unicode="." glyph-name="period" horiz-adv-x="196" d="M71 -12Q47 -12 34 5T21 43Q21 78 44 99T95 121Q119 121 133 104T145 62Q142 33 120 11T71 -12Z" />
<glyph unicode="/" glyph-name="slash" horiz-adv-x="485" d="M10 -34Q-1 -34 -7 -28L418 739Q430 761 465 761Q487 761 493 755L69 -12Q66 -18 49 -26T10 -34Z" />
<glyph unicode="0" glyph-name="zero" horiz-adv-x="488" d="M187 -3Q141 -3 106 26T51 105T31 220Q31 294 54 366T118 496T208 590T310 625Q356 625 390 597T444 518T464 404Q464 330 441 258T378 127T289 33T187 -3ZM197 41Q229 41 255 72T302 154T335 261T355
369T362 452Q362 478 358 508T340 560T302 582Q269 582 243 552T196 474T163 372T142 268T135 185Q135 150 140 117T159 63T197 41Z" />
<glyph unicode="1" glyph-name="one" horiz-adv-x="286" d="M-4 -3Q-6 -1 -6 4Q-6 27 2 27Q9 27 21 30T45 40T59 51Q67 65 80 124L144 447Q150 477 150 493Q150 510 140 510Q127 510 68 480Q58 484 58 500Q58 506 62 510Q268 637 273 637Q282 637 282 618Q266
588 254 524L178 130Q174 107 172 90T170 60Q170 43 187 35T217 27Q218 27 218 22Q218 9 213 -3Q185 -1 156 1T106 3Q75 3 48 1T-4 -3Z" />
<glyph unicode="2" glyph-name="two" horiz-adv-x="444" d="M1 0Q-6 10 -6 21L-4 33Q150 182 235 297T320 480Q320 517 301 540T248 563Q214 563 185 545Q159 528 141 509T120 490Q108 490 108 509Q108 522 112 526Q134 553 168 578T240 621T312 638Q368 638 399
605T430 516Q430 410 327 297Q293 259 262 228T196 166T112 95Q110 93 110 88Q110 84 114 84H286Q303 84 318 90T342 106Q353 120 356 126T367 147Q373 156 392 156Q402 156 405 149L377 82Q366 56 358 36T345 0L210 1L1 0Z" />
<glyph unicode="3" glyph-name="three" horiz-adv-x="426" d="M100 -4Q60 -4 34 6T-1 30Q-3 36 -3 51Q-3 72 10 86T42 100Q61 100 88 71Q115 42 139 42Q200 42 239 87T285 200Q291 251 267 283T203 316Q190 316 174 315T135 309Q131 318 132 330Q132 340 138 349Q208
364 252 407T302 506Q306 535 289 553T247 572Q217 572 192 559T150 533T125 520Q117 520 117 536Q117 550 121 554Q196 638 313 638Q348 638 375 611T396 535Q394 504 386 485T362 445Q353 432 337 417T307 389T288 374Q310 374 336 355T379 304T391 228Q386 180
361 138T295 64T204 14T100 -4Z" />
<glyph unicode="4" glyph-name="four" horiz-adv-x="444" d="M254 -4Q212 -4 215 6L247 173Q247 178 241 178H13Q5 186 5 201Q5 206 5 211T7 222L391 627Q408 644 419 644Q424 644 427 640T430 630L355 250Q353 242 362 242H403Q411 242 411 228Q411 202 399 178H347Q343
178 341 172L308 2Q283 -4 254 -4ZM97 242H253Q261 245 263 250L303 464Q305 472 301 472L299 470L95 254Q93 252 93 249Q93 242 97 242Z" />
<glyph unicode="5" glyph-name="five" horiz-adv-x="436" d="M101 -4Q61 -4 35 6T0 30Q-2 36 -2 51Q-2 72 12 86T43 100Q62 100 89 71Q115 42 139 42Q205 42 241 83T282 184Q289 245 261 285T187 325Q173 325 157 324T124 320L89 315Q83 315 77 329Q112 417 132
485T162 592T181 632Q398 632 423 638Q428 628 425 614Q423 595 418 578T402 546H341Q295 546 265 546T222 545Q194 543 193 536L147 401Q172 405 192 406T229 408Q275 408 313 383T374 318T391 232Q384 168 345 115T244 29T101 -4Z" />
<glyph unicode="6" glyph-name="six" horiz-adv-x="443" d="M170 -6Q126 -6 92 16T39 75T20 161Q20 235 53 307T143 444T273 558T426 639Q440 634 440 612Q334 567 263 495T155 330T118 136Q118 93 134 67T183 40Q211 40 236 64T276 130T292 220Q292 263 279 283T234
311Q220 314 210 315T194 316Q188 319 188 332Q188 341 200 349T230 362T262 367Q300 367 329 348T375 297T392 223Q392 180 373 139T322 66T251 14T170 -6Z" />
<glyph unicode="7" glyph-name="seven" horiz-adv-x="484" d="M48 -11Q36 -11 29 -4T21 15Q21 23 25 28L388 528H265Q214 528 184 528T146 527Q131 527 123 521T105 506Q101 502 91 485T76 456H66Q53 456 48 462Q56 488 75 537Q95 587 99 603Q102 615 119 615H422Q429
615 438 615T459 617L483 618Q489 618 489 613Q489 597 449 542L55 -10Q53 -11 48 -11Z" />
<glyph unicode="8" glyph-name="eight" horiz-adv-x="438" d="M160 -6Q96 -6 54 29T12 126Q12 191 52 240T153 318Q158 320 154 324Q130 348 112 376T93 446Q93 500 121 542T193 608T285 633Q350 633 389 603T429 518Q429 465 394 418T297 338Q293 336 297 333T310
322Q333 300 357 270T381 191Q381 155 363 120T314 57T244 11T160 -6ZM260 368Q263 368 267 372Q307 410 320 444T334 520Q334 551 321 569T282 588Q254 588 234 568T202 519T191 466Q191 420 250 373Q256 368 260 368ZM172 37Q210 37 233 58T266 110T276 164Q276
198 253 228T198 283Q191 289 189 289Q188 289 186 289T179 284Q158 271 143 244T119 185T111 121Q111 83 127 60T172 37Z" />
<glyph unicode="9" glyph-name="nine" horiz-adv-x="435" d="M275 639Q320 639 353 618T406 558T425 472Q425 398 392 326T302 189T172 75T19 -6Q5 -1 5 21Q111 66 182 139T290 303T327 497Q327 540 311 566T262 593Q234 593 209 569T169 504T153 413Q153 370
166 350T211 322Q225 319 235 318T251 317Q257 314 257 301Q257 293 245 285T215 271T183 266Q146 266 117 285T70 337T53 410Q53 453 72 494T123 567T194 619T275 639Z" />
<glyph unicode=":" glyph-name="colon" horiz-adv-x="196" d="M317 -11Q293 -11 280 6T267 44Q267 79 290 100T341 122Q365 122 379 105T391 63Q388 34 366 12T317 -11ZM121 298Q97 298 84 315T71 353Q71 388 94 409T145 431Q169 431 183 414T195 372Q192 343
170 321T121 298Z" />
<glyph unicode=";" glyph-name="semicolon" horiz-adv-x="174" d="M232 84Q227 86 221 95T215 112Q215 115 237 131Q259 149 281 179T303 243Q303 256 296 280Q289 302 289 314Q289 343 314 362T374 381Q394 381 402 376Q405 358 405 348Q405 324 400 302T385
258Q365 209 328 165T232 84ZM137 298Q113 298 100 315T87 353Q87 388 110 409T161 431Q185 431 199 414T211 372Q208 343 186 321T137 298Z" />
<glyph unicode="&lt;" glyph-name="less" horiz-adv-x="433" d="M335 -14Q332 -14 331 -13L19 177Q6 185 10 210Q11 230 32 241L415 428L419 430Q425 430 425 390Q425 372 420 369L89 209L359 46Q361 44 361 40Q361 35 356 22T344 -3T335 -14Z" />
<glyph unicode="=" glyph-name="equal" horiz-adv-x="521" d="M60 255Q54 255 54 268T60 297T77 319H480Q487 319 487 308T483 282T463 255H60ZM33 114Q27 114 27 127T33 156T50 178H453Q460 178 460 165T453 136T436 114H33Z" />
<glyph unicode="&gt;" glyph-name="greater" horiz-adv-x="438" d="M5 -15Q0 -15 0 39Q0 45 4 46H5L339 209L70 369L69 376Q74 393 83 411T95 430L99 428L408 241Q421 234 420 219Q414 187 395 177L11 -13Q5 -15 5 -15Z" />
<glyph unicode="?" glyph-name="question" horiz-adv-x="346" d="M172 188Q156 188 131 203T85 242T65 290Q65 350 120 383L230 448Q282 479 282 515Q282 540 268 556T227 572Q209 572 189 549Q169 526 155 526Q131 526 120 546T113 593Q137 638 191 638Q233 638
267 620T323 570T344 501Q344 420 285 382Q265 368 238 352T175 316Q139 297 139 266Q139 247 161 228Q183 209 183 205Q183 196 172 188ZM80 -11Q56 -11 43 6T30 44Q30 79 53 100T104 122Q128 122 142 105T154 63Q151 34 129 12T80 -11Z" />
<glyph unicode="@" glyph-name="at" horiz-adv-x="748" d="M313 -170Q235 -171 173 -140T75 -57Q39 -6 26 58T24 185Q42 275 84 347T188 471T322 550T477 578Q565 578 626 524Q686 470 706 392T710 233Q693 146 659 92T581 12T493 -13Q463 -13 441 1T409 36T403
80Q403 81 402 81T398 78Q386 60 361 41T306 7T250 -7Q218 -7 199 14T173 69T174 141Q188 213 232 274T342 372T486 410L572 401Q567 385 563 372T555 348L493 134Q463 31 511 31Q544 31 571 51T615 103Q632 135 640 162T654 214Q671 301 653 371T585 482T457 524Q393
524 333 502T224 439T140 343T94 223Q74 117 94 39T177 -82T352 -126Q386 -126 419 -113V-122Q416 -138 397 -148T354 -164T313 -170ZM288 53Q305 53 326 67T367 102T403 143T421 176L464 322Q469 336 468 344T452 356Q416 364 377 341T307 267T261 143Q243 53
288 53Z" />
<glyph unicode="A" glyph-name="A" horiz-adv-x="648" d="M-10 -3Q-12 3 -12 4Q-12 27 -6 27Q2 27 17 31T46 43T66 58Q73 66 85 85T116 136L393 610Q425 664 445 664Q451 664 455 660L549 136L563 63Q565 53 575 45T598 32T617 27Q619 27 619 21Q619 4 615 -3L501
3Q490 3 376 -3Q375 -2 375 3Q375 27 381 27Q391 27 411 34T436 50Q442 62 442 80Q442 85 437 120T422 223Q422 228 417 228Q399 231 323 231Q286 231 229 228Q224 228 223 224Q222 222 209 201T178 152T148 98T135 60Q135 50 146 43T172 31T195 27Q197 27 197
22Q197 9 191 -3Q180 -2 152 0T99 3Q83 3 61 2T19 -1T-10 -3ZM335 285Q364 285 407 288Q411 288 411 292L394 395Q387 436 383 460T378 492L262 288Q292 285 335 285Z" />
<glyph unicode="B" glyph-name="B" horiz-adv-x="560" d="M-6 -3Q-8 -1 -8 6Q-8 27 -2 27Q6 27 19 31T45 40T61 52Q75 81 87 142L160 518Q165 545 167 566T170 603Q170 610 156 616T128 627T114 635Q114 654 122 662Q150 660 179 659T240 657Q254 657 275 657T319
658T358 658T378 659Q422 659 461 644T525 599T550 523Q550 483 533 450T490 394T435 356L431 354Q450 351 471 333T507 286T522 221Q522 161 487 111T391 30T248 0H178Q144 0 127 0T108 1Q97 1 69 0T-6 -3ZM292 372Q437 372 437 523Q437 611 349 611Q285 611 282
596L240 386Q237 372 292 372ZM258 48Q302 48 335 70T388 130T407 217Q407 323 291 323Q227 323 224 308L183 96Q180 81 180 70Q180 51 205 50T258 48Z" />
<glyph unicode="C" glyph-name="C" horiz-adv-x="610" d="M299 -6Q216 -6 154 30T59 127T25 263Q25 362 79 456Q115 519 166 566T279 640T404 667Q491 667 614 630Q614 627 612 608T607 563T602 518T598 494Q595 479 573 479Q565 479 560 482Q559 500 554 518T534
562Q519 587 484 602T398 618Q348 618 303 589T221 509T164 393T143 253Q143 160 187 101T317 42Q401 42 453 76Q473 89 486 109T508 144T525 160Q529 160 538 154T549 142Q533 111 524 80T505 40Q491 26 459 16T385 0T299 -6Z" />
<glyph unicode="D" glyph-name="D" horiz-adv-x="686" d="M-6 -3Q-8 -1 -8 6Q-8 27 -1 27Q6 27 20 31T47 41T62 52Q75 82 86 138L160 518Q172 577 170 603Q170 609 159 615T136 627T116 632Q115 632 115 636Q115 656 121 662Q150 660 179 659T240 658H403Q491
658 549 625T638 535T668 404Q668 350 652 293T602 184T521 89T411 22T273 -3Q264 -3 246 -3T202 -1Q176 1 154 2T115 2L-6 -3ZM298 48Q356 48 403 78T483 162T533 285T551 431Q551 472 537 512T490 580T399 608Q350 608 324 605T287 585T266 522L192 138Q180 72
188 64Q201 48 298 48Z" />
<glyph unicode="E" glyph-name="E" horiz-adv-x="544" d="M-6 -3Q-8 -1 -8 6Q-8 27 -1 27Q6 27 20 31T47 41T62 52Q75 82 86 138L160 518Q172 577 170 603Q170 609 159 615T136 627T116 632Q115 632 115 636Q115 656 121 662Q150 660 179 659T240 658Q261 658
301 658T389 660T476 663T538 664Q537 655 537 633T536 587T537 544T537 522Q532 517 517 517Q505 517 505 524Q493 613 400 613H355Q290 613 286 600Q278 578 273 560T266 528L236 363Q239 357 252 357T274 356H336Q366 356 380 359T402 376T425 422Q428 430 440
430Q453 430 457 424L421 234Q417 230 403 230Q392 230 390 238Q389 285 376 297Q366 306 290 306Q224 306 222 298L193 146Q189 124 185 99T185 61Q189 50 209 50T279 49Q331 49 366 59T427 95T476 166Q479 172 490 172Q510 172 514 166Q440 23 431 -3Q405 -3
364 -3T266 -1Q210 1 173 2T115 2L-6 -3Z" />
<glyph unicode="F" glyph-name="F" horiz-adv-x="532" d="M250 -4L115 3L-6 -3Q-8 -1 -8 6Q-8 27 -1 27Q6 27 20 31T47 41T62 52Q75 82 86 138L160 518Q172 577 170 603Q170 609 159 615T136 627T116 632Q115 632 115 636Q115 656 121 662Q150 660 179 659T240
658Q284 656 388 661Q492 664 536 664Q535 658 535 637T534 590T535 545T536 522Q531 517 516 517Q504 517 504 524Q492 613 398 613H354Q288 613 284 600Q277 580 273 562T265 528L234 363Q238 359 250 358T272 356H334Q364 356 378 359T401 376T424 422Q427 430
438 430Q452 430 456 424L419 234Q415 230 402 230Q390 230 388 238Q387 285 375 297Q365 306 289 306Q222 306 220 298L189 134Q185 112 183 94T181 61Q181 49 193 42T222 31T254 27Q256 27 256 15Q256 2 250 -4Z" />
<glyph unicode="G" glyph-name="G" horiz-adv-x="645" d="M265 -8Q195 -8 141 29T57 128T26 266Q26 344 57 416T142 544T264 634T406 667Q493 667 616 630Q609 577 607 550T604 510T600 483Q599 474 580 474Q566 474 560 480Q560 542 517 580T400 618Q351 618
311 595T240 532T187 445T154 349T143 260Q143 200 163 151T221 72T315 42Q382 42 414 65Q423 72 424 84Q430 112 436 146T446 208T450 244Q450 252 437 258T407 267T381 271Q379 271 379 277Q379 294 386 301Q444 299 477 298T518 296Q528 296 557 297T633 301Q633
271 626 271Q607 271 583 261T553 230Q552 223 549 205T543 166T537 128T534 102V75Q534 56 506 44Q463 25 426 14T350 -3T265 -8Z" />
<glyph unicode="H" glyph-name="H" horiz-adv-x="662" d="M-6 -3Q-8 -1 -8 4Q-8 27 -2 27Q6 27 19 30T45 38T60 49Q68 65 74 87T86 138L160 520Q165 546 167 566T170 602Q170 611 161 617T139 628T118 632Q116 632 116 636Q116 655 123 662L238 657Q250 656 280
658T357 662V658Q357 632 350 632Q345 632 331 628T305 619T289 608Q281 591 275 569T264 519L237 376V375Q237 368 368 368Q489 368 490 374L518 520Q523 546 525 567T528 604Q528 618 509 625T476 632Q474 632 474 637Q474 654 482 662Q535 660 565 659T602 657Q612
657 640 658T716 662V657Q716 632 710 632Q705 632 691 628T665 619T649 608Q642 594 636 572T624 519L550 139Q545 111 542 90T538 54Q538 47 548 41T571 31T590 27Q592 27 592 22Q592 8 585 -3L470 3Q457 4 441 3T403 0Q361 -3 352 -3Q350 -1 350 4Q350 27 356
27Q364 27 377 30T402 39T418 50Q426 66 432 88T444 138L476 306L477 307Q477 314 353 314Q313 314 287 314T249 313Q225 312 223 304L191 139Q185 108 183 87T180 54Q180 47 190 41T213 31T232 27Q234 27 234 22Q234 8 227 -3L112 3Q99 4 83 3T45 0Q3 -3 -6 -3Z"
/>
<glyph unicode="I" glyph-name="I" horiz-adv-x="293" d="M-6 -3Q-8 -1 -8 4Q-8 27 -2 27Q6 27 19 30T45 38T60 49Q68 65 74 87T86 138L160 520Q165 546 167 566T170 602Q170 611 161 617T139 628T118 632Q116 632 116 636Q116 655 123 662L238 657Q250 656 280
658T357 662V658Q357 632 350 632Q345 632 331 628T305 619T289 608Q284 597 278 575T264 519L191 139Q185 108 183 87T180 54Q180 47 190 41T213 31T232 27Q234 27 234 22Q234 8 227 -3L112 3Q101 4 77 2T29 -1T-6 -3Z" />
<glyph unicode="J" glyph-name="J" horiz-adv-x="375" d="M-27 -226Q-40 -222 -40 -206Q-40 -196 -38 -190Q95 -88 130 94L212 520Q217 546 219 566T222 602Q222 611 213 617T191 628T170 632Q168 632 168 636Q168 654 176 662L290 657Q303 656 333 658T410 662V658Q410
651 408 642T402 632Q397 632 384 628T358 619T342 608Q336 595 329 573T316 519L238 112Q216 0 148 -90T-27 -226Z" />
<glyph unicode="K" glyph-name="K" horiz-adv-x="660" d="M569 -3Q462 -3 420 60L228 330Q309 382 502 584Q523 605 523 616Q523 632 474 632Q469 632 469 643Q469 654 474 662Q508 660 536 659T587 658Q604 658 632 659T698 662Q698 632 690 632Q615 625 582
590L352 355Q345 348 345 339Q345 334 350 326L529 92Q553 59 585 44T640 29Q642 29 642 22Q642 12 636 0Q618 -3 569 -3ZM-6 -3Q-8 -1 -8 4Q-8 27 -2 27Q6 27 19 30T45 38T60 49Q68 65 74 87T86 138L160 520Q165 546 167 566T170 602Q170 611 161 617T139 628T118
632Q116 632 116 636Q116 655 123 662L238 657Q250 657 280 658T357 662V658Q357 632 350 632Q345 632 331 628T305 619T289 608Q284 597 278 575T264 519L191 139Q186 108 183 87T180 54Q180 47 190 41T213 31T232 27Q234 27 234 22Q234 8 227 -3L113 3Q88 3 46
0Q3 -3 -6 -3Z" />
<glyph unicode="L" glyph-name="L" horiz-adv-x="528" d="M-6 -3Q-8 -1 -8 6Q-8 27 -1 27Q6 27 20 31T47 41T62 52Q75 82 86 138L160 518Q172 577 170 603Q170 609 159 615T136 627T116 632Q115 632 115 636Q115 656 121 662Q158 660 187 659T240 658Q261 658
290 659T358 662V658Q358 651 356 642T350 632Q345 632 332 628T306 619T290 608Q281 589 275 567T264 519L191 139Q187 120 185 104T183 74Q183 58 192 53Q197 51 214 50T279 49Q331 49 366 59T427 95T476 166Q479 172 490 172Q510 172 514 166Q440 23 431 -3Q405
-3 364 -3T266 -1Q210 1 173 2T115 2L-6 -3Z" />
<glyph unicode="M" glyph-name="M" horiz-adv-x="826" d="M-22 -3Q-24 3 -24 6Q-24 27 -17 27Q-7 27 12 32T49 45T73 64Q77 70 82 83T93 119L209 549Q219 588 219 605Q219 613 207 619T178 628T152 632Q151 632 151 638Q151 656 158 662Q200 660 226 659T262 658Q270
658 293 659T355 662Q357 643 376 527T431 196H432Q435 196 435 198Q511 344 554 429T608 536L664 661Q688 658 733 658Q752 658 780 659T847 662Q847 632 839 632Q807 632 791 610Q777 591 768 522Q749 348 739 249T726 125Q724 106 723 91T722 62Q722 32 775
27Q777 27 777 18Q777 7 770 -3L657 3Q633 3 589 0Q546 -3 537 -3Q535 1 535 4Q535 27 541 27Q549 27 563 30T590 39T607 50Q619 70 627 138L661 464Q662 474 662 485T663 508Q663 516 659 516Q657 516 654 511L407 31Q402 22 389 10T363 -2Q361 -2 355 0L267 525Q266
529 265 529Q263 529 262 525Q157 146 151 114L139 62Q139 53 155 45T189 32T215 27Q217 27 217 22Q217 9 211 -3Q165 -1 136 0T96 2L-22 -3Z" />
<glyph unicode="N" glyph-name="N" horiz-adv-x="706" d="M537 -6Q525 -6 512 16Q406 229 341 363T251 552L169 141Q164 116 162 98T159 69Q159 56 173 47T206 32T233 27Q235 27 235 22Q235 9 229 -3Q183 -1 154 1T113 2L-5 -3Q-7 3 -7 5Q-7 16 -4 21T0 27Q10
27 28 31T64 42T88 60Q93 70 99 91T113 144L189 526Q193 546 195 565T197 601Q197 611 184 617T154 628T127 632Q124 632 124 638Q124 658 131 662Q171 660 199 659T243 658Q269 658 292 659T336 662Q341 642 356 604T394 519T440 423T485 332T521 261T539 227Q543
238 549 268L597 518Q602 547 604 565T607 592Q607 603 592 612T559 626T531 632Q529 632 529 638Q529 658 536 662Q578 660 607 659T653 658Q673 658 702 659T770 662Q770 632 763 632Q756 632 739 628T704 616T679 600Q672 589 666 568T653 518L578 138Q575 122
572 101T564 53Q557 1 555 -2Q551 -6 537 -6Z" />
<glyph unicode="O" glyph-name="O" horiz-adv-x="656" d="M264 -10Q194 -10 140 24T56 120T26 258Q26 332 55 404T136 536T255 631T398 667Q468 667 522 633T607 539T638 404Q638 329 609 256T529 122T410 26T264 -10ZM290 40Q333 40 369 63T433 127T480 216T510
317T520 415Q520 504 484 561T374 618Q327 618 286 589T212 509T162 392T144 252Q144 160 181 100T290 40Z" />
<glyph unicode="P" glyph-name="P" horiz-adv-x="501" d="M-10 -3Q-12 3 -12 8Q-12 13 -10 20T-5 27Q9 27 30 32T57 50Q66 68 81 138L160 538Q164 555 165 571T167 600Q167 609 157 616T135 627T116 632Q114 632 114 638Q114 656 122 662L237 657Q264 657 303
660Q323 661 339 661T369 662Q406 662 445 648Q483 634 513 597T544 507Q544 450 513 400T431 319T316 288Q269 288 249 303Q247 309 247 312Q247 325 255 330Q265 329 272 329T283 328Q325 328 358 352T411 419T431 518Q431 563 408 589T345 616Q279 616 276 594L186
134Q177 86 177 62Q177 50 189 42T218 31T251 27Q253 27 253 15Q253 3 247 -3Q136 3 122 3Q87 3 50 1T-10 -3Z" />
<glyph unicode="Q" glyph-name="Q" horiz-adv-x="624" d="M550 -193Q498 -193 443 -179T340 -145Q309 -132 265 -116T173 -83T78 -54Q78 -50 85 -40T98 -27L231 -6Q172 4 128 40T60 133T36 258Q36 332 66 404T148 536T267 631T407 667Q477 667 531 633T616 539T647
404Q647 320 616 247T532 117T410 21T269 -31Q299 -35 361 -60Q421 -83 484 -103T600 -124Q625 -124 651 -115T701 -93T738 -68Q762 -75 762 -90Q752 -103 730 -120T678 -154T615 -182T550 -193ZM300 40Q344 40 380 64T444 129T491 219T519 320T529 415Q529 504
493 561T384 618Q330 618 288 585T215 498T170 380T154 252Q154 160 190 100T300 40Z" />
<glyph unicode="R" glyph-name="R" horiz-adv-x="621" d="M561 -4Q513 -4 479 11T417 59T362 150L297 286Q290 302 249 302Q236 302 227 301T215 286L187 139Q182 111 180 90T177 54Q177 47 187 41T210 31T228 27Q230 27 230 22Q230 8 223 -3Q217 -3 182 0Q148
3 122 3Q87 3 50 1T-10 -3Q-12 3 -12 8Q-12 13 -10 20T-5 27Q9 27 30 32T57 50Q62 59 68 81T81 138L160 538Q164 555 165 571T167 600Q167 609 157 616T135 627T116 632Q114 632 114 638Q114 656 122 662L237 657Q266 656 302 659T367 662Q411 662 452 646T519
598T546 519Q546 475 525 435T471 366T403 323Q395 320 399 310Q441 181 521 82Q541 58 567 44T615 28Q615 15 606 -2Q599 -2 584 -3T561 -4ZM307 350Q339 350 367 373T414 435T432 522Q432 567 409 590T345 613Q305 613 290 608Q277 604 274 588L234 378V376Q233
375 233 374Q233 350 307 350Z" />
<glyph unicode="S" glyph-name="S" horiz-adv-x="455" d="M176 -8Q115 -8 14 17Q16 43 17 58T18 84T19 110T19 149L18 179Q18 187 39 187Q51 187 60 178Q60 146 73 114T112 62T178 41Q216 41 244 60T288 110T304 170Q304 189 295 208T265 244L160 327Q144 340
127 357T97 399T84 454Q84 516 117 564T203 640T314 668Q329 668 348 665T390 657Q437 645 454 642L443 551Q438 517 436 498T429 478Q420 478 411 481Q398 482 398 496Q398 525 386 553T351 599T300 618Q266 618 241 602T203 560T190 507Q190 481 208 452T268
394Q303 371 323 356T370 317Q384 304 400 275T416 213Q416 154 383 104T295 23T176 -8Z" />
<glyph unicode="T" glyph-name="T" horiz-adv-x="591" d="M124 -3Q123 -2 123 4Q123 27 130 27Q138 27 151 30T176 38T191 49Q204 76 216 138L286 497Q292 529 295 550T299 585Q299 605 279 608T212 611Q166 611 141 592T91 518Q88 512 82 512Q64 512 59 520L106
672Q139 662 168 662Q216 662 270 659T370 655Q417 655 472 658T576 662Q603 662 642 672L630 519Q622 512 604 512Q596 512 596 517Q595 571 575 591T512 611Q426 611 418 594Q405 567 392 500L322 139Q317 111 315 90T312 54Q312 47 322 41T344 31T362 27Q364
27 364 22Q364 8 358 -3L242 3Q217 3 175 0Q133 -3 124 -3Z" />
<glyph unicode="U" glyph-name="U" horiz-adv-x="647" d="M286 -2Q196 -2 144 49T92 203Q92 241 104 304L146 520Q151 546 153 566T156 602Q156 611 147 617T125 628T105 632Q104 632 104 636Q104 656 110 662Q163 660 192 659T226 657Q237 657 267 658T344 662V658Q344
632 337 632Q332 632 318 628T292 619T276 608Q273 601 267 579T252 519L208 297Q203 271 201 248T198 202Q198 62 320 62Q371 62 410 81T477 146T520 272L566 514Q573 549 576 572T579 606Q579 614 565 620T533 629T504 632Q503 632 503 638Q503 655 510 662Q552
660 579 659T617 658Q636 658 664 659T731 662Q731 632 724 632Q718 632 700 629T665 621T645 612Q641 604 635 580T620 514L574 276Q554 172 516 111T421 24T286 -2Z" />
<glyph unicode="V" glyph-name="V" horiz-adv-x="638" d="M287 -12Q277 -12 273 -2L177 530L162 599Q159 613 139 620T106 628Q103 628 103 635Q103 652 111 660Q160 658 189 657T229 655Q247 655 278 656T355 660Q356 659 356 656Q356 648 354 638T348 628Q323
628 305 619T284 592Q282 581 290 542L359 168L577 538Q596 570 599 596Q600 610 583 619T542 628Q540 628 540 634Q540 653 547 660Q588 658 613 657T646 656Q653 656 679 657T751 660Q753 655 751 650Q748 628 744 628Q725 628 699 616T655 574L329 23Q308 -12
287 -12Z" />
<glyph unicode="W" glyph-name="W" horiz-adv-x="994" d="M298 -13Q293 -13 290 -8L145 518Q138 547 130 568T114 605Q108 615 91 621T64 628Q62 628 63 640Q64 655 69 660Q78 660 118 657Q138 656 154 655T183 654L301 660V656Q301 648 299 638T294 628Q276 628
261 619T243 592Q243 588 244 580T249 558L364 152Q367 154 381 173T413 219T448 269T470 303L403 544Q390 590 381 603Q374 613 359 620T332 628Q330 628 331 640Q332 656 338 660L387 657Q429 654 455 654Q486 654 517 656T567 660V656Q567 648 565 638T559 628Q540
628 526 619T509 594Q508 589 510 580T515 560L553 421L627 538Q652 578 654 594Q656 611 637 619T600 628Q598 628 598 636Q598 654 605 660Q692 654 707 654Q734 654 762 656T816 660Q817 651 815 640T809 628Q794 628 770 618T736 597Q723 584 706 561T666 504L570
358Q626 160 630 152Q638 165 658 196T704 270T757 357T809 442T849 508T869 539Q892 579 894 594Q895 606 885 613T863 624T841 628Q839 628 839 638Q839 654 847 660Q934 654 949 654Q982 654 1007 656T1058 660Q1058 628 1051 628Q1035 628 1012 618T979 598Q963
582 946 559T908 504L605 19Q595 3 584 -5T565 -13Q558 -13 556 -8L487 239L338 19Q317 -13 298 -13Z" />
<glyph unicode="X" glyph-name="X" horiz-adv-x="709" d="M1 -4Q-1 3 0 6Q1 28 6 28Q16 28 33 32T68 43T95 60Q336 332 336 334L255 528Q239 565 230 582T209 610Q201 617 184 622T158 628Q156 628 156 636Q156 654 164 660Q175 660 218 657Q262 654 288 654Q303
654 417 660V654Q417 646 415 637T409 628Q394 628 373 621T351 598Q350 588 355 574Q427 406 428 406L446 426Q459 440 474 455T504 487Q547 534 569 561T592 597Q593 610 574 619T532 628Q530 628 530 636Q530 654 538 660Q640 654 650 654Q684 654 717 656T768
660V655Q768 647 766 638T761 628Q753 628 735 624T697 613T667 593L449 356Q561 90 572 72Q581 58 596 48T628 33T652 28Q653 28 652 15Q651 10 651 5T648 -4Q546 2 525 2Q478 2 443 0T384 -4Q383 -3 383 5Q383 12 385 20T391 28Q399 28 412 32T436 43T447 58Q449
66 446 73L359 280Q345 264 322 239T274 185T227 129T190 84T175 60Q173 43 192 36T234 28Q238 28 236 14Q234 0 231 -4Q203 -2 175 -1T119 0Q93 0 64 -1T1 -4Z" />
<glyph unicode="Y" glyph-name="Y" horiz-adv-x="592" d="M109 -4Q107 1 108 8Q110 28 115 28Q123 28 137 31T165 41T180 52Q187 64 192 85T204 138L234 294Q235 296 231 313T216 361L176 482L156 541Q138 595 118 610Q109 616 93 622T67 628Q65 628 65 635Q65
654 73 660Q84 660 127 657Q171 654 197 654Q212 654 326 660V653Q326 645 324 637T318 628Q309 628 295 625T271 614T260 596Q259 587 263 574L330 379L410 483Q490 587 490 602Q491 613 474 620T432 628Q430 628 430 636Q430 654 437 660Q530 654 539 654Q555
654 652 660Q654 656 652 648Q650 628 645 628Q632 628 606 619T564 595Q557 588 539 565T495 508T443 440T393 373T356 320T340 294L310 142Q305 116 303 94T300 54Q301 48 312 42T336 32T353 28Q356 28 354 17Q353 10 352 5T349 -4Q348 -3 326 -2T276 1T233 3Q217
3 190 2T140 -1T109 -4Z" />
<glyph unicode="Z" glyph-name="Z" horiz-adv-x="581" d="M16 0Q11 11 12 22Q14 37 20 43L478 604H341Q265 604 219 574T147 488Q144 481 127 481Q119 481 113 483T105 487Q109 496 117 519T135 570T153 624T166 664Q171 663 190 662T235 659T282 657T314 656H418Q451
656 502 658T622 666Q625 665 626 652T626 633Q625 629 512 491Q456 421 400 353T287 216L174 79Q166 68 166 63Q165 54 176 54H355Q464 54 516 163Q519 170 536 170Q554 170 558 164Q553 153 544 135T527 99T515 71Q509 57 501 37T487 0H16Z" />
<glyph unicode="[" glyph-name="bracketleft" horiz-adv-x="351" d="M184 -124Q79 -106 9 -106Q-4 -106 -4 -89V-83L154 732Q156 739 161 747T176 755Q218 755 264 759T360 771Q364 771 364 764Q364 755 359 744T345 729Q332 722 300 715T241 708Q234 708 232
699L87 -50Q87 -58 92 -58Q138 -58 187 -83Q194 -86 194 -102T184 -124Z" />
<glyph unicode="\" glyph-name="backslash" horiz-adv-x="226" d="M175 -39L152 -37L15 755Q27 761 35 761Q77 761 81 739L208 10V6Q208 -14 198 -26T175 -39Z" />
<glyph unicode="]" glyph-name="bracketright" horiz-adv-x="351" d="M-9 -124Q-13 -124 -13 -112Q-13 -89 3 -83Q60 -58 108 -58Q116 -58 116 -50L262 699Q262 708 256 708Q230 708 201 715T161 729Q156 732 154 742T153 762T162 771Q210 763 254 759T340 755Q353
755 353 738V732L195 -83Q195 -90 189 -98T173 -106Q102 -106 -9 -124Z" />
<glyph unicode="^" glyph-name="asciicircum" horiz-adv-x="341" d="M42 472Q35 472 35 499Q48 512 76 536T137 595T197 677Q202 686 204 688T209 690Q219 690 222 684Q230 668 235 646T259 588Q279 552 298 529T318 500Q309 472 301 472Q293 472 272 491T229
539T193 590Q176 571 153 550T107 512T66 483T42 472Z" />
<glyph unicode="_" glyph-name="underscore" horiz-adv-x="531" d="M40 -44L34 -36Q34 -32 38 -20T48 3T58 15H474Q478 15 478 9Q478 -5 462 -38Q461 -44 456 -44H40Z" />
<glyph unicode="`" glyph-name="grave" horiz-adv-x="270" d="M253 499Q247 499 229 507T187 528T142 557T106 585T91 609Q91 623 108 634T144 646Q153 646 161 641Q170 633 187 615T222 575T253 538T266 519Q266 513 262 506T253 499Z" />
<glyph unicode="a" glyph-name="a" horiz-adv-x="450" d="M304 -7Q285 -7 273 7T260 46Q260 54 263 73T268 100Q255 79 237 54T196 12T142 -6Q93 -6 65 34T36 135Q36 191 61 245T130 344T226 415T337 442Q386 442 420 424L366 142Q362 119 360 109T358 87Q358
68 368 68Q384 68 403 87T438 122Q440 122 447 113T454 99Q448 87 431 69T392 34T346 5T304 -7ZM176 60Q193 60 212 79T248 131T280 203T302 281L321 377Q312 387 287 387Q259 387 232 363T183 301T148 219T135 138Q135 60 176 60Z" />
<glyph unicode="b" glyph-name="b" horiz-adv-x="401" d="M150 -8Q107 -8 75 23T43 106Q43 116 44 126T48 150L126 552Q131 574 133 588T136 608Q136 628 80 628Q78 628 78 635Q78 648 86 656Q107 658 135 663T189 676T232 690Q239 686 239 670Q239 664 235 644T224
588L172 324Q205 378 243 410T314 442Q360 442 384 406T409 304Q409 240 386 183T325 84T241 17T150 -8ZM180 41Q206 41 229 64T271 124T300 204T311 288Q311 372 274 372Q258 372 238 353T199 302T164 233T142 162Q131 114 140 78T180 41Z" />
<glyph unicode="c" glyph-name="c" horiz-adv-x="348" d="M158 -6Q95 -6 64 36T32 151Q32 220 66 287Q99 355 153 398T264 442Q324 442 364 402Q368 387 368 376Q368 354 357 339T328 324Q312 324 304 334T290 359T276 383T252 394Q229 394 208 375T169 322T142
249T132 166Q132 62 196 62Q225 62 250 81T294 118Q296 118 303 109T310 95Q302 78 277 54T220 12T158 -6Z" />
<glyph unicode="d" glyph-name="d" horiz-adv-x="464" d="M307 -7Q288 -7 276 7T263 46Q263 55 266 73T271 101Q259 80 241 55T199 12T146 -6Q95 -6 67 34T39 135Q39 190 63 244T128 342T220 414T327 441H335L336 442L360 562Q364 579 365 590T366 608Q366 628
311 628Q308 628 308 635Q308 648 316 656Q337 658 365 663T421 676T463 690Q474 684 472 664T463 623T455 588L364 117Q363 113 362 107T361 93Q361 68 371 68Q385 68 405 87T441 122Q443 122 450 113T457 99Q451 87 434 69T394 34T348 5T307 -7ZM179 60Q196 60
215 79T251 131T283 202T305 282L318 350Q321 366 313 376T291 387Q259 387 231 361T182 296T150 214T138 137Q138 60 179 60Z" />
<glyph unicode="e" glyph-name="e" horiz-adv-x="356" d="M162 -6Q100 -6 68 35T36 152Q36 199 54 250T105 344T179 415T268 442Q316 442 345 418T375 358Q375 312 328 268Q280 225 226 203T140 181Q136 181 136 158Q136 62 200 62Q229 62 254 81T298 118Q300
118 307 109T314 95Q306 78 281 54T224 12T162 -6ZM149 224Q170 224 193 236T236 269T269 314T282 360Q282 375 276 384T258 394Q240 394 221 377T184 334T156 279T145 228Q145 224 149 224Z" />
<glyph unicode="f" glyph-name="f" horiz-adv-x="358" d="M-60 -224Q-95 -224 -118 -212T-145 -184Q-146 -153 -134 -133T-97 -112Q-83 -112 -76 -122T-62 -145T-47 -168T-22 -178Q-2 -178 14 -160T42 -114T63 -53T77 8L143 358V360Q143 366 140 366H78Q74 366
74 372Q74 379 82 389T103 409T127 418H150Q156 418 157 431Q171 511 207 570T294 663T403 697Q467 697 491 664Q491 581 443 581Q426 581 418 591T403 615T389 639T365 650Q333 650 300 589Q292 574 283 550T266 501T253 455T248 424V422Q248 418 251 418H366Q374
418 374 404Q374 385 361 366H243Q238 366 236 358L179 57Q165 -17 138 -74T77 -163Q43 -194 9 -209T-60 -224Z" />
<glyph unicode="g" glyph-name="g" horiz-adv-x="449" d="M157 -226Q87 -226 42 -198T-4 -125Q-4 -56 126 -10Q113 -7 95 8T76 43Q76 55 92 69T134 97T184 119Q143 126 114 160T85 239Q85 294 113 340T186 414T284 442Q310 442 328 436T367 423T418 416H466Q473
416 473 405Q474 385 463 370H410Q404 370 404 364Q404 357 406 344T409 312Q409 264 393 232T356 178T316 144Q290 129 261 118T211 96T191 72Q191 66 212 58Q239 49 266 43T324 23Q354 11 375 -11T396 -63Q396 -106 368 -143T287 -203T157 -226ZM229 161Q257
161 276 185T304 244T314 312Q314 346 301 369T265 393Q237 393 218 368T189 306T179 232Q179 200 192 181T229 161ZM197 -180Q250 -180 279 -159T309 -108Q309 -59 168 -26Q137 -39 110 -56T83 -104Q83 -180 197 -180Z" />
<glyph unicode="h" glyph-name="h" horiz-adv-x="465" d="M140 562Q144 579 145 590T146 608Q146 628 91 628Q88 628 88 635Q88 648 96 656Q117 658 145 663T201 676T243 690Q251 685 251 670Q251 649 245 630T235 588Q229 555 221 514T205 430T190 351T179 293T175
271Q186 294 207 323T253 379T304 424T349 442Q417 442 417 354Q417 318 402 246L376 117Q373 108 373 93Q373 68 383 68Q399 68 419 86T452 122Q455 122 461 113T468 99Q462 87 445 69T406 34T360 5T318 -7Q300 -7 288 7T275 48Q275 68 284 111L312 253Q321 300
321 309Q321 351 297 351Q280 351 257 325T210 259T169 174T142 92L122 0Q114 -2 104 -3T79 -5Q54 -5 32 0Q56 126 77 237T115 433T140 562Z" />
<glyph unicode="i" glyph-name="i" horiz-adv-x="273" d="M219 666Q239 666 252 652T266 616Q266 587 247 565T200 543Q180 543 167 558T154 596Q154 624 173 645T219 666ZM189 442Q207 442 219 428T232 388Q232 375 230 360T224 324L183 117Q182 113 182 107T181
93Q181 68 191 68Q207 68 226 87T261 122Q263 122 270 113T277 99Q271 87 254 69T214 34T168 5T127 -7Q108 -7 96 7T83 48Q83 59 85 75T91 111L130 310Q132 321 133 329T134 342Q134 366 124 366Q116 366 104 357T79 336T60 316Q58 316 51 326T44 340Q50 352 66
369T104 402T148 430T189 442Z" />
<glyph unicode="j" glyph-name="j" horiz-adv-x="302" d="M277 666Q297 666 310 652T324 616Q324 587 305 565T258 543Q238 543 225 558T212 596Q212 624 231 645T277 666ZM240 442Q259 442 271 428T283 388Q283 376 281 360T275 324L228 82Q204 -43 152 -113Q134
-138 106 -161T50 -202T1 -226Q-2 -225 -6 -215T-10 -198Q30 -168 56 -133T101 -51T132 61L178 292Q181 309 183 324T185 349Q185 356 183 361T175 366Q167 366 155 357T130 336T111 316Q109 316 102 326T95 340Q101 352 117 369T156 402T200 430T240 442Z" />
<glyph unicode="k" glyph-name="k" horiz-adv-x="475" d="M88 -6Q68 -6 42 0L148 552Q153 575 155 588T158 608Q158 628 102 628Q100 628 100 635Q100 648 108 656Q129 658 157 663T211 676T254 690Q261 686 261 670Q261 668 246 588L198 334Q208 350 227 375T278
421T352 442Q390 442 419 420T449 362Q449 320 423 286T354 231T264 202Q285 167 303 140T336 96Q365 61 385 61Q403 61 423 78T452 109Q455 109 464 100T473 88Q468 73 449 51T403 13T350 -4Q320 -4 299 12T254 58Q242 74 228 96T201 139T180 176T170 194L132
0Q116 -6 88 -6ZM202 236Q211 236 233 241T279 257T321 287T339 334Q339 346 334 364T312 382Q292 382 270 365T229 322T197 275T184 242Q184 236 202 236Z" />
<glyph unicode="l" glyph-name="l" horiz-adv-x="238" d="M89 -7Q70 -7 58 7T46 48Q46 59 48 75T54 111L142 564Q148 596 148 608Q148 628 93 628Q90 628 90 635Q90 648 98 656Q119 658 147 663T202 676T245 690Q253 685 253 670Q253 662 238 588L146 117Q145
112 145 106T144 93Q144 68 154 68Q169 68 188 87T223 122Q225 122 232 113T239 99Q233 87 216 69T177 34T131 5T89 -7Z" />
<glyph unicode="m" glyph-name="m" horiz-adv-x="725" d="M583 -7Q564 -7 552 7T540 48Q540 58 542 73T548 111L577 253Q586 294 586 309Q586 330 581 340T562 351Q547 351 525 327T479 265T437 183T410 100L390 0Q377 -2 366 -3T344 -4Q331 -4 320 -3T298 0L350
263Q354 280 355 292T357 311Q357 351 332 351Q316 351 294 327T250 263T209 179T182 96L162 0Q151 -2 140 -3T117 -5Q107 -5 96 -4T71 0L131 310Q133 321 134 329T135 342Q135 366 125 366Q117 366 104 357T79 336T61 316Q58 316 52 326T45 340Q51 352 67 369T106
402T150 430T189 442Q208 442 220 428T233 388Q233 378 232 364T226 329L214 270Q229 299 250 329T294 384T339 426T378 442Q452 442 452 340Q452 329 443 279Q458 306 479 334T524 387T570 427T610 442Q682 442 682 354Q682 336 678 309T666 246L640 117Q639 113
639 107T638 93Q638 68 648 68Q663 68 682 87T717 122Q719 122 726 113T733 99Q727 87 710 69T671 34T625 5T583 -7Z" />
<glyph unicode="n" glyph-name="n" horiz-adv-x="502" d="M356 -7Q338 -7 326 7T313 48Q313 68 322 111L351 253Q356 273 357 287T359 309Q359 351 335 351Q319 351 297 327T251 263T208 179T180 92L160 0Q152 -2 142 -3T117 -5Q92 -5 70 0L130 310Q132 318 133
331T134 355T124 366Q116 366 103 357T78 336T60 316Q57 316 51 326T44 340Q50 352 66 369T105 402T149 430T188 442Q207 442 219 428T232 388Q232 378 231 364T225 329Q219 300 217 285T214 270Q225 293 245 322T291 378T342 424T387 442Q455 442 455 354Q455
318 440 246L414 117Q413 110 412 99T412 78T421 68Q435 68 455 86T490 122Q493 122 499 113T506 99Q500 87 483 69T444 34T398 5T356 -7Z" />
<glyph unicode="o" glyph-name="o" horiz-adv-x="402" d="M178 -6Q109 -6 76 36T42 150Q42 197 60 248T109 343T183 414T273 442Q341 442 374 400T408 284Q408 236 391 185T342 91T269 21T178 -6ZM192 42Q220 42 241 70T278 140T301 226T308 302Q308 346 296 370T262
395Q239 395 218 373T179 312T152 228T142 134Q143 91 156 67T192 42Z" />
<glyph unicode="p" glyph-name="p" horiz-adv-x="468" d="M-3 -228Q-7 -227 -7 -220Q-7 -201 -2 -196Q30 -196 43 -180Q49 -171 57 -134L128 232L85 193Q77 204 77 218Q77 224 82 229Q105 253 119 267T138 286L168 438Q179 440 190 441T213 443Q239 443 259 436L246
377Q273 405 299 423T365 442Q399 442 422 423T457 371T469 300Q469 244 445 190T382 91T299 21T213 -5Q188 -5 174 5L148 -130Q145 -143 145 -155Q145 -179 163 -184Q176 -188 205 -188Q209 -188 209 -197Q209 -212 205 -219H131Q100 -219 67 -221T-3 -228ZM227
48Q253 48 278 70T325 128T358 209T371 298Q371 331 359 352T322 374Q299 374 275 356T234 312L194 102Q184 48 227 48Z" />
<glyph unicode="q" glyph-name="q" horiz-adv-x="415" d="M159 -228Q155 -227 155 -220Q155 -201 160 -196Q176 -196 193 -193T218 -180Q226 -171 232 -134L276 101Q264 80 246 55T204 12T151 -6Q100 -6 72 34T44 135Q44 192 69 247T137 346T233 416T342 442Q394
442 430 424L323 -130Q321 -140 321 -147T320 -160Q320 -179 331 -183T360 -188Q364 -188 364 -197Q364 -212 360 -219H306Q275 -219 235 -221T159 -228ZM182 61Q199 61 218 80T255 129T287 193T308 260L331 376Q323 387 292 387Q265 387 238 366T190 310T155 231T142
144Q142 61 182 61Z" />
<glyph unicode="r" glyph-name="r" horiz-adv-x="405" d="M121 -4Q109 -4 97 -3T74 0L134 310Q140 339 138 352T127 366Q119 366 107 357T82 336T63 316Q61 316 54 326T47 340Q53 352 69 369T108 402T152 430T192 442Q211 442 223 428T235 388Q235 375 234 362T230
334Q225 306 222 290T217 271Q236 313 262 352T319 417T376 442Q412 442 437 406Q437 323 388 323Q376 323 361 341Q346 358 332 358Q319 358 297 334T252 270T211 185T184 97L166 0Q155 -2 144 -3T121 -4Z" />
<glyph unicode="s" glyph-name="s" horiz-adv-x="322" d="M136 -7Q76 -7 41 28Q34 38 34 54Q34 77 44 92T71 108Q85 108 96 97T115 74Q122 61 135 51T166 40Q186 40 197 52T208 84Q208 113 177 153Q157 180 135 209T99 266T84 319Q84 351 105 379T161 426T238
444Q298 444 332 410Q340 397 340 381Q340 358 330 344T302 329Q281 329 259 363Q237 397 208 397Q168 397 168 352Q168 330 187 300T230 243Q253 216 272 182T292 118Q292 82 272 54T216 9T136 -7Z" />
<glyph unicode="t" glyph-name="t" horiz-adv-x="277" d="M106 -7Q87 -7 75 7T62 48Q62 59 64 75T71 111L122 374H58Q55 374 55 386Q55 396 59 408T68 424H132L154 534Q157 546 222 546Q230 546 236 546T247 544L222 424H312Q319 424 319 410Q319 391 308 374H213L163
117Q160 108 160 93Q160 68 170 68Q186 68 205 87T240 122Q242 122 249 113T256 99Q250 87 233 69T194 34T148 5T106 -7Z" />
<glyph unicode="u" glyph-name="u" horiz-adv-x="492" d="M153 -7Q85 -7 85 80Q85 99 89 126T100 188L124 310Q126 319 127 327T128 342Q128 366 118 366Q110 366 98 357T73 336T54 316Q52 316 45 326T38 340Q44 352 60 369T99 402T143 430T183 442Q202 442 214
428T226 388Q226 361 218 324L189 182Q185 160 183 147T181 126Q181 84 205 84Q220 84 241 108T286 172T328 256T356 344L375 435Q393 440 419 440Q443 440 465 435L404 117Q403 112 403 106T402 93Q402 68 412 68Q427 68 446 87T481 122Q483 122 490 113T497 99Q491
87 474 69T435 34T389 5T347 -7Q328 -7 316 7T304 48Q304 56 305 70T311 106Q319 135 320 150T322 165Q311 143 291 114T245 57T196 11T153 -7Z" />
<glyph unicode="v" glyph-name="v" horiz-adv-x="429" d="M174 -2Q136 -2 112 22T88 88Q88 102 89 114T92 136L126 310Q128 318 129 326T130 342Q130 366 120 366Q112 366 100 357T75 336T56 316Q54 316 47 326T40 340Q46 352 62 369T101 402T145 430T184 442Q203
442 215 428T228 388Q228 375 226 361T221 329L190 171Q184 141 184 121Q184 75 218 75Q245 75 272 99T323 160T360 234T374 298Q374 322 358 347Q342 372 342 390Q342 413 358 427T398 442Q420 442 433 432Q445 413 445 374Q445 323 427 270T379 169T312 82T240
21T174 -2Z" />
<glyph unicode="w" glyph-name="w" horiz-adv-x="659" d="M174 -2Q136 -2 112 22T88 88Q88 102 89 114T92 136L126 310Q128 318 129 326T130 342Q130 366 120 366Q112 366 100 357T75 336T56 316Q54 316 47 326T40 340Q46 352 62 369T101 402T145 430T184 442Q203
442 215 428T228 388Q228 375 226 361T221 329L190 171Q184 141 184 121Q184 75 218 75Q242 75 270 97T322 160Q331 239 339 294T356 380Q373 442 408 442Q455 442 455 384Q455 321 416 196Q414 180 413 168T411 148Q411 104 418 90Q426 75 446 75Q467 75 492 96T542
152T581 224T596 298Q596 320 579 348Q562 374 562 392Q562 415 579 428T618 442Q643 442 654 432Q666 413 666 374Q666 290 619 199Q588 139 549 94T472 24T402 -2Q363 -2 339 21T314 87Q234 -2 174 -2Z" />
<glyph unicode="x" glyph-name="x" horiz-adv-x="489" d="M92 -6Q53 -6 27 13Q20 26 20 40Q20 59 31 73T62 87Q78 87 94 75Q110 62 122 62Q138 62 150 84L223 207L184 336Q175 368 159 368Q149 368 136 359T111 339T94 319Q91 319 84 328T77 341Q80 352 95 369T131
402T174 430T215 442Q253 442 277 360L295 298L346 382Q382 442 435 442Q472 442 500 423Q507 410 507 396Q507 377 495 363T464 349Q449 349 433 362Q417 374 405 374Q388 374 376 352L312 241L353 100Q357 88 364 79T378 70Q388 70 401 78T427 98T443 118Q446
118 453 109T460 96Q457 85 442 68T406 35T363 7T322 -5Q284 -5 260 78L239 151L181 54Q144 -6 92 -6Z" />
<glyph unicode="y" glyph-name="y" horiz-adv-x="496" d="M34 -226Q8 -226 -9 -214T-26 -178Q-26 -151 -6 -134Q27 -146 66 -146Q145 -146 196 -76Q218 -47 218 35Q218 69 215 111T207 196T193 273T176 330T156 352Q142 352 124 335T96 305Q83 313 78 328Q96 354
120 380T169 424T213 442Q234 442 249 418T275 353T294 260Q304 196 308 143T312 47Q326 64 343 92T377 153T403 219T414 279Q414 338 383 390Q386 412 402 427T440 442Q465 442 477 421T490 375Q490 325 476 268T435 155T373 48Q321 -25 261 -87T143 -188T34 -226Z"
/>
<glyph unicode="z" glyph-name="z" horiz-adv-x="419" d="M36 -2Q28 -2 24 7T18 24Q18 26 34 44T78 91T137 154T201 222T260 284T303 330T320 347Q308 341 299 337T282 333Q261 333 241 340T202 355T165 362Q149 362 137 350T115 324T98 302Q92 300 87 308T78
325Q87 348 104 375T144 422T188 442Q222 442 265 430T352 418Q371 418 388 430T423 442Q438 442 438 412Q438 410 417 386T361 326T288 250T215 175T159 117T137 94Q144 96 156 102T181 108Q204 108 225 101T267 87T306 79Q321 79 334 92T357 119T372 138Q378
140 383 132T390 114Q382 96 365 69T326 20T276 -2Q244 -2 200 10T112 23Q91 23 72 11T36 -2Z" />
<glyph unicode="{" glyph-name="braceleft" horiz-adv-x="312" d="M152 -125Q116 -125 85 -106T35 -53T15 22Q15 68 48 138Q81 209 81 234Q81 242 77 253T58 273Q44 281 35 284T11 292Q10 296 12 308T19 328Q73 342 95 364T118 438Q118 453 115 484Q112 516 112
532Q112 597 143 646T223 722T322 750Q325 750 325 745Q325 739 321 730T312 719Q304 718 289 712T252 690Q231 675 217 643T202 569Q202 554 205 527Q206 513 206 502T207 483Q207 430 189 391T147 330T102 308Q124 308 141 283T159 220Q159 175 124 103Q89 31
89 -4Q89 -41 110 -66T154 -94Q160 -96 159 -110T152 -125Z" />
<glyph unicode="|" glyph-name="bar" horiz-adv-x="229" d="M6 -124Q1 -124 -3 -122T-7 -115Q61 236 103 454T163 757Q183 775 215 775Q235 775 233 766L65 -106Q58 -112 40 -118T6 -124Z" />
<glyph unicode="}" glyph-name="braceright" horiz-adv-x="317" d="M-10 -125Q-16 -125 -13 -111T0 -94Q7 -94 19 -89T48 -72Q75 -52 93 -20T111 59Q111 74 108 99Q105 125 105 141Q105 191 122 228T163 287T209 308Q187 308 170 334T153 399Q153 446 189 522Q225
599 225 634Q225 670 203 693T159 719Q155 720 154 727T155 742T160 750Q198 750 230 734T282 686T302 611Q302 549 289 506T260 433T237 385T242 353T299 328Q300 327 300 321Q300 299 293 292L276 287Q251 280 239 275T218 259Q207 245 201 229T194 184Q194 170
197 141Q198 127 198 116T199 97Q199 32 163 -21Q126 -74 79 -99T-10 -125Z" />
<glyph unicode="~" glyph-name="asciitilde" horiz-adv-x="534" d="M358 248Q315 248 252 274Q189 300 146 300Q132 300 120 297T86 278L54 256Q48 262 48 269Q48 290 71 310T127 343T186 356Q229 356 290 330Q351 304 394 304Q410 304 429 312Q447 320 457 326T488
348Q493 343 493 335Q493 316 473 296T421 262T358 248Z" />
<glyph unicode="&#xa0;" glyph-name="uni00A0" horiz-adv-x="156" />
<glyph unicode="&#xa1;" glyph-name="exclamdown" horiz-adv-x="220" d="M160 441Q184 441 197 424T210 386Q210 352 187 330T136 308Q112 308 98 325T86 367Q89 396 111 418T160 441ZM135 261Q141 261 141 241Q140 226 137 190T130 106T120 9T109 -81T99 -146Q95
-170 76 -188T33 -206Q14 -206 5 -192T-5 -161Q-5 -147 4 -110T29 -19T64 100T103 234Q106 246 116 253T135 261Z" />
<glyph unicode="&#xa2;" glyph-name="cent" horiz-adv-x="408" d="M174 -58Q162 -63 136 -63Q133 -63 129 -60T125 -54L144 0Q87 17 61 64T34 165Q34 219 55 269T113 360T195 423T290 446Q296 446 302 446L320 496Q332 502 357 502Q364 502 368 499T370 491L352
440Q379 434 404 418T430 382Q430 362 414 342T372 321Q354 321 346 335T325 366L214 53Q230 48 249 48Q277 48 304 62T344 90L357 103Q366 103 366 96Q366 80 363 72Q355 59 329 40T268 7T200 -7Q196 -7 192 -7L174 -58ZM142 173Q142 114 172 80L285 396Q277 398
267 398Q229 398 199 357Q169 315 156 265T142 173Z" />
<glyph unicode="&#xa3;" glyph-name="sterling" horiz-adv-x="457" d="M21 -7Q8 -4 0 3T-8 17L-3 22Q37 53 71 110T115 238Q121 282 121 300Q121 304 117 304H45Q42 310 42 320Q42 332 48 345T62 359H119Q122 359 122 363Q123 375 124 387T126 412Q135 517 200
576T363 636Q396 636 423 627T458 600Q444 529 405 529Q386 529 366 558Q347 586 329 586Q294 586 269 564T230 504T211 423Q210 410 210 395T210 362Q210 359 213 359H364Q371 359 371 345Q371 321 354 304H215Q210 304 210 301Q210 290 209 279T205 256Q189 173
117 89Q149 106 195 106Q223 106 259 90Q296 73 309 73Q325 73 339 79T364 94Q377 106 391 120T407 138Q410 138 415 133T420 123Q420 121 411 103T394 73Q384 57 366 39T325 8T281 -5Q247 -5 195 11Q141 26 120 26Q95 26 74 19T40 3T21 -7Z" />
<glyph unicode="&#xa4;" glyph-name="currency" horiz-adv-x="475" d="M341 99L306 152Q254 120 201 120Q142 120 101 158L43 109Q42 108 39 108Q31 108 22 124T11 155L70 204Q58 233 58 269Q58 354 121 424L84 480Q84 488 101 502T135 520L171 466Q220 497 275
497Q333 497 372 458L433 510Q434 511 437 511Q445 511 454 495T464 464L403 413Q416 381 416 346Q416 262 356 194L392 142Q393 141 393 139Q393 131 375 117T341 99ZM217 158Q249 158 274 188T313 264T327 354Q327 399 309 428T257 458Q233 458 213 440T179 392T156
328T148 260Q148 215 166 187T217 158Z" />
<glyph unicode="&#xa5;" glyph-name="yen" horiz-adv-x="594" d="M109 -4Q107 -2 107 3Q107 10 110 18T115 26Q122 26 135 29T160 39T175 50Q182 61 186 76T195 108H93Q88 108 88 118Q88 127 93 140T105 158H205L214 206H110Q105 206 105 216Q105 225 110 238T122
256H223Q227 275 227 278Q227 283 221 301L153 528Q140 574 113 594Q91 610 64 610Q61 610 61 618Q61 634 69 640Q124 638 154 637T191 635Q213 635 247 636T327 640V636Q327 629 325 620T319 610Q305 610 285 602T265 576Q265 571 270 554L326 376Q328 373 329
373Q332 373 341 385Q413 471 450 521T488 584Q488 596 468 603T425 610Q423 610 423 619Q423 636 430 640Q473 638 499 637T537 635Q548 635 576 636T651 640Q651 611 645 611Q639 611 623 607T589 595T563 579Q556 572 537 550T492 495T439 429T387 362T348 307T331
276L327 256H436Q440 256 440 246Q440 237 435 224T423 206H318L309 158H419Q423 158 423 148Q423 139 418 126T406 108H299Q293 77 293 53Q293 46 303 40T325 30T343 26Q345 26 345 22Q345 8 339 -4Q312 -2 284 0T233 2Q199 2 165 0T109 -4Z" />
<glyph unicode="&#xa6;" glyph-name="brokenbar" horiz-adv-x="229" d="M104 380Q99 380 95 383T92 390Q109 487 127 577T162 753Q181 770 214 770Q235 770 233 762L163 399Q156 393 138 387T104 380ZM6 -124Q1 -124 -3 -122T-7 -115L64 248Q84 266 116 266Q137
266 135 257L65 -106Q58 -112 40 -118T6 -124Z" />
<glyph unicode="&#xa7;" glyph-name="section" horiz-adv-x="386" d="M102 -52Q69 -52 49 -41T24 -16Q26 7 37 28T67 50Q82 50 100 23Q118 -5 141 -5Q168 -5 190 15T212 69Q212 92 199 110T167 144T130 172T99 192Q74 210 56 237T37 300Q37 345 59 389T123 464Q122
468 122 480Q122 530 143 568T203 629T289 652Q321 652 340 640T366 614Q358 549 324 549Q312 549 305 557T293 576T278 595T251 604Q221 604 200 584T178 530Q178 503 196 482T240 444L292 411Q319 394 336 367T354 304Q354 267 341 234T307 176T267 136Q268 131
268 127T269 118Q269 70 248 32T190 -29T102 -52ZM259 172Q290 196 290 240Q290 270 270 294T224 334Q199 349 171 373T133 426Q101 400 101 357Q101 326 121 303T168 265Q194 252 221 227T259 172Z" />
<glyph unicode="&#xa8;" glyph-name="dieresis" horiz-adv-x="381" d="M378 635Q398 635 411 619T424 581Q424 552 405 531T360 510Q338 510 326 526T314 563Q314 592 332 613T378 635ZM188 635Q208 635 221 619T234 581Q234 552 215 531T170 510Q148 510 136
526T124 563Q124 592 142 613T188 635Z" />
<glyph unicode="&#xa9;" glyph-name="copyright" horiz-adv-x="567" d="M231 69Q171 69 125 97T52 174T26 286Q26 351 52 410T122 515T222 588T338 615Q399 615 445 587T518 510T545 398Q545 334 519 275T448 169T347 96T231 69ZM240 113Q290 113 336 135T420
197T479 285T501 388Q501 441 479 481T419 545T329 569Q279 569 233 547T149 486T90 398T68 295Q68 243 90 202T151 137T240 113ZM254 199Q210 199 182 230T154 309Q154 351 175 390T233 455T313 481Q357 481 400 469Q401 469 401 462Q401 418 396 401Q395 397
388 397Q384 397 376 399Q375 417 360 434T309 451Q283 451 263 429T231 374T219 305Q219 271 233 250T278 229Q311 229 331 244Q349 258 354 265T361 273Q370 273 373 268Q373 264 368 253T357 232T346 219Q308 199 254 199Z" />
<glyph unicode="&#xaa;" glyph-name="ordfeminine" horiz-adv-x="315" d="M243 246Q230 246 221 256T212 283Q212 288 214 302T218 321Q209 306 197 289T168 259T129 247Q93 247 72 275T51 346Q51 385 69 423T119 492T188 541T266 560Q283 560 300 557T329 548L292
355Q289 339 288 332T287 317Q287 304 294 304Q305 304 318 315T342 336Q344 336 348 330T353 320Q348 309 328 292T284 260T243 246ZM153 298Q169 298 186 320T219 377T241 448L255 515Q249 522 231 522Q211 522 193 505T161 461T138 402T129 341Q129 298 153
298Z" />
<glyph unicode="&#xab;" glyph-name="guillemotleft" horiz-adv-x="502" d="M207 73Q198 86 174 110T115 165T41 227Q36 230 36 237Q36 255 49 268Q97 295 141 323T221 377T277 423Q285 421 292 415T299 403Q299 400 297 396Q294 392 276 375T222 328L131 248L189
167L221 127Q239 102 239 96Q239 84 207 73ZM384 73Q375 86 351 110T292 165T218 227Q213 230 213 237Q213 255 226 268Q274 295 318 323T398 377T454 423Q462 421 469 415T476 403Q476 400 474 396Q471 392 453 375T399 328L308 248L366 167L398 127Q416 102 416
96Q416 84 384 73Z" />
<glyph unicode="&#xac;" glyph-name="logicalnot" horiz-adv-x="510" d="M383 156Q377 156 372 158T368 165L404 351Q406 360 396 360H32L29 374Q29 380 33 392T42 414T52 424H468Q480 424 477 412L430 166Q414 156 383 156Z" />
<glyph unicode="&#xae;" glyph-name="registered" horiz-adv-x="566" d="M237 136Q177 136 131 164T58 241T32 353Q32 418 58 477T128 582T228 655T344 682Q405 682 451 654T524 577T551 465Q551 401 525 342T454 236T353 163T237 136ZM246 180Q296 180 342 202T426
264T485 352T507 455Q507 508 485 548T425 612T335 636Q285 636 239 614T155 553T96 465T74 362Q74 310 96 269T157 204T246 180ZM146 272V280Q146 284 148 286Q169 291 175 298Q180 307 185 331L216 498Q218 509 219 516T221 528Q221 533 213 536T199 540Q198
540 198 544Q198 548 200 554Q217 553 230 553T252 552Q285 553 296 553T315 554Q345 554 368 540T392 495Q392 468 376 446T330 407Q334 391 341 374T359 337Q385 287 410 287Q410 280 407 274Q403 272 392 272Q352 272 334 287T300 337Q298 343 293 354T283 378T276
396Q273 403 263 403Q255 403 254 396Q246 354 242 336T238 311T237 302Q237 294 245 290T258 286Q259 286 259 284Q259 278 256 272H146ZM288 427Q310 427 323 447T336 493Q336 530 303 530Q291 530 285 528Q279 526 278 519Q270 480 267 463T263 442T262 436Q262
427 288 427Z" />
<glyph unicode="&#xaf;" glyph-name="overscore" horiz-adv-x="344" d="M71 541Q66 541 68 551Q80 599 90 599H302Q309 599 306 590Q302 572 291 549L283 541H71Z" />
<glyph unicode="&#xb0;" glyph-name="degree" horiz-adv-x="249" d="M115 437Q82 437 61 460T40 517Q40 549 57 575T99 618T153 634Q186 634 206 612T227 555Q227 525 211 498T169 454T115 437ZM123 478Q149 478 168 499T187 548Q187 568 176 581T145 594Q118
594 99 573T80 524Q80 504 91 491T123 478Z" />
<glyph unicode="&#xb1;" glyph-name="plusminus" horiz-adv-x="508" d="M216 134Q208 134 204 138Q200 141 201 144L237 336Q237 340 233 340H58Q53 340 53 354Q53 376 77 404H249Q252 404 253 408L286 592Q288 598 300 602T327 608T350 610Q362 610 360 602L325
410Q324 404 328 404H505Q509 404 509 391Q509 366 485 340H313Q309 340 309 336Q302 300 294 254T274 152Q273 145 253 140T216 134ZM-1 38Q-5 38 -5 51Q-5 74 19 102H446Q450 102 450 88Q450 64 427 38H-1Z" />
<glyph unicode="&#xb2;" glyph-name="uni00B2" horiz-adv-x="338" d="M90 366Q83 373 83 385Q83 394 87 400Q287 585 287 654Q287 674 277 688T245 703Q222 703 204 692T176 669T163 658Q161 658 157 666T153 680Q153 688 156 692Q173 721 208 740T279 759Q314
759 340 739T366 675Q366 635 342 596T281 523T207 462Q177 440 170 433T170 425H282Q299 425 311 436T331 458T340 470H344Q353 470 357 466Q341 439 314 366L210 367L90 366Z" />
<glyph unicode="&#xb3;" glyph-name="uni00B3" horiz-adv-x="277" d="M102 355Q80 355 57 363T33 382Q33 397 44 411T71 425Q84 425 98 408Q112 391 128 391Q155 391 175 407T206 449T218 500Q218 551 163 551Q151 551 128 548Q124 555 124 563Q124 573 132 578Q177
587 202 614T227 672Q227 690 218 697T194 705Q177 705 161 697T135 679T122 668Q117 668 114 680T112 695Q133 720 167 737T236 755Q259 755 279 740T300 695Q300 661 274 633T216 587Q232 587 249 578T280 552T293 510Q293 472 268 436T199 378T102 355Z" />
<glyph unicode="&#xb4;" glyph-name="acute" horiz-adv-x="270" d="M80 500Q77 500 73 506T69 516Q69 519 81 535T111 572T148 612T179 642Q186 646 199 646Q217 646 231 636T245 612Q245 602 230 588T193 559T146 531T104 509T80 500Z" />
<glyph unicode="&#xb5;" glyph-name="uni00B5" horiz-adv-x="447" d="M55 -224Q34 -224 21 -197T8 -130Q8 -68 91 204Q93 211 97 236T108 296T120 364T131 422Q136 428 148 435T169 442Q175 442 187 435T208 419T216 404Q212 381 198 345T167 256L156 223Q149
194 148 169T148 121Q153 77 176 77Q246 77 306 213Q332 321 344 375T356 429Q369 442 387 442Q406 442 423 428T438 404Q432 368 385 246L376 223Q360 163 363 117Q365 72 394 72Q409 72 427 82T454 103Q459 103 461 93T460 76Q445 43 416 20T360 -4Q331 -3 321
35T314 128Q277 66 240 29T160 -9Q141 -9 132 7T119 43T116 76Q109 39 104 13T93 -42Q89 -66 88 -95T90 -150T104 -192Q101 -201 84 -212T55 -224Z" />
<glyph unicode="&#xb6;" glyph-name="paragraph" horiz-adv-x="466" d="M130 -4Q130 4 132 15T138 27Q144 27 158 30T185 39T199 49Q205 67 213 100T228 171T240 237T245 273Q245 278 227 278Q185 278 156 302T112 363T96 438Q96 478 114 516T163 585T230 634T303
652Q313 652 335 651T381 649T413 648L518 653Q519 652 519 646Q519 624 512 624Q505 624 492 622T467 615T452 604Q448 595 440 558T423 466T401 349Q401 346 405 346L446 354Q447 352 447 346Q447 322 424 316L399 309Q392 308 392 304Q385 270 379 238T368 177Q364
153 359 127T351 80T348 51Q348 44 359 39T385 30T405 27Q407 27 407 22Q407 14 406 6T400 -4Q390 -3 361 -2T300 0T244 2Q211 2 180 0T130 -4ZM315 345L347 350Q352 350 353 356Q374 467 385 526T396 589Q396 592 390 595T378 598Q360 598 357 587Q334 472 321
413T308 349Q308 344 315 345ZM273 52Q280 52 285 56T292 65Q298 88 309 141T338 283Q338 287 336 287Q335 287 326 285T301 281Q297 281 295 275L255 62Q253 52 273 52Z" />
<glyph unicode="&#xb7;" glyph-name="middot" horiz-adv-x="170" d="M81 196Q57 196 44 213T31 251Q31 286 54 307T105 329Q129 329 143 312T155 270Q152 241 130 219T81 196Z" />
<glyph unicode="&#xb8;" glyph-name="cedilla" horiz-adv-x="241" d="M37 -31H61Q83 -31 95 -48T103 -89Q95 -130 62 -155T-19 -180Q-46 -180 -61 -165Q-61 -162 -61 -158T-59 -147Q-55 -131 -45 -131Q-41 -131 -27 -139Q-13 -147 -1 -147Q21 -147 34 -137T51
-111Q54 -95 48 -85T29 -74Q11 -74 -4 -81Q-6 -81 -10 -75T-13 -65Q-8 -57 2 -43T22 -16T31 -2H60L37 -31Z" />
<glyph unicode="&#xb9;" glyph-name="uni00B9" horiz-adv-x="269" d="M78 368V373Q78 395 84 395Q93 395 112 400T136 410Q148 427 152 451L192 668Q194 680 183 680Q176 680 125 661Q122 662 119 668T115 678Q115 686 120 689L288 766Q291 766 294 757T297 744Q297
741 288 718T271 662L230 452Q227 437 227 427Q227 396 274 396Q277 396 277 390Q277 374 271 368Q222 370 204 371T178 372Q169 372 150 371T78 368Z" />
<glyph unicode="&#xba;" glyph-name="ordmasculine" horiz-adv-x="281" d="M165 245Q116 245 93 274T69 354Q69 387 81 422T116 489T167 539T231 558Q279 558 302 529T326 448Q326 414 314 379T280 313T229 264T165 245ZM176 290Q194 290 207 307T231 351T245
406T250 454Q250 514 220 514Q202 514 185 489T156 427T145 349Q146 322 154 306T176 290Z" />
<glyph unicode="&#xbb;" glyph-name="guillemotright" horiz-adv-x="506" d="M50 73Q44 74 36 80T27 92Q27 100 48 117T104 167L194 248L134 329Q111 361 99 378T86 399Q86 411 117 423Q125 413 150 387T211 328T284 268Q288 261 288 254Q288 233 276 228Q223
197 177 166T97 111T50 73ZM226 73Q220 74 212 80T203 92Q203 100 224 117T280 167L370 248L310 329Q287 361 275 378T262 399Q262 411 293 423Q301 413 326 387T387 328T460 268Q464 261 464 254Q464 233 452 228Q399 197 353 166T273 111T226 73Z" />
<glyph unicode="&#xbc;" glyph-name="onequarter" horiz-adv-x="676" d="M56 254V259Q56 281 62 281Q71 281 90 286T114 296Q126 313 130 337L170 554Q172 566 161 566Q154 566 103 547Q100 548 97 554T93 564Q93 572 98 575L266 652Q269 652 272 643T275 630Q275
627 266 604T249 548L208 338Q205 323 205 313Q205 282 252 282Q255 282 255 276Q255 260 249 254Q200 256 182 257T156 258Q147 258 128 257T56 254ZM201 -14Q195 -14 181 -8T166 5Q166 9 168 11L613 643Q616 644 624 641T639 633T647 623Q647 618 646 617L201
-14ZM546 -7Q533 -7 521 -4T508 1L527 101Q528 105 524 105H382Q375 113 376 129L621 386Q629 394 638 394Q659 394 658 387L612 158V157Q612 155 616 155H638Q645 155 645 142Q645 132 642 121T634 105H609Q604 105 602 99L581 -2Q569 -7 546 -7ZM532 155Q537
155 538 159L562 273Q564 280 558 278L448 162Q447 161 447 159Q447 155 450 155H532Z" />
<glyph unicode="&#xbd;" glyph-name="onehalf" horiz-adv-x="756" d="M56 254V259Q56 281 62 281Q71 281 90 286T114 296Q126 313 130 337L170 554Q172 566 161 566Q154 566 103 547Q100 548 97 554T93 564Q93 572 98 575L266 652Q269 652 272 643T275 630Q275
627 266 604T249 548L208 338Q205 323 205 313Q205 282 252 282Q255 282 255 276Q255 260 249 254Q200 256 182 257T156 258Q147 258 128 257T56 254ZM201 -14Q195 -14 181 -8T166 5Q166 9 168 11L613 643Q616 644 624 641T639 633T647 623Q647 618 646 617L201
-14ZM437 0Q430 7 430 19Q430 28 434 34Q634 219 634 288Q634 308 624 322T592 337Q569 337 551 326T523 303T510 292Q508 292 504 300T500 314Q500 322 503 326Q520 355 555 374T626 393Q661 393 687 373T713 309Q713 269 689 230T628 157T554 96Q524 74 517 67T517
59H629Q646 59 658 70T678 92T687 104H691Q700 104 704 100Q688 73 661 0L557 1L437 0Z" />
<glyph unicode="&#xbe;" glyph-name="threequarters" horiz-adv-x="684" d="M80 242Q58 242 35 250T11 269Q11 284 22 298T49 312Q62 312 76 295Q90 278 106 278Q133 278 153 294T184 336T196 387Q196 438 141 438Q129 438 106 435Q102 442 102 450Q102 460 110
465Q155 474 180 501T205 559Q205 577 196 584T172 592Q155 592 139 584T113 566T100 555Q95 555 92 567T90 582Q111 607 145 624T214 642Q237 642 257 627T278 582Q278 548 252 520T194 474Q210 474 227 465T258 439T271 397Q271 359 246 323T177 265T80 242ZM209
-14Q203 -14 189 -8T174 5Q174 9 176 11L621 643Q624 644 632 641T647 633T655 623Q655 618 654 617L209 -14ZM554 -7Q541 -7 529 -4T516 1L535 101Q536 105 532 105H390Q383 113 384 129L629 386Q637 394 646 394Q667 394 666 387L620 158V157Q620 155 624 155H646Q653
155 653 142Q653 132 650 121T642 105H617Q612 105 610 99L589 -2Q577 -7 554 -7ZM540 155Q545 155 546 159L570 273Q572 280 566 278L456 162Q455 161 455 159Q455 155 458 155H540Z" />
<glyph unicode="&#xbf;" glyph-name="questiondown" horiz-adv-x="334" d="M266 441Q290 441 303 424T316 386Q316 352 293 330T242 308Q218 308 204 325T192 367Q195 396 217 418T266 441ZM174 242Q190 242 215 227T261 188T281 140Q281 80 226 47L116 -18Q64
-49 64 -85Q64 -110 78 -126T119 -142Q137 -142 157 -119Q177 -96 191 -96Q215 -96 226 -116T233 -163Q209 -208 155 -208Q114 -208 79 -190T23 -140T2 -71Q2 10 61 48Q81 62 109 78T171 114Q207 134 207 164Q207 183 185 202Q163 221 163 225Q163 234 174 242Z"
/>
<glyph unicode="&#xc0;" glyph-name="Agrave" horiz-adv-x="648" d="M-10 -3Q-12 3 -12 4Q-12 27 -6 27Q2 27 17 31T46 43T66 58Q73 66 85 85T116 136L393 610Q425 664 445 664Q451 664 455 660L549 136L563 63Q565 53 575 45T598 32T617 27Q619 27 619 21Q619
4 615 -3L501 3Q490 3 376 -3Q375 -2 375 3Q375 27 381 27Q391 27 411 34T436 50Q442 62 442 80Q442 85 437 120T422 223Q422 228 417 228Q399 231 323 231Q286 231 229 228Q224 228 223 224Q222 222 209 201T178 152T148 98T135 60Q135 50 146 43T172 31T195 27Q197
27 197 22Q197 9 191 -3Q180 -2 152 0T99 3Q83 3 61 2T19 -1T-10 -3ZM335 285Q364 285 407 288Q411 288 411 292L394 395Q387 436 383 460T378 492L262 288Q292 285 335 285ZM477 715Q469 715 449 720T402 735T352 754T313 775T297 792Q297 807 316 815T361 823Q374
823 386 818Q399 810 416 797T451 769T479 743T490 729Q490 724 486 720T477 715Z" />
<glyph unicode="&#xc1;" glyph-name="Aacute" horiz-adv-x="648" d="M-10 -3Q-12 3 -12 4Q-12 27 -6 27Q2 27 17 31T46 43T66 58Q73 66 85 85T116 136L393 610Q425 664 445 664Q451 664 455 660L549 136L563 63Q565 53 575 45T598 32T617 27Q619 27 619 21Q619
4 615 -3L501 3Q490 3 376 -3Q375 -2 375 3Q375 27 381 27Q391 27 411 34T436 50Q442 62 442 80Q442 85 437 120T422 223Q422 228 417 228Q399 231 323 231Q286 231 229 228Q224 228 223 224Q222 222 209 201T178 152T148 98T135 60Q135 50 146 43T172 31T195 27Q197
27 197 22Q197 9 191 -3Q180 -2 152 0T99 3Q83 3 61 2T19 -1T-10 -3ZM335 285Q364 285 407 288Q411 288 411 292L394 395Q387 436 383 460T378 492L262 288Q292 285 335 285ZM380 714Q376 714 372 719T367 729Q367 732 378 743T406 768T441 795T472 817Q484 822
496 822Q522 822 541 814T561 791Q561 784 545 774T505 754T455 734T409 720T380 714Z" />
<glyph unicode="&#xc2;" glyph-name="Acircumflex" horiz-adv-x="648" d="M-10 -3Q-12 3 -12 4Q-12 27 -6 27Q2 27 17 31T46 43T66 58Q73 66 85 85T116 136L393 610Q425 664 445 664Q451 664 455 660L549 136L563 63Q565 53 575 45T598 32T617 27Q619 27 619 21Q619
4 615 -3L501 3Q490 3 376 -3Q375 -2 375 3Q375 27 381 27Q391 27 411 34T436 50Q442 62 442 80Q442 85 437 120T422 223Q422 228 417 228Q399 231 323 231Q286 231 229 228Q224 228 223 224Q222 222 209 201T178 152T148 98T135 60Q135 50 146 43T172 31T195 27Q197
27 197 22Q197 9 191 -3Q180 -2 152 0T99 3Q83 3 61 2T19 -1T-10 -3ZM335 285Q364 285 407 288Q411 288 411 292L394 395Q387 436 383 460T378 492L262 288Q292 285 335 285ZM344 729Q332 729 338 748Q339 749 346 754T367 769Q397 789 422 809Q439 822 452 833T477
856Q488 865 491 865Q500 865 504 856Q506 852 517 836T536 810Q559 782 576 766T596 748Q592 729 581 729Q562 729 475 789Q455 777 427 763T374 739T344 729Z" />
<glyph unicode="&#xc3;" glyph-name="Atilde" horiz-adv-x="648" d="M-10 -3Q-12 3 -12 4Q-12 27 -6 27Q2 27 17 31T46 43T66 58Q73 66 85 85T116 136L393 610Q425 664 445 664Q451 664 455 660L549 136L563 63Q565 53 575 45T598 32T617 27Q619 27 619 21Q619
4 615 -3L501 3Q490 3 376 -3Q375 -2 375 3Q375 27 381 27Q391 27 411 34T436 50Q442 62 442 80Q442 85 437 120T422 223Q422 228 417 228Q399 231 323 231Q286 231 229 228Q224 228 223 224Q222 222 209 201T178 152T148 98T135 60Q135 50 146 43T172 31T195 27Q197
27 197 22Q197 9 191 -3Q180 -2 152 0T99 3Q83 3 61 2T19 -1T-10 -3ZM335 285Q364 285 407 288Q411 288 411 292L394 395Q387 436 383 460T378 492L262 288Q292 285 335 285ZM531 728Q496 728 452 759Q407 789 373 789Q357 789 329 764Q300 738 298 738Q291 738
295 757Q300 779 319 801Q362 847 405 847Q438 847 484 817Q530 786 563 786Q579 786 608 812Q634 837 637 837Q645 837 640 817Q639 801 615 773Q576 728 531 728Z" />
<glyph unicode="&#xc4;" glyph-name="Adieresis" horiz-adv-x="648" d="M-10 -3Q-12 3 -12 4Q-12 27 -6 27Q2 27 17 31T46 43T66 58Q73 66 85 85T116 136L393 610Q425 664 445 664Q451 664 455 660L549 136L563 63Q565 53 575 45T598 32T617 27Q619 27 619 21Q619
4 615 -3L501 3Q490 3 376 -3Q375 -2 375 3Q375 27 381 27Q391 27 411 34T436 50Q442 62 442 80Q442 85 437 120T422 223Q422 228 417 228Q399 231 323 231Q286 231 229 228Q224 228 223 224Q222 222 209 201T178 152T148 98T135 60Q135 50 146 43T172 31T195 27Q197
27 197 22Q197 9 191 -3Q180 -2 152 0T99 3Q83 3 61 2T19 -1T-10 -3ZM335 285Q364 285 407 288Q411 288 411 292L394 395Q387 436 383 460T378 492L262 288Q292 285 335 285ZM364 727Q341 727 330 741T318 775Q318 801 336 826T388 851Q409 851 422 837T436 801Q436
773 414 750T364 727ZM558 728Q539 728 524 740T508 775Q508 813 530 831T577 850Q597 850 611 838T626 803Q626 765 604 747T558 728Z" />
<glyph unicode="&#xc5;" glyph-name="Aring" horiz-adv-x="648" d="M-10 -3Q-12 3 -12 4Q-12 27 -6 27Q2 27 17 31T46 43T66 58Q73 66 85 85T116 136L393 610Q425 664 445 664Q451 664 455 660L549 136L563 63Q565 53 575 45T598 32T617 27Q619 27 619 21Q619
4 615 -3L501 3Q490 3 376 -3Q375 -2 375 3Q375 27 381 27Q391 27 411 34T436 50Q442 62 442 80Q442 85 437 120T422 223Q422 228 417 228Q399 231 323 231Q286 231 229 228Q224 228 223 224Q222 222 209 201T178 152T148 98T135 60Q135 50 146 43T172 31T195 27Q197
27 197 22Q197 9 191 -3Q180 -2 152 0T99 3Q83 3 61 2T19 -1T-10 -3ZM335 285Q364 285 407 288Q411 288 411 292L394 395Q387 436 383 460T378 492L262 288Q292 285 335 285ZM442 660Q408 660 385 682T361 742Q361 771 376 794T415 832T466 847Q500 847 523 824T546
766Q546 720 516 690T442 660ZM447 699Q471 699 488 717T505 762Q505 782 494 795T462 808Q439 808 421 790T403 746Q403 726 415 713T447 699Z" />
<glyph unicode="&#xc6;" glyph-name="AE" horiz-adv-x="873" d="M-11 -4Q-13 2 -13 6Q-13 11 -10 18T-5 26Q6 26 30 34T67 56Q95 84 135 136L449 540Q488 583 489 600Q490 613 482 618T461 624Q456 624 456 632Q456 653 464 658H480Q517 658 539 658T577 658T607
658T644 659T704 661Q814 664 865 664Q859 576 859 523Q854 518 839 518Q827 518 827 525Q823 572 795 592T730 613H675Q607 613 603 600Q595 572 589 512L573 358V357Q573 350 609 350H650Q686 350 702 352T726 369T747 416Q750 423 763 423Q777 423 780 418Q777
408 774 384T768 329T762 272T758 228Q754 224 740 224Q728 224 727 231Q726 248 724 263T708 292Q704 297 682 298T622 300Q568 300 567 290L553 148Q549 109 549 88T557 58T588 49H631Q696 49 744 72Q779 91 815 166Q818 172 830 172Q850 172 854 166Q826 108
808 66T780 -3Q754 -3 716 -3T627 -1Q577 1 541 2T485 2L357 -4Q355 2 355 8Q355 15 358 23T363 32Q371 32 384 35T410 43T425 52Q436 76 442 134L452 246Q454 252 446 252Q431 253 412 253T369 254Q359 254 339 254T289 252Q285 252 281 248Q266 227 247 202T210
154T179 113T163 90Q153 75 149 69T145 55Q145 46 155 40T180 30T203 27Q204 27 204 24Q204 10 196 -4Q190 -3 173 -2T136 0T99 2Q83 2 60 1T18 -2T-11 -4ZM392 306Q412 306 427 306T456 308Q457 308 459 310T461 313L483 508Q420 429 382 380T331 312V308Q340
307 355 307T392 306Z" />
<glyph unicode="&#xc7;" glyph-name="Ccedilla" horiz-adv-x="610" d="M299 -6Q216 -6 154 30T59 127T25 263Q25 362 79 456Q115 519 166 566T279 640T404 667Q491 667 614 630Q614 627 612 608T607 563T602 518T598 494Q595 479 573 479Q565 479 560 482Q559
500 554 518T534 562Q519 587 484 602T398 618Q348 618 303 589T221 509T164 393T143 253Q143 160 187 101T317 42Q401 42 453 76Q473 89 486 109T508 144T525 160Q529 160 538 154T549 142Q533 111 524 80T505 40Q491 26 459 16T385 0T299 -6ZM271 -31H295Q317
-31 329 -48T337 -89Q329 -130 296 -155T215 -180Q188 -180 173 -165Q173 -162 173 -158T175 -147Q179 -131 189 -131Q193 -131 207 -139Q221 -147 233 -147Q255 -147 268 -137T285 -111Q288 -95 282 -85T263 -74Q245 -74 230 -81Q228 -81 224 -75T221 -65Q226
-57 236 -43T256 -16T265 -2H294L271 -31Z" />
<glyph unicode="&#xc8;" glyph-name="Egrave" horiz-adv-x="544" d="M-6 -3Q-8 -1 -8 6Q-8 27 -1 27Q6 27 20 31T47 41T62 52Q75 82 86 138L160 518Q172 577 170 603Q170 609 159 615T136 627T116 632Q115 632 115 636Q115 656 121 662Q150 660 179 659T240 658Q261
658 301 658T389 660T476 663T538 664Q537 655 537 633T536 587T537 544T537 522Q532 517 517 517Q505 517 505 524Q493 613 400 613H355Q290 613 286 600Q278 578 273 560T266 528L236 363Q239 357 252 357T274 356H336Q366 356 380 359T402 376T425 422Q428 430
440 430Q453 430 457 424L421 234Q417 230 403 230Q392 230 390 238Q389 285 376 297Q366 306 290 306Q224 306 222 298L193 146Q189 124 185 99T185 61Q189 50 209 50T279 49Q331 49 366 59T427 95T476 166Q479 172 490 172Q510 172 514 166Q440 23 431 -3Q405
-3 364 -3T266 -1Q210 1 173 2T115 2L-6 -3ZM386 715Q378 715 358 720T311 735T261 754T222 775T206 792Q206 807 225 815T270 823Q283 823 295 818Q308 810 325 797T360 769T388 743T399 729Q399 724 395 720T386 715Z" />
<glyph unicode="&#xc9;" glyph-name="Eacute" horiz-adv-x="544" d="M-6 -3Q-8 -1 -8 6Q-8 27 -1 27Q6 27 20 31T47 41T62 52Q75 82 86 138L160 518Q172 577 170 603Q170 609 159 615T136 627T116 632Q115 632 115 636Q115 656 121 662Q150 660 179 659T240 658Q261
658 301 658T389 660T476 663T538 664Q537 655 537 633T536 587T537 544T537 522Q532 517 517 517Q505 517 505 524Q493 613 400 613H355Q290 613 286 600Q278 578 273 560T266 528L236 363Q239 357 252 357T274 356H336Q366 356 380 359T402 376T425 422Q428 430
440 430Q453 430 457 424L421 234Q417 230 403 230Q392 230 390 238Q389 285 376 297Q366 306 290 306Q224 306 222 298L193 146Q189 124 185 99T185 61Q189 50 209 50T279 49Q331 49 366 59T427 95T476 166Q479 172 490 172Q510 172 514 166Q440 23 431 -3Q405
-3 364 -3T266 -1Q210 1 173 2T115 2L-6 -3ZM289 714Q285 714 281 719T276 729Q276 732 287 743T315 768T350 795T381 817Q393 822 405 822Q431 822 450 814T470 791Q470 784 454 774T414 754T364 734T318 720T289 714Z" />
<glyph unicode="&#xca;" glyph-name="Ecircumflex" horiz-adv-x="544" d="M-6 -3Q-8 -1 -8 6Q-8 27 -1 27Q6 27 20 31T47 41T62 52Q75 82 86 138L160 518Q172 577 170 603Q170 609 159 615T136 627T116 632Q115 632 115 636Q115 656 121 662Q150 660 179 659T240
658Q261 658 301 658T389 660T476 663T538 664Q537 655 537 633T536 587T537 544T537 522Q532 517 517 517Q505 517 505 524Q493 613 400 613H355Q290 613 286 600Q278 578 273 560T266 528L236 363Q239 357 252 357T274 356H336Q366 356 380 359T402 376T425 422Q428
430 440 430Q453 430 457 424L421 234Q417 230 403 230Q392 230 390 238Q389 285 376 297Q366 306 290 306Q224 306 222 298L193 146Q189 124 185 99T185 61Q189 50 209 50T279 49Q331 49 366 59T427 95T476 166Q479 172 490 172Q510 172 514 166Q440 23 431 -3Q405
-3 364 -3T266 -1Q210 1 173 2T115 2L-6 -3ZM253 729Q241 729 247 748Q248 749 255 754T276 769Q306 789 331 809Q348 822 361 833T386 856Q397 865 400 865Q409 865 413 856Q415 852 426 836T445 810Q468 782 485 766T505 748Q501 729 490 729Q471 729 384 789Q364
777 336 763T283 739T253 729Z" />
<glyph unicode="&#xcb;" glyph-name="Edieresis" horiz-adv-x="544" d="M-6 -3Q-8 -1 -8 6Q-8 27 -1 27Q6 27 20 31T47 41T62 52Q75 82 86 138L160 518Q172 577 170 603Q170 609 159 615T136 627T116 632Q115 632 115 636Q115 656 121 662Q150 660 179 659T240
658Q261 658 301 658T389 660T476 663T538 664Q537 655 537 633T536 587T537 544T537 522Q532 517 517 517Q505 517 505 524Q493 613 400 613H355Q290 613 286 600Q278 578 273 560T266 528L236 363Q239 357 252 357T274 356H336Q366 356 380 359T402 376T425 422Q428
430 440 430Q453 430 457 424L421 234Q417 230 403 230Q392 230 390 238Q389 285 376 297Q366 306 290 306Q224 306 222 298L193 146Q189 124 185 99T185 61Q189 50 209 50T279 49Q331 49 366 59T427 95T476 166Q479 172 490 172Q510 172 514 166Q440 23 431 -3Q405
-3 364 -3T266 -1Q210 1 173 2T115 2L-6 -3ZM273 727Q250 727 239 741T227 775Q227 801 245 826T297 851Q318 851 331 837T345 801Q345 773 323 750T273 727ZM467 728Q448 728 433 740T417 775Q417 813 439 831T486 850Q506 850 520 838T535 803Q535 765 513 747T467
728Z" />
<glyph unicode="&#xcc;" glyph-name="Igrave" horiz-adv-x="293" d="M-6 -3Q-8 -1 -8 4Q-8 27 -2 27Q6 27 19 30T45 38T60 49Q68 65 74 87T86 138L160 520Q165 546 167 566T170 602Q170 611 161 617T139 628T118 632Q116 632 116 636Q116 655 123 662L238 657Q250
656 280 658T357 662V658Q357 632 350 632Q345 632 331 628T305 619T289 608Q284 597 278 575T264 519L191 139Q185 108 183 87T180 54Q180 47 190 41T213 31T232 27Q234 27 234 22Q234 8 227 -3L112 3Q101 4 77 2T29 -1T-6 -3ZM274 715Q266 715 246 720T199 735T149
754T110 775T94 792Q94 807 113 815T158 823Q171 823 183 818Q196 810 213 797T248 769T276 743T287 729Q287 724 283 720T274 715Z" />
<glyph unicode="&#xcd;" glyph-name="Iacute" horiz-adv-x="293" d="M-6 -3Q-8 -1 -8 4Q-8 27 -2 27Q6 27 19 30T45 38T60 49Q68 65 74 87T86 138L160 520Q165 546 167 566T170 602Q170 611 161 617T139 628T118 632Q116 632 116 636Q116 655 123 662L238 657Q250
656 280 658T357 662V658Q357 632 350 632Q345 632 331 628T305 619T289 608Q284 597 278 575T264 519L191 139Q185 108 183 87T180 54Q180 47 190 41T213 31T232 27Q234 27 234 22Q234 8 227 -3L112 3Q101 4 77 2T29 -1T-6 -3ZM177 714Q173 714 169 719T164 729Q164
732 175 743T203 768T238 795T269 817Q281 822 293 822Q319 822 338 814T358 791Q358 784 342 774T302 754T252 734T206 720T177 714Z" />
<glyph unicode="&#xce;" glyph-name="Icircumflex" horiz-adv-x="293" d="M-6 -3Q-8 -1 -8 4Q-8 27 -2 27Q6 27 19 30T45 38T60 49Q68 65 74 87T86 138L160 520Q165 546 167 566T170 602Q170 611 161 617T139 628T118 632Q116 632 116 636Q116 655 123 662L238
657Q250 656 280 658T357 662V658Q357 632 350 632Q345 632 331 628T305 619T289 608Q284 597 278 575T264 519L191 139Q185 108 183 87T180 54Q180 47 190 41T213 31T232 27Q234 27 234 22Q234 8 227 -3L112 3Q101 4 77 2T29 -1T-6 -3ZM141 729Q129 729 135 748Q136
749 143 754T164 769Q194 789 219 809Q236 822 249 833T274 856Q285 865 288 865Q297 865 301 856Q303 852 314 836T333 810Q356 782 373 766T393 748Q389 729 378 729Q359 729 272 789Q252 777 224 763T171 739T141 729Z" />
<glyph unicode="&#xcf;" glyph-name="Idieresis" horiz-adv-x="293" d="M-6 -3Q-8 -1 -8 4Q-8 27 -2 27Q6 27 19 30T45 38T60 49Q68 65 74 87T86 138L160 520Q165 546 167 566T170 602Q170 611 161 617T139 628T118 632Q116 632 116 636Q116 655 123 662L238 657Q250
656 280 658T357 662V658Q357 632 350 632Q345 632 331 628T305 619T289 608Q284 597 278 575T264 519L191 139Q185 108 183 87T180 54Q180 47 190 41T213 31T232 27Q234 27 234 22Q234 8 227 -3L112 3Q101 4 77 2T29 -1T-6 -3ZM161 727Q138 727 127 741T115 775Q115
801 133 826T185 851Q206 851 219 837T233 801Q233 773 211 750T161 727ZM355 728Q336 728 321 740T305 775Q305 813 327 831T374 850Q394 850 408 838T423 803Q423 765 401 747T355 728Z" />
<glyph unicode="&#xd0;" glyph-name="Eth" horiz-adv-x="686" d="M-6 -3Q-8 -1 -8 6Q-8 27 -1 27Q6 27 20 31T47 41T62 52Q75 82 86 138L117 298H53Q47 298 47 312Q47 325 55 343T69 366H130L160 518Q172 577 170 603Q170 609 159 615T136 627T116 632Q115 632
115 636Q115 656 121 662Q150 660 179 659T240 658H403Q491 658 549 625T638 535T668 404Q668 350 652 293T602 184T521 89T411 22T273 -3Q264 -3 246 -3T202 -1Q176 1 154 2T115 2L-6 -3ZM298 48Q356 48 403 78T483 162T533 285T551 431Q551 472 537 512T490 580T399
608Q350 608 324 605T287 585T266 522L236 366H354Q360 366 360 351Q360 338 352 321T338 298H223L192 138Q180 72 188 64Q201 48 298 48Z" />
<glyph unicode="&#xd1;" glyph-name="Ntilde" horiz-adv-x="706" d="M537 -6Q525 -6 512 16Q406 229 341 363T251 552L169 141Q164 116 162 98T159 69Q159 56 173 47T206 32T233 27Q235 27 235 22Q235 9 229 -3Q183 -1 154 1T113 2L-5 -3Q-7 3 -7 5Q-7 16 -4 21T0
27Q10 27 28 31T64 42T88 60Q93 70 99 91T113 144L189 526Q193 546 195 565T197 601Q197 611 184 617T154 628T127 632Q124 632 124 638Q124 658 131 662Q171 660 199 659T243 658Q269 658 292 659T336 662Q341 642 356 604T394 519T440 423T485 332T521 261T539
227Q543 238 549 268L597 518Q602 547 604 565T607 592Q607 603 592 612T559 626T531 632Q529 632 529 638Q529 658 536 662Q578 660 607 659T653 658Q673 658 702 659T770 662Q770 632 763 632Q756 632 739 628T704 616T679 600Q672 589 666 568T653 518L578 138Q575
122 572 101T564 53Q557 1 555 -2Q551 -6 537 -6ZM540 728Q505 728 461 759Q416 789 382 789Q366 789 338 764Q309 738 307 738Q300 738 304 757Q309 779 328 801Q371 847 414 847Q447 847 493 817Q539 786 572 786Q588 786 617 812Q643 837 646 837Q654 837 649
817Q648 801 624 773Q585 728 540 728Z" />
<glyph unicode="&#xd2;" glyph-name="Ograve" horiz-adv-x="656" d="M264 -10Q194 -10 140 24T56 120T26 258Q26 332 55 404T136 536T255 631T398 667Q468 667 522 633T607 539T638 404Q638 329 609 256T529 122T410 26T264 -10ZM290 40Q333 40 369 63T433 127T480
216T510 317T520 415Q520 504 484 561T374 618Q327 618 286 589T212 509T162 392T144 252Q144 160 181 100T290 40ZM442 715Q434 715 414 720T367 735T317 754T278 775T262 792Q262 807 281 815T326 823Q339 823 351 818Q364 810 381 797T416 769T444 743T455 729Q455
724 451 720T442 715Z" />
<glyph unicode="&#xd3;" glyph-name="Oacute" horiz-adv-x="656" d="M264 -10Q194 -10 140 24T56 120T26 258Q26 332 55 404T136 536T255 631T398 667Q468 667 522 633T607 539T638 404Q638 329 609 256T529 122T410 26T264 -10ZM290 40Q333 40 369 63T433 127T480
216T510 317T520 415Q520 504 484 561T374 618Q327 618 286 589T212 509T162 392T144 252Q144 160 181 100T290 40ZM345 714Q341 714 337 719T332 729Q332 732 343 743T371 768T406 795T437 817Q449 822 461 822Q487 822 506 814T526 791Q526 784 510 774T470 754T420
734T374 720T345 714Z" />
<glyph unicode="&#xd4;" glyph-name="Ocircumflex" horiz-adv-x="656" d="M264 -10Q194 -10 140 24T56 120T26 258Q26 332 55 404T136 536T255 631T398 667Q468 667 522 633T607 539T638 404Q638 329 609 256T529 122T410 26T264 -10ZM290 40Q333 40 369 63T433
127T480 216T510 317T520 415Q520 504 484 561T374 618Q327 618 286 589T212 509T162 392T144 252Q144 160 181 100T290 40ZM309 729Q297 729 303 748Q304 749 311 754T332 769Q362 789 387 809Q404 822 417 833T442 856Q453 865 456 865Q465 865 469 856Q471 852
482 836T501 810Q524 782 541 766T561 748Q557 729 546 729Q527 729 440 789Q420 777 392 763T339 739T309 729Z" />
<glyph unicode="&#xd5;" glyph-name="Otilde" horiz-adv-x="656" d="M264 -10Q194 -10 140 24T56 120T26 258Q26 332 55 404T136 536T255 631T398 667Q468 667 522 633T607 539T638 404Q638 329 609 256T529 122T410 26T264 -10ZM290 40Q333 40 369 63T433 127T480
216T510 317T520 415Q520 504 484 561T374 618Q327 618 286 589T212 509T162 392T144 252Q144 160 181 100T290 40ZM496 728Q461 728 417 759Q372 789 338 789Q322 789 294 764Q265 738 263 738Q256 738 260 757Q265 779 284 801Q327 847 370 847Q403 847 449 817Q495
786 528 786Q544 786 573 812Q599 837 602 837Q610 837 605 817Q604 801 580 773Q541 728 496 728Z" />
<glyph unicode="&#xd6;" glyph-name="Odieresis" horiz-adv-x="656" d="M264 -10Q194 -10 140 24T56 120T26 258Q26 332 55 404T136 536T255 631T398 667Q468 667 522 633T607 539T638 404Q638 329 609 256T529 122T410 26T264 -10ZM290 40Q333 40 369 63T433
127T480 216T510 317T520 415Q520 504 484 561T374 618Q327 618 286 589T212 509T162 392T144 252Q144 160 181 100T290 40ZM329 727Q306 727 295 741T283 775Q283 801 301 826T353 851Q374 851 387 837T401 801Q401 773 379 750T329 727ZM523 728Q504 728 489
740T473 775Q473 813 495 831T542 850Q562 850 576 838T591 803Q591 765 569 747T523 728Z" />
<glyph unicode="&#xd7;" glyph-name="multiply" horiz-adv-x="410" d="M38 57Q34 57 29 66T20 88T16 108L169 243Q171 245 171 247Q171 248 168 252L71 384Q71 391 80 403T99 425T113 436Q116 436 120 432L221 296Q225 293 229 297L381 432Q385 436 387 436Q391
436 396 427T405 405T409 383L259 249Q257 247 259 244L356 110Q356 104 348 92T330 69T315 58Q312 58 309 62L210 197Q206 203 201 198L45 60Q42 57 38 57Z" />
<glyph unicode="&#xd8;" glyph-name="Oslash" horiz-adv-x="656" d="M97 -5Q90 -5 76 0T62 13Q62 17 65 20L95 63Q62 99 44 149T26 258Q26 332 55 404T136 536T255 631T398 667Q454 667 502 643L520 668Q523 669 531 666T546 657T554 647Q554 642 553 641L539
620Q585 585 611 529T638 404Q638 329 609 256T529 122T410 26T264 -10Q224 -10 189 1T125 35L97 -5ZM144 252Q144 196 157 152L462 586Q427 618 374 618Q327 618 286 589T212 509T162 392T144 252ZM290 40Q333 40 369 63T433 127T480 216T510 317T520 415Q520
499 490 551L176 107Q195 76 223 58T290 40Z" />
<glyph unicode="&#xd9;" glyph-name="Ugrave" horiz-adv-x="647" d="M286 -2Q196 -2 144 49T92 203Q92 241 104 304L146 520Q151 546 153 566T156 602Q156 611 147 617T125 628T105 632Q104 632 104 636Q104 656 110 662Q163 660 192 659T226 657Q237 657 267
658T344 662V658Q344 632 337 632Q332 632 318 628T292 619T276 608Q273 601 267 579T252 519L208 297Q203 271 201 248T198 202Q198 62 320 62Q371 62 410 81T477 146T520 272L566 514Q573 549 576 572T579 606Q579 614 565 620T533 629T504 632Q503 632 503 638Q503
655 510 662Q552 660 579 659T617 658Q636 658 664 659T731 662Q731 632 724 632Q718 632 700 629T665 621T645 612Q641 604 635 580T620 514L574 276Q554 172 516 111T421 24T286 -2ZM456 715Q448 715 428 720T381 735T331 754T292 775T276 792Q276 807 295 815T340
823Q353 823 365 818Q378 810 395 797T430 769T458 743T469 729Q469 724 465 720T456 715Z" />
<glyph unicode="&#xda;" glyph-name="Uacute" horiz-adv-x="647" d="M286 -2Q196 -2 144 49T92 203Q92 241 104 304L146 520Q151 546 153 566T156 602Q156 611 147 617T125 628T105 632Q104 632 104 636Q104 656 110 662Q163 660 192 659T226 657Q237 657 267
658T344 662V658Q344 632 337 632Q332 632 318 628T292 619T276 608Q273 601 267 579T252 519L208 297Q203 271 201 248T198 202Q198 62 320 62Q371 62 410 81T477 146T520 272L566 514Q573 549 576 572T579 606Q579 614 565 620T533 629T504 632Q503 632 503 638Q503
655 510 662Q552 660 579 659T617 658Q636 658 664 659T731 662Q731 632 724 632Q718 632 700 629T665 621T645 612Q641 604 635 580T620 514L574 276Q554 172 516 111T421 24T286 -2ZM359 714Q355 714 351 719T346 729Q346 732 357 743T385 768T420 795T451 817Q463
822 475 822Q501 822 520 814T540 791Q540 784 524 774T484 754T434 734T388 720T359 714Z" />
<glyph unicode="&#xdb;" glyph-name="Ucircumflex" horiz-adv-x="647" d="M286 -2Q196 -2 144 49T92 203Q92 241 104 304L146 520Q151 546 153 566T156 602Q156 611 147 617T125 628T105 632Q104 632 104 636Q104 656 110 662Q163 660 192 659T226 657Q237 657
267 658T344 662V658Q344 632 337 632Q332 632 318 628T292 619T276 608Q273 601 267 579T252 519L208 297Q203 271 201 248T198 202Q198 62 320 62Q371 62 410 81T477 146T520 272L566 514Q573 549 576 572T579 606Q579 614 565 620T533 629T504 632Q503 632 503
638Q503 655 510 662Q552 660 579 659T617 658Q636 658 664 659T731 662Q731 632 724 632Q718 632 700 629T665 621T645 612Q641 604 635 580T620 514L574 276Q554 172 516 111T421 24T286 -2ZM323 729Q311 729 317 748Q318 749 325 754T346 769Q376 789 401 809Q418
822 431 833T456 856Q467 865 470 865Q479 865 483 856Q485 852 496 836T515 810Q538 782 555 766T575 748Q571 729 560 729Q541 729 454 789Q434 777 406 763T353 739T323 729Z" />
<glyph unicode="&#xdc;" glyph-name="Udieresis" horiz-adv-x="647" d="M286 -2Q196 -2 144 49T92 203Q92 241 104 304L146 520Q151 546 153 566T156 602Q156 611 147 617T125 628T105 632Q104 632 104 636Q104 656 110 662Q163 660 192 659T226 657Q237 657 267
658T344 662V658Q344 632 337 632Q332 632 318 628T292 619T276 608Q273 601 267 579T252 519L208 297Q203 271 201 248T198 202Q198 62 320 62Q371 62 410 81T477 146T520 272L566 514Q573 549 576 572T579 606Q579 614 565 620T533 629T504 632Q503 632 503 638Q503
655 510 662Q552 660 579 659T617 658Q636 658 664 659T731 662Q731 632 724 632Q718 632 700 629T665 621T645 612Q641 604 635 580T620 514L574 276Q554 172 516 111T421 24T286 -2ZM343 727Q320 727 309 741T297 775Q297 801 315 826T367 851Q388 851 401 837T415
801Q415 773 393 750T343 727ZM537 728Q518 728 503 740T487 775Q487 813 509 831T556 850Q576 850 590 838T605 803Q605 765 583 747T537 728Z" />
<glyph unicode="&#xdd;" glyph-name="Yacute" horiz-adv-x="592" d="M109 -4Q107 1 108 8Q110 28 115 28Q123 28 137 31T165 41T180 52Q187 64 192 85T204 138L234 294Q235 296 231 313T216 361L176 482L156 541Q138 595 118 610Q109 616 93 622T67 628Q65 628
65 635Q65 654 73 660Q84 660 127 657Q171 654 197 654Q212 654 326 660V653Q326 645 324 637T318 628Q309 628 295 625T271 614T260 596Q259 587 263 574L330 379L410 483Q490 587 490 602Q491 613 474 620T432 628Q430 628 430 636Q430 654 437 660Q530 654 539
654Q555 654 652 660Q654 656 652 648Q650 628 645 628Q632 628 606 619T564 595Q557 588 539 565T495 508T443 440T393 373T356 320T340 294L310 142Q305 116 303 94T300 54Q301 48 312 42T336 32T353 28Q356 28 354 17Q353 10 352 5T349 -4Q348 -3 326 -2T276
1T233 3Q217 3 190 2T140 -1T109 -4ZM313 714Q309 714 305 719T300 729Q300 732 311 743T339 768T374 795T405 817Q417 822 429 822Q455 822 474 814T494 791Q494 784 478 774T438 754T388 734T342 720T313 714Z" />
<glyph unicode="&#xde;" glyph-name="Thorn" horiz-adv-x="520" d="M-6 -3Q-7 -2 -7 8Q-7 27 -1 27Q13 27 34 32T61 50Q69 67 74 89T85 138L160 520Q166 549 168 571T169 606Q169 612 159 618T137 628T117 632Q116 632 116 641Q116 655 123 662Q176 660 205 659T241
657Q252 657 281 658T357 662V652Q357 632 350 632Q345 632 331 628T304 619T289 608Q279 587 266 525Q266 520 269 520Q281 521 299 522T337 524Q389 524 426 503T483 446T504 370Q504 322 483 281T427 209T350 161T263 144Q243 144 221 148T198 152Q194 152 193
148Q188 129 185 102T181 52Q181 46 191 40T213 31T231 27Q233 27 233 17Q233 9 227 -3Q172 0 147 1T113 3Q82 3 47 0T-6 -3ZM282 190Q310 190 337 211T381 272T399 364Q399 390 392 417T368 462T319 481Q282 481 270 477Q255 472 252 454L208 227Q205 210 209
203Q212 198 228 194T282 190Z" />
<glyph unicode="&#xdf;" glyph-name="germandbls" horiz-adv-x="565" d="M-6 -226Q-41 -226 -64 -213T-92 -185Q-87 -108 -43 -108Q-28 -108 -22 -118T-11 -143T0 -168T24 -179Q66 -179 100 -4L168 348Q169 351 170 356T171 363Q171 366 167 366H105Q101 366 101
373Q101 379 109 390T130 409T154 418H177Q181 418 184 431Q198 505 230 564T309 659T411 695Q452 695 484 681T536 643T556 588Q556 548 544 522T512 479T468 446T417 411Q397 396 390 386T383 356Q383 321 442 276Q482 244 503 216T525 148Q525 110 505 75T452
18T378 -4Q331 -4 294 10T252 39Q259 115 300 115Q317 115 325 104T340 79T355 53T382 42Q402 42 414 54T431 85T437 120Q437 152 414 176T365 220Q328 249 317 274T306 315Q306 352 320 374T355 412T393 440Q425 466 444 504T463 581Q463 608 448 629T393 649Q318
648 284 474L199 34Q149 -226 -6 -226Z" />
<glyph unicode="&#xe0;" glyph-name="agrave" horiz-adv-x="450" d="M304 -7Q285 -7 273 7T260 46Q260 54 263 73T268 100Q255 79 237 54T196 12T142 -6Q93 -6 65 34T36 135Q36 191 61 245T130 344T226 415T337 442Q386 442 420 424L366 142Q362 119 360 109T358
87Q358 68 368 68Q384 68 403 87T438 122Q440 122 447 113T454 99Q448 87 431 69T392 34T346 5T304 -7ZM176 60Q193 60 212 79T248 131T280 203T302 281L321 377Q312 387 287 387Q259 387 232 363T183 301T148 219T135 138Q135 60 176 60ZM382 499Q376 499 358
507T316 528T271 557T235 585T220 609Q220 623 237 634T273 646Q282 646 290 641Q299 633 316 615T351 575T382 538T395 519Q395 513 391 506T382 499Z" />
<glyph unicode="&#xe1;" glyph-name="aacute" horiz-adv-x="450" d="M304 -7Q285 -7 273 7T260 46Q260 54 263 73T268 100Q255 79 237 54T196 12T142 -6Q93 -6 65 34T36 135Q36 191 61 245T130 344T226 415T337 442Q386 442 420 424L366 142Q362 119 360 109T358
87Q358 68 368 68Q384 68 403 87T438 122Q440 122 447 113T454 99Q448 87 431 69T392 34T346 5T304 -7ZM176 60Q193 60 212 79T248 131T280 203T302 281L321 377Q312 387 287 387Q259 387 232 363T183 301T148 219T135 138Q135 60 176 60ZM263 500Q260 500 256
506T252 516Q252 519 264 535T294 572T331 612T362 642Q369 646 382 646Q400 646 414 636T428 612Q428 602 413 588T376 559T329 531T287 509T263 500Z" />
<glyph unicode="&#xe2;" glyph-name="acircumflex" horiz-adv-x="450" d="M304 -7Q285 -7 273 7T260 46Q260 54 263 73T268 100Q255 79 237 54T196 12T142 -6Q93 -6 65 34T36 135Q36 191 61 245T130 344T226 415T337 442Q386 442 420 424L366 142Q362 119 360
109T358 87Q358 68 368 68Q384 68 403 87T438 122Q440 122 447 113T454 99Q448 87 431 69T392 34T346 5T304 -7ZM176 60Q193 60 212 79T248 131T280 203T302 281L321 377Q312 387 287 387Q259 387 232 363T183 301T148 219T135 138Q135 60 176 60ZM224 505Q220
505 219 513T219 526Q223 530 241 546T288 590Q304 606 316 620T338 645Q348 655 352 655Q356 655 360 645Q368 629 375 617T386 597Q405 567 419 549T435 526Q431 505 422 505Q418 505 402 516T368 543T335 571Q319 559 294 544T249 517T224 505Z" />
<glyph unicode="&#xe3;" glyph-name="atilde" horiz-adv-x="450" d="M304 -7Q285 -7 273 7T260 46Q260 54 263 73T268 100Q255 79 237 54T196 12T142 -6Q93 -6 65 34T36 135Q36 191 61 245T130 344T226 415T337 442Q386 442 420 424L366 142Q362 119 360 109T358
87Q358 68 368 68Q384 68 403 87T438 122Q440 122 447 113T454 99Q448 87 431 69T392 34T346 5T304 -7ZM176 60Q193 60 212 79T248 131T280 203T302 281L321 377Q312 387 287 387Q259 387 232 363T183 301T148 219T135 138Q135 60 176 60ZM388 520Q358 520 321
548Q283 576 253 576Q240 576 216 552Q192 528 190 528Q185 528 185 541Q185 558 200 579T237 615T282 631Q311 631 349 603Q387 574 415 574Q428 574 453 597L477 620Q483 620 483 608Q483 596 469 575T432 537T388 520Z" />
<glyph unicode="&#xe4;" glyph-name="adieresis" horiz-adv-x="450" d="M304 -7Q285 -7 273 7T260 46Q260 54 263 73T268 100Q255 79 237 54T196 12T142 -6Q93 -6 65 34T36 135Q36 191 61 245T130 344T226 415T337 442Q386 442 420 424L366 142Q362 119 360 109T358
87Q358 68 368 68Q384 68 403 87T438 122Q440 122 447 113T454 99Q448 87 431 69T392 34T346 5T304 -7ZM176 60Q193 60 212 79T248 131T280 203T302 281L321 377Q312 387 287 387Q259 387 232 363T183 301T148 219T135 138Q135 60 176 60ZM438 635Q458 635 471
619T484 581Q484 552 465 531T420 510Q398 510 386 526T374 563Q374 592 392 613T438 635ZM248 635Q268 635 281 619T294 581Q294 552 275 531T230 510Q208 510 196 526T184 563Q184 592 202 613T248 635Z" />
<glyph unicode="&#xe5;" glyph-name="aring" horiz-adv-x="450" d="M304 -7Q285 -7 273 7T260 46Q260 54 263 73T268 100Q255 79 237 54T196 12T142 -6Q93 -6 65 34T36 135Q36 191 61 245T130 344T226 415T337 442Q386 442 420 424L366 142Q362 119 360 109T358
87Q358 68 368 68Q384 68 403 87T438 122Q440 122 447 113T454 99Q448 87 431 69T392 34T346 5T304 -7ZM176 60Q193 60 212 79T248 131T280 203T302 281L321 377Q312 387 287 387Q259 387 232 363T183 301T148 219T135 138Q135 60 176 60ZM318 506Q284 506 261
528T237 588Q237 617 252 640T291 678T342 693Q376 693 399 670T422 612Q422 566 392 536T318 506ZM323 545Q347 545 364 563T381 608Q381 628 370 641T338 654Q315 654 297 636T279 592Q279 572 291 559T323 545Z" />
<glyph unicode="&#xe6;" glyph-name="ae" horiz-adv-x="577" d="M129 -8Q82 -8 50 17T17 83Q17 125 38 151T94 195T165 224Q174 227 190 231T222 239T240 243Q250 246 251 258L263 324Q266 335 266 349Q266 368 256 381T229 394Q205 394 183 371T154 311Q151 297
136 289T101 280Q67 280 67 306Q67 327 85 350T132 395T195 429T262 443Q296 443 318 429T347 388Q376 416 409 429T477 442Q519 442 547 418T575 358Q575 309 528 268Q480 225 428 203T343 181Q341 181 340 174T339 158Q339 62 403 62Q432 62 457 81T501 118Q503
118 510 109T517 95Q509 78 484 54T427 12T365 -6Q326 -6 302 15T261 68Q219 -8 129 -8ZM352 224Q373 224 396 236T439 269T472 314T485 360Q485 375 479 384T461 394Q443 394 424 377T387 334T359 279T348 228Q348 224 352 224ZM157 59Q183 59 203 80T227 128L238
189Q116 163 116 99Q116 59 157 59Z" />
<glyph unicode="&#xe7;" glyph-name="ccedilla" horiz-adv-x="348" d="M158 -6Q95 -6 64 36T32 151Q32 220 66 287Q99 355 153 398T264 442Q324 442 364 402Q368 387 368 376Q368 354 357 339T328 324Q312 324 304 334T290 359T276 383T252 394Q229 394 208 375T169
322T142 249T132 166Q132 62 196 62Q225 62 250 81T294 118Q296 118 303 109T310 95Q302 78 277 54T220 12T158 -6ZM154 -31H178Q200 -31 212 -48T220 -89Q212 -130 179 -155T98 -180Q71 -180 56 -165Q56 -162 56 -158T58 -147Q62 -131 72 -131Q76 -131 90 -139Q104
-147 116 -147Q138 -147 151 -137T168 -111Q171 -95 165 -85T146 -74Q128 -74 113 -81Q111 -81 107 -75T104 -65Q109 -57 119 -43T139 -16T148 -2H177L154 -31Z" />
<glyph unicode="&#xe8;" glyph-name="egrave" horiz-adv-x="356" d="M162 -6Q100 -6 68 35T36 152Q36 199 54 250T105 344T179 415T268 442Q316 442 345 418T375 358Q375 312 328 268Q280 225 226 203T140 181Q136 181 136 158Q136 62 200 62Q229 62 254 81T298
118Q300 118 307 109T314 95Q306 78 281 54T224 12T162 -6ZM149 224Q170 224 193 236T236 269T269 314T282 360Q282 375 276 384T258 394Q240 394 221 377T184 334T156 279T145 228Q145 224 149 224ZM339 499Q333 499 315 507T273 528T228 557T192 585T177 609Q177
623 194 634T230 646Q239 646 247 641Q256 633 273 615T308 575T339 538T352 519Q352 513 348 506T339 499Z" />
<glyph unicode="&#xe9;" glyph-name="eacute" horiz-adv-x="356" d="M162 -6Q100 -6 68 35T36 152Q36 199 54 250T105 344T179 415T268 442Q316 442 345 418T375 358Q375 312 328 268Q280 225 226 203T140 181Q136 181 136 158Q136 62 200 62Q229 62 254 81T298
118Q300 118 307 109T314 95Q306 78 281 54T224 12T162 -6ZM149 224Q170 224 193 236T236 269T269 314T282 360Q282 375 276 384T258 394Q240 394 221 377T184 334T156 279T145 228Q145 224 149 224ZM220 500Q217 500 213 506T209 516Q209 519 221 535T251 572T288
612T319 642Q326 646 339 646Q357 646 371 636T385 612Q385 602 370 588T333 559T286 531T244 509T220 500Z" />
<glyph unicode="&#xea;" glyph-name="ecircumflex" horiz-adv-x="356" d="M162 -6Q100 -6 68 35T36 152Q36 199 54 250T105 344T179 415T268 442Q316 442 345 418T375 358Q375 312 328 268Q280 225 226 203T140 181Q136 181 136 158Q136 62 200 62Q229 62 254
81T298 118Q300 118 307 109T314 95Q306 78 281 54T224 12T162 -6ZM149 224Q170 224 193 236T236 269T269 314T282 360Q282 375 276 384T258 394Q240 394 221 377T184 334T156 279T145 228Q145 224 149 224ZM181 505Q177 505 176 513T176 526Q180 530 198 546T245
590Q261 606 273 620T295 645Q305 655 309 655Q313 655 317 645Q325 629 332 617T343 597Q362 567 376 549T392 526Q388 505 379 505Q375 505 359 516T325 543T292 571Q276 559 251 544T206 517T181 505Z" />
<glyph unicode="&#xeb;" glyph-name="edieresis" horiz-adv-x="356" d="M162 -6Q100 -6 68 35T36 152Q36 199 54 250T105 344T179 415T268 442Q316 442 345 418T375 358Q375 312 328 268Q280 225 226 203T140 181Q136 181 136 158Q136 62 200 62Q229 62 254 81T298
118Q300 118 307 109T314 95Q306 78 281 54T224 12T162 -6ZM149 224Q170 224 193 236T236 269T269 314T282 360Q282 375 276 384T258 394Q240 394 221 377T184 334T156 279T145 228Q145 224 149 224ZM395 635Q415 635 428 619T441 581Q441 552 422 531T377 510Q355
510 343 526T331 563Q331 592 349 613T395 635ZM205 635Q225 635 238 619T251 581Q251 552 232 531T187 510Q165 510 153 526T141 563Q141 592 159 613T205 635Z" />
<glyph unicode="&#xec;" glyph-name="igrave" horiz-adv-x="273" d="M189 442Q207 442 219 428T232 388Q232 375 230 360T224 324L183 117Q182 113 182 107T181 93Q181 68 191 68Q207 68 226 87T261 122Q263 122 270 113T277 99Q271 87 254 69T214 34T168 5T127
-7Q108 -7 96 7T83 48Q83 59 85 75T91 111L130 310Q132 321 133 329T134 342Q134 366 124 366Q116 366 104 357T79 336T60 316Q58 316 51 326T44 340Q50 352 66 369T104 402T148 430T189 442ZM501 499Q495 499 477 507T435 528T390 557T354 585T339 609Q339 623
356 634T392 646Q401 646 409 641Q418 633 435 615T470 575T501 538T514 519Q514 513 510 506T501 499Z" />
<glyph unicode="&#xed;" glyph-name="iacute" horiz-adv-x="273" d="M189 442Q207 442 219 428T232 388Q232 375 230 360T224 324L183 117Q182 113 182 107T181 93Q181 68 191 68Q207 68 226 87T261 122Q263 122 270 113T277 99Q271 87 254 69T214 34T168 5T127
-7Q108 -7 96 7T83 48Q83 59 85 75T91 111L130 310Q132 321 133 329T134 342Q134 366 124 366Q116 366 104 357T79 336T60 316Q58 316 51 326T44 340Q50 352 66 369T104 402T148 430T189 442ZM126 500Q123 500 119 506T115 516Q115 519 127 535T157 572T194 612T225
642Q232 646 245 646Q263 646 277 636T291 612Q291 602 276 588T239 559T192 531T150 509T126 500Z" />
<glyph unicode="&#xee;" glyph-name="icircumflex" horiz-adv-x="273" d="M189 442Q207 442 219 428T232 388Q232 375 230 360T224 324L183 117Q182 113 182 107T181 93Q181 68 191 68Q207 68 226 87T261 122Q263 122 270 113T277 99Q271 87 254 69T214 34T168
5T127 -7Q108 -7 96 7T83 48Q83 59 85 75T91 111L130 310Q132 321 133 329T134 342Q134 366 124 366Q116 366 104 357T79 336T60 316Q58 316 51 326T44 340Q50 352 66 369T104 402T148 430T189 442ZM87 505Q83 505 82 513T82 526Q86 530 104 546T151 590Q167 606
179 620T201 645Q211 655 215 655Q219 655 223 645Q231 629 238 617T249 597Q268 567 282 549T298 526Q294 505 285 505Q281 505 265 516T231 543T198 571Q182 559 157 544T112 517T87 505Z" />
<glyph unicode="&#xef;" glyph-name="idieresis" horiz-adv-x="273" d="M189 442Q207 442 219 428T232 388Q232 375 230 360T224 324L183 117Q182 113 182 107T181 93Q181 68 191 68Q207 68 226 87T261 122Q263 122 270 113T277 99Q271 87 254 69T214 34T168 5T127
-7Q108 -7 96 7T83 48Q83 59 85 75T91 111L130 310Q132 321 133 329T134 342Q134 366 124 366Q116 366 104 357T79 336T60 316Q58 316 51 326T44 340Q50 352 66 369T104 402T148 430T189 442ZM357 502Q336 502 323 518T310 556Q310 584 329 605T376 627Q397 627
410 612T424 575Q424 546 404 524T357 502ZM521 501Q501 501 488 517T475 555Q475 583 494 604T540 626Q561 626 574 611T588 575Q588 546 568 524T521 501Z" />
<glyph unicode="&#xf0;" glyph-name="eth" horiz-adv-x="420" d="M163 -6Q99 -6 59 39T18 153Q18 200 36 244T85 322T154 377T233 398Q276 398 301 373L303 372Q307 372 307 389Q307 491 241 576L137 476Q128 479 119 488T110 506Q110 511 113 514L211 609Q182
636 143 658Q143 668 151 679T170 692Q201 675 220 664T248 645L355 749Q371 743 377 731T378 710L282 616Q406 501 406 331Q406 248 382 181T321 75Q284 35 243 15T163 -6ZM169 44Q212 44 243 88T289 207Q294 236 297 257T300 292Q300 316 285 333T249 350Q205
350 174 313Q142 276 128 226T114 123Q114 83 129 64T169 44Z" />
<glyph unicode="&#xf1;" glyph-name="ntilde" horiz-adv-x="502" d="M356 -7Q338 -7 326 7T313 48Q313 68 322 111L351 253Q356 273 357 287T359 309Q359 351 335 351Q319 351 297 327T251 263T208 179T180 92L160 0Q152 -2 142 -3T117 -5Q92 -5 70 0L130 310Q132
318 133 331T134 355T124 366Q116 366 103 357T78 336T60 316Q57 316 51 326T44 340Q50 352 66 369T105 402T149 430T188 442Q207 442 219 428T232 388Q232 378 231 364T225 329Q219 300 217 285T214 270Q225 293 245 322T291 378T342 424T387 442Q455 442 455
354Q455 318 440 246L414 117Q413 110 412 99T412 78T421 68Q435 68 455 86T490 122Q493 122 499 113T506 99Q500 87 483 69T444 34T398 5T356 -7ZM374 520Q344 520 307 548Q269 576 239 576Q226 576 202 552Q178 528 176 528Q171 528 171 541Q171 558 186 579T223
615T268 631Q297 631 335 603Q373 574 401 574Q414 574 439 597L463 620Q469 620 469 608Q469 596 455 575T418 537T374 520Z" />
<glyph unicode="&#xf2;" glyph-name="ograve" horiz-adv-x="402" d="M178 -6Q109 -6 76 36T42 150Q42 197 60 248T109 343T183 414T273 442Q341 442 374 400T408 284Q408 236 391 185T342 91T269 21T178 -6ZM192 42Q220 42 241 70T278 140T301 226T308 302Q308
346 296 370T262 395Q239 395 218 373T179 312T152 228T142 134Q143 91 156 67T192 42ZM344 499Q338 499 320 507T278 528T233 557T197 585T182 609Q182 623 199 634T235 646Q244 646 252 641Q261 633 278 615T313 575T344 538T357 519Q357 513 353 506T344 499Z"
/>
<glyph unicode="&#xf3;" glyph-name="oacute" horiz-adv-x="402" d="M178 -6Q109 -6 76 36T42 150Q42 197 60 248T109 343T183 414T273 442Q341 442 374 400T408 284Q408 236 391 185T342 91T269 21T178 -6ZM192 42Q220 42 241 70T278 140T301 226T308 302Q308
346 296 370T262 395Q239 395 218 373T179 312T152 228T142 134Q143 91 156 67T192 42ZM225 500Q222 500 218 506T214 516Q214 519 226 535T256 572T293 612T324 642Q331 646 344 646Q362 646 376 636T390 612Q390 602 375 588T338 559T291 531T249 509T225 500Z"
/>
<glyph unicode="&#xf4;" glyph-name="ocircumflex" horiz-adv-x="402" d="M178 -6Q109 -6 76 36T42 150Q42 197 60 248T109 343T183 414T273 442Q341 442 374 400T408 284Q408 236 391 185T342 91T269 21T178 -6ZM192 42Q220 42 241 70T278 140T301 226T308 302Q308
346 296 370T262 395Q239 395 218 373T179 312T152 228T142 134Q143 91 156 67T192 42ZM186 505Q182 505 181 513T181 526Q185 530 203 546T250 590Q266 606 278 620T300 645Q310 655 314 655Q318 655 322 645Q330 629 337 617T348 597Q367 567 381 549T397 526Q393
505 384 505Q380 505 364 516T330 543T297 571Q281 559 256 544T211 517T186 505Z" />
<glyph unicode="&#xf5;" glyph-name="otilde" horiz-adv-x="402" d="M178 -6Q109 -6 76 36T42 150Q42 197 60 248T109 343T183 414T273 442Q341 442 374 400T408 284Q408 236 391 185T342 91T269 21T178 -6ZM192 42Q220 42 241 70T278 140T301 226T308 302Q308
346 296 370T262 395Q239 395 218 373T179 312T152 228T142 134Q143 91 156 67T192 42ZM350 520Q320 520 283 548Q245 576 215 576Q202 576 178 552Q154 528 152 528Q147 528 147 541Q147 558 162 579T199 615T244 631Q273 631 311 603Q349 574 377 574Q390 574
415 597L439 620Q445 620 445 608Q445 596 431 575T394 537T350 520Z" />
<glyph unicode="&#xf6;" glyph-name="odieresis" horiz-adv-x="402" d="M178 -6Q109 -6 76 36T42 150Q42 197 60 248T109 343T183 414T273 442Q341 442 374 400T408 284Q408 236 391 185T342 91T269 21T178 -6ZM192 42Q220 42 241 70T278 140T301 226T308 302Q308
346 296 370T262 395Q239 395 218 373T179 312T152 228T142 134Q143 91 156 67T192 42ZM400 635Q420 635 433 619T446 581Q446 552 427 531T382 510Q360 510 348 526T336 563Q336 592 354 613T400 635ZM210 635Q230 635 243 619T256 581Q256 552 237 531T192 510Q170
510 158 526T146 563Q146 592 164 613T210 635Z" />
<glyph unicode="&#xf7;" glyph-name="divide" horiz-adv-x="459" d="M256 381Q238 381 226 395T214 430Q214 455 231 474T273 494Q292 494 304 481T316 448Q316 422 299 402T256 381ZM7 214Q3 214 3 228Q3 254 27 282H454Q458 282 458 268Q458 240 435 214H7ZM183
2Q165 2 153 16T141 51Q141 76 158 95T200 115Q219 115 231 102T243 69Q243 43 226 23T183 2Z" />
<glyph unicode="&#xf8;" glyph-name="oslash" horiz-adv-x="408" d="M93 -6Q86 -6 72 -1T58 12Q58 15 61 18L80 45Q45 95 45 162Q45 216 63 266T115 356T190 419T281 442Q317 442 345 423L359 442Q362 443 370 440T385 431T393 421Q393 416 392 415L376 393Q412
344 412 278Q412 221 393 170T342 80T266 17T175 -6Q138 -6 109 15L93 -6ZM143 136L302 362Q289 392 261 392Q239 392 218 372T179 318T152 244T142 162Q142 154 142 148T143 136ZM199 44Q222 44 242 64T279 118T305 193T315 276Q315 286 315 293T314 306L154 80Q169
44 199 44Z" />
<glyph unicode="&#xf9;" glyph-name="ugrave" horiz-adv-x="492" d="M153 -7Q85 -7 85 80Q85 99 89 126T100 188L124 310Q126 319 127 327T128 342Q128 366 118 366Q110 366 98 357T73 336T54 316Q52 316 45 326T38 340Q44 352 60 369T99 402T143 430T183 442Q202
442 214 428T226 388Q226 361 218 324L189 182Q185 160 183 147T181 126Q181 84 205 84Q220 84 241 108T286 172T328 256T356 344L375 435Q393 440 419 440Q443 440 465 435L404 117Q403 112 403 106T402 93Q402 68 412 68Q427 68 446 87T481 122Q483 122 490 113T497
99Q491 87 474 69T435 34T389 5T347 -7Q328 -7 316 7T304 48Q304 56 305 70T311 106Q319 135 320 150T322 165Q311 143 291 114T245 57T196 11T153 -7ZM364 499Q358 499 340 507T298 528T253 557T217 585T202 609Q202 623 219 634T255 646Q264 646 272 641Q281
633 298 615T333 575T364 538T377 519Q377 513 373 506T364 499Z" />
<glyph unicode="&#xfa;" glyph-name="uacute" horiz-adv-x="492" d="M153 -7Q85 -7 85 80Q85 99 89 126T100 188L124 310Q126 319 127 327T128 342Q128 366 118 366Q110 366 98 357T73 336T54 316Q52 316 45 326T38 340Q44 352 60 369T99 402T143 430T183 442Q202
442 214 428T226 388Q226 361 218 324L189 182Q185 160 183 147T181 126Q181 84 205 84Q220 84 241 108T286 172T328 256T356 344L375 435Q393 440 419 440Q443 440 465 435L404 117Q403 112 403 106T402 93Q402 68 412 68Q427 68 446 87T481 122Q483 122 490 113T497
99Q491 87 474 69T435 34T389 5T347 -7Q328 -7 316 7T304 48Q304 56 305 70T311 106Q319 135 320 150T322 165Q311 143 291 114T245 57T196 11T153 -7ZM245 500Q242 500 238 506T234 516Q234 519 246 535T276 572T313 612T344 642Q351 646 364 646Q382 646 396
636T410 612Q410 602 395 588T358 559T311 531T269 509T245 500Z" />
<glyph unicode="&#xfb;" glyph-name="ucircumflex" horiz-adv-x="492" d="M153 -7Q85 -7 85 80Q85 99 89 126T100 188L124 310Q126 319 127 327T128 342Q128 366 118 366Q110 366 98 357T73 336T54 316Q52 316 45 326T38 340Q44 352 60 369T99 402T143 430T183
442Q202 442 214 428T226 388Q226 361 218 324L189 182Q185 160 183 147T181 126Q181 84 205 84Q220 84 241 108T286 172T328 256T356 344L375 435Q393 440 419 440Q443 440 465 435L404 117Q403 112 403 106T402 93Q402 68 412 68Q427 68 446 87T481 122Q483 122
490 113T497 99Q491 87 474 69T435 34T389 5T347 -7Q328 -7 316 7T304 48Q304 56 305 70T311 106Q319 135 320 150T322 165Q311 143 291 114T245 57T196 11T153 -7ZM206 505Q202 505 201 513T201 526Q205 530 223 546T270 590Q286 606 298 620T320 645Q330 655
334 655Q338 655 342 645Q350 629 357 617T368 597Q387 567 401 549T417 526Q413 505 404 505Q400 505 384 516T350 543T317 571Q301 559 276 544T231 517T206 505Z" />
<glyph unicode="&#xfc;" glyph-name="udieresis" horiz-adv-x="492" d="M153 -7Q85 -7 85 80Q85 99 89 126T100 188L124 310Q126 319 127 327T128 342Q128 366 118 366Q110 366 98 357T73 336T54 316Q52 316 45 326T38 340Q44 352 60 369T99 402T143 430T183 442Q202
442 214 428T226 388Q226 361 218 324L189 182Q185 160 183 147T181 126Q181 84 205 84Q220 84 241 108T286 172T328 256T356 344L375 435Q393 440 419 440Q443 440 465 435L404 117Q403 112 403 106T402 93Q402 68 412 68Q427 68 446 87T481 122Q483 122 490 113T497
99Q491 87 474 69T435 34T389 5T347 -7Q328 -7 316 7T304 48Q304 56 305 70T311 106Q319 135 320 150T322 165Q311 143 291 114T245 57T196 11T153 -7ZM420 635Q440 635 453 619T466 581Q466 552 447 531T402 510Q380 510 368 526T356 563Q356 592 374 613T420
635ZM230 635Q250 635 263 619T276 581Q276 552 257 531T212 510Q190 510 178 526T166 563Q166 592 184 613T230 635Z" />
<glyph unicode="&#xfd;" glyph-name="yacute" horiz-adv-x="496" d="M34 -226Q8 -226 -9 -214T-26 -178Q-26 -151 -6 -134Q27 -146 66 -146Q145 -146 196 -76Q218 -47 218 35Q218 69 215 111T207 196T193 273T176 330T156 352Q142 352 124 335T96 305Q83 313 78
328Q96 354 120 380T169 424T213 442Q234 442 249 418T275 353T294 260Q304 196 308 143T312 47Q326 64 343 92T377 153T403 219T414 279Q414 338 383 390Q386 412 402 427T440 442Q465 442 477 421T490 375Q490 325 476 268T435 155T373 48Q321 -25 261 -87T143
-188T34 -226ZM280 500Q277 500 273 506T269 516Q269 519 281 535T311 572T348 612T379 642Q386 646 399 646Q417 646 431 636T445 612Q445 602 430 588T393 559T346 531T304 509T280 500Z" />
<glyph unicode="&#xfe;" glyph-name="thorn" horiz-adv-x="458" d="M-13 -228Q-17 -227 -17 -220Q-17 -201 -12 -196Q20 -196 33 -180Q39 -171 47 -134L179 550Q183 570 185 584T188 606Q188 628 139 628Q135 628 135 635T138 649T145 656Q158 656 179 660T224
670T267 683T295 694H299Q307 694 307 678Q289 643 278 587Q259 490 248 435T236 377Q263 405 289 423T355 442Q389 442 412 423T447 371T459 300Q459 244 435 190T372 91T289 21T203 -5Q178 -5 164 5L138 -130Q135 -143 135 -155Q135 -179 153 -184Q166 -188 195
-188Q199 -188 199 -197Q199 -212 195 -219H121Q90 -219 57 -221T-13 -228ZM217 48Q243 48 268 70T315 128T348 209T361 298Q361 331 349 352T312 374Q289 374 265 356T224 312L184 102Q174 48 217 48Z" />
<glyph unicode="&#xff;" glyph-name="ydieresis" horiz-adv-x="496" d="M34 -226Q8 -226 -9 -214T-26 -178Q-26 -151 -6 -134Q27 -146 66 -146Q145 -146 196 -76Q218 -47 218 35Q218 69 215 111T207 196T193 273T176 330T156 352Q142 352 124 335T96 305Q83 313
78 328Q96 354 120 380T169 424T213 442Q234 442 249 418T275 353T294 260Q304 196 308 143T312 47Q326 64 343 92T377 153T403 219T414 279Q414 338 383 390Q386 412 402 427T440 442Q465 442 477 421T490 375Q490 325 476 268T435 155T373 48Q321 -25 261 -87T143
-188T34 -226ZM455 635Q475 635 488 619T501 581Q501 552 482 531T437 510Q415 510 403 526T391 563Q391 592 409 613T455 635ZM265 635Q285 635 298 619T311 581Q311 552 292 531T247 510Q225 510 213 526T201 563Q201 592 219 613T265 635Z" />
<glyph unicode="&#x2013;" glyph-name="endash" horiz-adv-x="531" d="M54 197Q47 197 47 212Q47 225 55 242T69 265H470Q476 265 476 250Q476 237 468 220T454 197H54Z" />
<glyph unicode="&#x2014;" glyph-name="emdash" horiz-adv-x="1015" d="M54 197Q47 197 47 212Q47 225 55 242T69 265H964Q971 265 971 250Q971 237 963 220T949 197H54Z" />
<glyph unicode="&#x2018;" glyph-name="quoteleft" horiz-adv-x="169" d="M122 478Q107 478 97 485Q86 510 96 555Q103 596 136 635Q164 667 190 686T228 706Q234 706 241 699T250 684Q216 665 194 640T166 594Q163 582 179 559Q194 536 191 522Q187 504 166 491T122
478Z" />
<glyph unicode="&#x2019;" glyph-name="quoteright" horiz-adv-x="177" d="M98 479Q92 479 85 486T76 501Q114 523 134 549T159 592Q162 604 146 628Q131 651 134 664Q138 682 159 694T204 707Q218 707 228 700Q238 678 228 630Q221 589 189 551Q161 518 135 499T98 479Z" />
<glyph unicode="&#x201a;" glyph-name="quotesinglbase" horiz-adv-x="245" d="M55 -103Q49 -103 42 -96T33 -81Q71 -59 91 -33T116 10Q118 24 103 46Q88 69 91 82Q95 100 116 112T161 125Q175 125 185 118Q195 96 185 48Q178 7 146 -31Q118 -64 92 -83T55 -103Z" />
<glyph unicode="&#x201c;" glyph-name="quotedblleft" horiz-adv-x="282" d="M235 478Q220 478 210 485Q199 510 209 555Q216 596 249 635Q277 667 303 686T341 706Q347 706 354 699T363 684Q329 665 307 640T279 594Q276 582 292 559Q307 536 304 522Q300 504
279 491T235 478ZM358 478Q343 478 333 485Q322 510 332 555Q339 596 372 635Q400 667 426 686T464 706Q470 706 477 699T486 684Q452 665 430 640T402 594Q399 582 415 559Q430 536 427 522Q423 504 402 491T358 478Z" />
<glyph unicode="&#x201d;" glyph-name="quotedblright" horiz-adv-x="288" d="M219 479Q213 479 206 486T197 501Q235 523 255 549T280 592Q283 604 267 628Q252 651 255 664Q259 682 280 694T325 707Q339 707 349 700Q359 678 349 630Q342 589 310 551Q282 518
256 499T219 479ZM334 479Q328 479 321 486T312 501Q350 523 370 549T395 592Q398 604 382 628Q367 651 370 664Q374 682 395 694T440 707Q454 707 464 700Q474 678 464 630Q457 589 425 551Q397 518 371 499T334 479Z" />
<glyph unicode="&#x201e;" glyph-name="quotedblbase" horiz-adv-x="245" d="M310 -103Q304 -103 297 -96T288 -81Q326 -59 346 -33T371 10Q373 24 358 46Q343 69 346 82Q350 100 371 112T416 125Q430 125 440 118Q450 96 440 48Q433 7 401 -31Q373 -64 347 -83T310
-103ZM195 -103Q189 -103 182 -96T173 -81Q211 -59 231 -33T256 10Q258 24 243 46Q228 69 231 82Q235 100 256 112T301 125Q315 125 325 118Q335 96 325 48Q318 7 286 -31Q258 -64 232 -83T195 -103Z" />
<glyph unicode="&#x2022;" glyph-name="bullet" horiz-adv-x="335" d="M48 237Q48 275 68 309T120 366T190 388Q234 388 258 359T283 289Q283 250 262 216T209 160T141 138Q99 138 74 167T48 237Z" />
<glyph unicode="&#x2039;" glyph-name="guilsinglleft" horiz-adv-x="325" d="M207 73Q198 86 174 110T115 165T41 227Q36 230 36 237Q36 255 49 268Q97 295 141 323T221 377T277 423Q285 421 292 415T299 403Q299 400 297 396Q294 392 276 375T222 328L131 248L189
167L221 127Q239 102 239 96Q239 84 207 73Z" />
<glyph unicode="&#x203a;" glyph-name="guilsinglright" horiz-adv-x="330" d="M50 73Q44 74 36 80T27 92Q27 100 48 117T104 167L194 248L134 329Q111 361 99 378T86 399Q86 411 117 423Q125 413 150 387T211 328T284 268Q288 261 288 254Q288 233 276 228Q223
197 177 166T97 111T50 73Z" />
</font>
</defs>
</svg>
